osu file format v14

[General]
AudioFilename: audio.mp3
AudioLeadIn: 0
PreviewTime: 75018
Countdown: 0
SampleSet: Soft
StackLeniency: 0.7
Mode: 0
LetterboxInBreaks: 0
WidescreenStoryboard: 0

[Editor]
DistanceSpacing: 1.3
BeatDivisor: 4
GridSize: 4
TimelineZoom: 2.2

[Metadata]
Title:Butterfly Regret
TitleUnicode:Butterfly Regret
Artist:ClariS
ArtistUnicode:ClariS
Creator:Yasaija 714
Version:Hard
Source:
Tags:hitorigoto ヒトリゴト Little CloudSplash16 _kotachi_
BeatmapID:1407928
BeatmapSetID:665235

[Difficulty]
HPDrainRate:5
CircleSize:4
OverallDifficulty:6
ApproachRate:7
SliderMultiplier:1.4
SliderTickRate:1

[Events]
//Background and Video events
0,0,"BG.jpg",0,0
//Break Periods
//Storyboard Layer 0 (Background)
//Storyboard Layer 1 (Fail)
//Storyboard Layer 2 (Pass)
//Storyboard Layer 3 (Foreground)
//Storyboard Sound Samples

[TimingPoints]
1150,545.454545454546,4,2,1,30,1,0
14104,-100,4,2,1,5,0,0
14240,-100,4,2,1,30,0,0
18605,359.281437125748,4,2,1,60,1,0
30102,-100,4,2,1,40,0,0
53096,-100,4,2,1,50,0,0
64593,-100,4,2,1,60,0,0
75910,-90.9090909090909,4,2,1,80,0,1
97467,-90.9090909090909,4,2,1,80,0,0
99084,-100,4,2,1,60,0,0

[Colours]
Combo1 : 140,255,189
Combo2 : 213,155,227
Combo3 : 255,157,111
Combo4 : 85,170,255

[HitObjects]
104,144,1150,6,0,L|184:152,1,70,2|0,0:0|0:0,0:0:0:0:
240,212,1695,2,0,P|264:144|228:80,1,140,2|0,0:0|0:0,0:0:0:0:
173,150,2513,1,0,0:0:0:0:
116,80,2786,1,0,0:0:0:0:
235,86,3059,6,0,P|272:88|320:72,1,70,2|0,0:0|0:0,0:0:0:0:
376,136,3604,2,0,P|378:173|362:221,1,70,2|0,0:0|0:0,0:0:0:0:
280,308,4150,2,0,P|278:271|294:223,1,70,2|0,0:0|0:0,0:0:0:0:
370,204,4695,1,0,0:0:0:0:
448,252,4968,1,0,0:0:0:0:
370,204,5240,1,0,0:0:0:0:
500,152,5513,6,0,P|500:112|480:64,1,70,2|0,0:0|0:0,0:0:0:0:
404,60,6059,2,0,P|320:72|244:52,1,140,2|0,0:0|0:0,0:0:0:0:
184,24,6877,1,0,0:0:0:0:
176,116,7150,1,0,0:0:0:0:
184,24,7422,1,0,0:0:0:0:
84,116,7695,6,0,P|100:168|136:200,1,70,2|0,0:0|0:0,0:0:0:0:
192,220,8240,2,0,P|245:226|283:256,1,70,2|0,0:0|0:0,0:0:0:0:
312,308,8786,2,0,P|365:301|403:271,1,70,2|0,0:0|0:0,0:0:0:0:
388,204,9331,1,0,0:0:0:0:
388,204,9604,1,0,0:0:0:0:
476,256,9877,6,0,P|480:300|476:332,1,70,2|0,0:0|0:0,0:0:0:0:
392,360,10422,2,0,L|312:356,2,70,2|0|2,0:0|0:0|0:0,0:0:0:0:
412,180,11513,1,0,0:0:0:0:
412,180,11786,1,0,0:0:0:0:
280,224,12059,6,0,L|260:128,1,70,2|0,0:0|0:0,0:0:0:0:
244,68,12604,2,0,P|192:60|144:72,1,70,2|0,0:0|0:0,0:0:0:0:
84,76,13150,2,0,P|32:84|-16:72,1,70,2|0,0:0|0:0,0:0:0:0:
28,172,13695,2,0,P|40:232|36:280,1,105
20,320,14240,6,0,L|100:328,1,70,2|0,0:0|0:0,0:0:0:0:
160,272,14786,2,0,L|240:264,1,70,2|0,0:0|0:0,0:0:0:0:
304,316,15331,2,0,P|312:232|276:188,1,140,2|0,0:0|0:0,0:0:0:0:
112,120,16422,6,0,L|200:100,1,70,2|0,0:0|0:0,0:0:0:0:
248,164,16968,2,0,L|179:179,1,70,2|0,0:0|0:0,0:0:0:0:
144,264,17513,2,0,L|232:244,1,70,2|0,0:0|0:0,0:0:0:0:
280,308,18059,2,0,L|211:323,1,70,2|0,0:0|0:0,0:0:0:0:
80,364,18605,6,0,L|65:295,1,70,6|0,0:0|0:0,0:0:0:0:
40,208,18964,1,8,0:0:0:0:
40,208,19143,2,0,P|124:184|184:196,1,140,6|0,0:0|0:0,0:0:0:0:
256,236,19682,2,0,P|264:188|260:156,1,70,14|0,0:0|0:0,0:0:0:0:
164,76,20042,6,0,L|240:72,1,70,2|0,0:0|0:0,0:0:0:0:
324,68,20401,2,0,P|364:80|388:112,1,70,8|0,0:0|0:0,0:0:0:0:
424,180,20760,2,0,L|416:256,1,70,8|0,0:0|0:0,0:0:0:0:
364,324,21119,1,8,0:0:0:0:
276,356,21299,1,8,0:0:0:0:
228,220,21479,6,0,L|220:296,1,70,6|0,0:0|0:0,0:0:0:0:
168,364,21838,1,8,0:0:0:0:
168,364,22018,2,0,B|96:372|96:372|8:360,1,140,6|0,0:0|0:0,0:0:0:0:
16,272,22557,2,0,L|24:202,1,70,14|0,0:0|0:0,0:0:0:0:
56,80,22916,6,0,P|104:80|144:72,1,70,8|0,0:0|0:0,0:0:0:0:
192,140,23275,2,0,P|240:140|280:148,1,70,8|0,0:0|0:0,0:0:0:0:
348,176,23634,2,0,P|354:225|352:257,1,70,8|0,0:0|0:0,0:0:0:0:
297,324,23994,1,8,0:0:0:0:
232,268,24173,1,8,0:0:0:0:
232,268,24263,1,8,0:0:0:0:
232,268,24353,6,0,L|160:264,1,70,6|0,0:0|0:0,0:0:0:0:
84,216,24712,1,0,0:0:0:0:
84,216,24892,2,0,P|108:144|96:80,1,140,6|0,0:0|0:0,0:0:0:0:
172,28,25431,2,0,L|241:31,1,70,14|0,0:0|0:0,0:0:0:0:
378,55,25790,6,0,P|374:99|394:143,1,70,8|0,0:0|0:0,0:0:0:0:
418,208,26149,2,0,P|422:252|402:296,1,70,8|0,0:0|0:0,0:0:0:0:
350,340,26509,2,0,P|306:344|262:324,1,70,8|0,0:0|0:0,0:0:0:0:
230,260,26868,2,0,P|186:256|142:276,1,70,8|8,0:0|0:0,0:0:0:0:
36,296,27227,6,0,L|56:368,1,70,6|0,0:0|0:0,0:0:0:0:
150,338,27587,1,8,0:0:0:0:
150,338,27766,2,0,P|162:258|134:194,1,140,6|0,0:0|0:0,0:0:0:0:
73,141,28305,1,14,0:0:0:0:
216,32,28664,6,0,L|224:112,1,70,8|0,0:0|0:0,0:0:0:0:
300,152,29024,2,0,L|308:72,1,70,8|0,0:0|0:0,0:0:0:0:
388,44,29383,2,0,L|396:124,1,70,8|0,0:0|0:0,0:0:0:0:
472,164,29743,2,0,L|480:84,1,70,8|8,0:0|0:0,0:0:0:0:
384,200,30102,5,6,0:0:0:0:
480,352,30461,1,8,0:0:0:0:
480,352,30640,2,0,P|436:344|404:344,1,70,0|2,0:0|0:0,0:0:0:0:
348,280,31000,2,0,P|304:288|272:288,2,70,0|8|2,0:0|0:0|0:0,0:0:0:0:
168,248,31718,5,0,0:0:0:0:
124,168,31898,2,0,P|116:112|120:80,1,70,8|0,0:0|0:0,0:0:0:0:
200,16,32257,2,0,P|208:72|204:104,1,70,2|0,0:0|0:0,0:0:0:0:
116,98,32616,1,10,0:0:0:0:
60,28,32796,1,0,0:0:0:0:
16,184,32976,6,0,P|46:176|96:176,1,70,2|0,0:0|0:0,0:0:0:0:
160,228,33335,1,8,0:0:0:0:
160,228,33515,2,0,P|236:200|304:196,1,140,0|2,0:0|0:0,0:0:0:0:
386,224,34054,2,0,L|372:156,1,70,8|0,0:0|0:0,0:0:0:0:
456,116,34413,6,0,L|472:40,2,70,0|0|10,0:0|0:0|0:0,0:0:0:0:
372,156,34952,1,0,0:0:0:0:
372,156,35131,2,0,L|388:232,2,70,10|0|10,0:0|0:0|0:0,0:0:0:0:
228,44,35850,6,0,P|172:48|132:60,1,70,6|0,0:0|0:0,0:0:0:0:
108,128,36209,1,10,0:0:0:0:
108,128,36389,1,0,0:0:0:0:
0,199,36569,2,0,P|56:203|96:215,1,70,2|0,0:0|0:0,0:0:0:0:
112,290,36928,1,10,0:0:0:0:
196,245,37107,1,10,0:0:0:0:
376,228,37467,6,0,P|384:188|376:136,2,70,0|8|0,0:0|0:0|0:0,0:0:0:0:
340,316,38006,2,0,P|300:308|268:308,1,70,2|0,0:0|0:0,0:0:0:0:
196,360,38365,2,0,P|156:368|124:368,1,70,10|0,0:0|0:0,0:0:0:0:
48,320,38724,5,0,0:0:0:0:
96,244,38904,2,0,L|104:156,2,70,0|8|0,0:0|0:0|0:0,0:0:0:0:
188,252,39443,2,0,L|194:321,2,70,0|0|8,0:0|0:0|0:0,0:0:0:0:
276,228,39982,1,0,0:0:0:0:
276,228,40161,6,0,L|284:140,1,70
372,140,40521,2,0,L|365:70,1,70,8|0,0:0|0:0,0:0:0:0:
288,24,40880,1,0,0:0:0:0:
218,89,41060,1,0,0:0:0:0:
218,89,41149,1,0,0:0:0:0:
218,89,41239,1,8,0:0:0:0:
124,48,41419,1,0,0:0:0:0:
68,120,41599,6,0,L|76:200,1,70,6|0,0:0|0:0,0:0:0:0:
72,280,41958,1,8,0:0:0:0:
72,280,42137,2,0,P|112:260|148:260,1,70,0|2,0:0|0:0,0:0:0:0:
232,248,42497,2,0,P|272:268|308:268,2,70,10|2|10,0:0|0:0|0:0,0:0:0:0:
192,72,43215,5,0,0:0:0:0:
192,72,43395,2,0,L|264:64,1,70,8|0,0:0|0:0,0:0:0:0:
344,104,43754,2,0,P|352:144|344:180,1,70,2|0,0:0|0:0,0:0:0:0:
296,248,44113,2,0,P|288:288|296:324,1,70,8|0,0:0|0:0,0:0:0:0:
372,364,44473,5,2,0:0:0:0:
196,324,44832,1,8,0:0:0:0:
196,324,45012,2,0,L|188:232,1,70,0|2,0:0|0:0,0:0:0:0:
100,240,45371,2,0,L|108:148,1,70,0|8,0:0|0:0,0:0:0:0:
180,120,45730,6,0,P|256:128|320:100,1,140,2|0,0:0|0:0,0:0:0:0:
392,152,46269,2,0,P|384:196|396:236,1,70,10|2,0:0|0:0,0:0:0:0:
440,296,46628,1,10,0:0:0:0:
440,296,46808,1,0,0:0:0:0:
372,356,46988,1,8,0:0:0:0:
372,356,47167,1,0,0:0:0:0:
312,288,47347,6,0,L|232:288,1,70,6|0,0:0|0:0,0:0:0:0:
172,344,47706,2,0,P|152:296|192:212,1,140,8|10,0:0|0:0,0:0:0:0:
256,164,48245,2,0,P|276:128|268:76,1,70,0|8,0:0|0:0,0:0:0:0:
140,84,48604,6,0,P|48:92|-4:84,1,140,2|0,0:0|0:0,0:0:0:0:
28,172,49143,1,8,0:0:0:0:
28,172,49323,2,0,P|120:180|172:172,1,140,2|8,0:0|0:0,0:0:0:0:
160,264,49862,1,0,0:0:0:0:
160,264,50042,1,2,0:0:0:0:
324,188,50401,6,0,P|336:228|332:284,2,70,0|8|0,0:0|0:0|0:0,0:0:0:0:
236,160,50940,2,0,P|224:120|228:64,2,70,8|0|8,0:0|0:0|0:0,0:0:0:0:
312,108,51479,1,0,0:0:0:0:
312,108,51658,6,0,L|408:116,1,70
476,184,52018,2,0,L|380:192,1,70,8|0,0:0|0:0,0:0:0:0:
316,206,52377,1,8,0:0:0:0:
316,206,52467,1,8,0:0:0:0:
316,206,52557,1,8,0:0:0:0:
240,272,52736,2,0,L|233:317,3,35,8|8|8|8,0:3|0:3|0:3|0:3,0:0:0:0:
205,351,53096,6,0,P|129:347|73:303,1,140,4|0,0:0|0:0,0:0:0:0:
125,235,53634,2,0,P|201:231|257:187,1,140,4|0,0:0|0:0,0:0:0:0:
205,119,54173,2,0,P|129:115|73:71,1,140,4|0,0:0|0:0,0:0:0:0:
157,11,54712,5,0,0:0:0:0:
157,11,54892,2,0,L|241:19,1,70,0|0,0:0|0:0,0:0:0:0:
280,99,55251,2,0,L|364:91,1,70
434,132,55610,2,0,L|430:184,3,35,2|2|2|2,0:0|0:0|0:0|0:0,0:0:0:0:
415,213,55970,6,0,L|423:289,1,70,6|0,0:0|0:0,0:0:0:0:
340,332,56329,2,0,P|272:316|243:320,1,70,8|2,0:0|0:0,0:0:0:0:
191,353,56688,1,2,0:0:0:0:
191,353,56868,1,2,0:0:0:0:
106,316,57048,2,0,P|98:272|102:236,1,70,8|2,0:0|0:0,0:0:0:0:
168,180,57407,5,2,0:0:0:0:
168,180,57587,2,0,L|244:188,2,70,2|8|2,0:0|0:0|0:0,0:0:0:0:
92,128,58125,2,0,P|84:84|88:48,1,70,8|8,0:0|0:0,0:0:0:0:
164,16,58485,2,0,L|240:24,1,70,8|8,0:0|0:0,0:0:0:0:
324,36,58844,6,0,L|344:184,1,140,4|0,0:0|0:0,0:0:0:0:
420,128,59383,2,0,L|400:276,1,140,4|0,0:0|0:0,0:0:0:0:
324,220,59922,2,0,L|344:368,1,140,4|0,0:0|0:0,0:0:0:0:
252,340,60461,5,0,0:0:0:0:
252,340,60640,2,0,P|204:332|172:336,1,70,0|0,0:0|0:0,0:0:0:0:
100,376,61000,2,0,P|92:336|96:296,1,70,0|0,0:0|0:0,0:0:0:0:
152,236,61359,2,0,P|156:216|152:192,3,35,2|2|2|2,0:0|0:0|0:0|0:0,0:0:0:0:
136,160,61718,6,0,L|56:164,1,70,6|0,0:0|0:0,0:0:0:0:
108,80,62078,2,0,P|152:76|196:100,1,70,10|0,0:0|0:0,0:0:0:0:
240,152,62437,1,2,0:0:0:0:
240,152,62616,1,2,0:0:0:0:
320,112,62796,1,10,0:0:0:0:
320,112,62976,1,2,0:0:0:0:
392,168,63155,6,0,L|384:248,1,70,2|0,0:0|0:0,0:0:0:0:
324,308,63515,2,0,P|260:300|180:312,1,140,8|8,0:0|0:0,0:0:0:0:
120,376,64054,1,0,0:0:0:0:
120,376,64233,2,0,L|80:308,1,70,8|0,0:0|0:0,0:0:0:0:
132,236,64593,6,0,P|164:204|176:154,1,70,6|0,0:0|0:0,0:0:0:0:
288,186,64952,2,0,P|256:154|244:104,1,70,10|0,0:0|0:0,0:0:0:0:
244,36,65311,2,0,L|320:40,2,70,2|2|8,0:0|0:0|0:0,0:0:0:0:
152,24,65850,1,2,0:0:0:0:
192,144,66030,6,0,P|296:152|328:140,1,140,2|8,0:0|0:0,0:0:0:0:
396,80,66569,1,0,0:0:0:0:
396,80,66748,2,0,L|424:148,1,70,2|0,0:0|0:0,0:0:0:0:
492,204,67107,2,0,L|464:272,1,70,8|8,0:0|0:0,0:0:0:0:
384,312,67467,6,0,P|304:304|236:316,1,140,6|8,0:0|0:0,0:0:0:0:
172,368,68006,2,0,P|152:316|192:240,1,140,6|8,0:0|0:0,0:0:0:0:
264,196,68545,1,8,0:0:0:0:
264,196,68724,1,2,0:0:0:0:
116,188,68904,6,0,B|124:116|124:116|112:44,1,140,6|8,0:0|0:0,0:0:0:0:
28,168,69443,2,0,P|40:244|112:276,1,140,6|8,0:0|0:0,0:0:0:0:
186,243,69982,2,0,P|242:231|266:235,1,70,8|0,0:0|0:0,0:0:0:0:
396,220,70341,6,0,L|380:136,1,70,6|0,0:0|0:0,0:0:0:0:
308,100,70700,2,0,L|294:168,1,70,8|0,0:0|0:0,0:0:0:0:
220,220,71060,2,0,L|204:136,1,70,2|2,0:0|0:0,0:0:0:0:
132,100,71419,2,0,L|118:168,1,70,10|2,0:0|0:0,0:0:0:0:
60,296,71778,6,0,P|96:296|152:308,1,70,0|0,0:0|0:0,0:0:0:0:
212,340,72137,2,0,P|248:340|304:328,1,70,8|0,0:0|0:0,0:0:0:0:
364,292,72497,2,0,P|400:292|456:304,1,70,2|2,0:0|0:0,0:0:0:0:
496,232,72856,2,0,L|488:192,3,35,8|8|8|8,0:0|0:0|0:0|0:0,0:0:0:0:
476,152,73215,6,0,B|480:92|480:92|472:48,2,105,4|4|4,0:3|0:3|0:3,0:0:0:0:
360,204,73934,2,0,B|356:264|356:264|364:308,2,105,4|4|4,0:3|0:3|0:3,0:0:0:0:
268,120,74652,2,0,P|204:84|124:96,1,140,4|0,0:3|0:0,0:0:0:0:
28,180,75371,6,0,L|25:145,4,35,0|0|0|0|4,0:0|0:0|0:0|0:0|0:3,0:0:0:0:
120,184,75910,6,0,L|112:272,1,77.0000023498536,6|0,0:0|0:0,0:0:0:0:
60,344,76269,1,0,0:0:0:0:
60,344,76449,2,0,P|144:352|196:312,1,154.000004699707,8|2,0:0|0:0,0:0:0:0:
244,224,76988,1,0,0:0:0:0:
316,292,77167,1,8,0:0:0:0:
244,224,77347,6,0,L|236:144,1,77.0000023498536,6|0,0:0|0:0,0:0:0:0:
323,215,77706,2,0,L|316:292,1,77.0000023498536,2|8,0:0|0:0,0:0:0:0:
404,336,78066,2,0,L|396:256,1,77.0000023498536,2|8,0:0|0:0,0:0:0:0:
432,168,78425,1,0,0:0:0:0:
432,168,78604,1,8,0:0:0:0:
435,24,78784,6,0,P|391:21|353:34,1,77.0000023498536,6|0,0:0|0:0,0:0:0:0:
244,100,79143,1,0,0:0:0:0:
244,100,79323,2,0,B|140:108|140:108|80:80,1,154.000004699707,8|2,0:0|0:0,0:0:0:0:
175,29,79862,1,0,0:0:0:0:
244,100,80042,1,8,0:0:0:0:
360,31,80221,6,0,P|444:52|497:123,1,154.000004699707,6|0,0:0|0:0,0:0:0:0:
408,184,80760,2,0,P|400:224|408:272,1,77.0000023498536,10|0,0:0|0:0,0:0:0:0:
284,192,81119,2,0,P|297:230|328:268,1,77.0000023498536,10|2,0:0|0:0,0:0:0:0:
180,260,81479,1,10,0:0:0:0:
280,344,81658,6,0,P|384:352|440:324,1,154.000004699707,6|0,0:0|0:0,0:0:0:0:
488,252,82197,2,0,P|440:248|404:232,1,77.0000023498536,8|0,0:0|0:0,0:0:0:0:
352,160,82557,2,0,P|304:164|268:180,2,77.0000023498536,2|2|10,0:0|0:0|0:0,0:0:0:0:
388,68,83096,6,0,P|284:76|228:48,1,154.000004699707,6|0,0:0|0:0,0:0:0:0:
144,28,83634,2,0,P|140:68|160:120,1,77.0000023498536,8|0,0:0|0:0,0:0:0:0:
204,188,83994,2,0,P|208:228|188:280,2,77.0000023498536,2|2|10,0:0|0:0|0:0,0:0:0:0:
120,308,84533,5,4,0:0:0:0:
120,308,84712,2,0,P|184:352|268:320,1,154.000004699707,2|8,0:0|0:0,0:0:0:0:
328,268,85251,2,0,L|316:176,1,77.0000023498536,2|8,0:0|0:0,0:0:0:0:
404,140,85610,2,0,L|416:48,1,77.0000023498536,2|8,0:0|0:0,0:0:0:0:
320,28,85970,6,0,P|238:28|144:40,2,154.000004699707,4|4|4,0:0|0:0|0:0,0:0:0:0:
404,140,86868,1,8,0:0:0:0:
282,117,87048,1,6,0:0:0:0:
282,117,87138,1,2,0:0:0:0:
282,117,87227,1,10,0:0:0:0:
168,180,87407,6,0,L|160:268,1,77.0000023498536,6|0,0:0|0:0,0:0:0:0:
216,340,87766,1,0,0:0:0:0:
216,340,87946,2,0,B|256:332|256:332|332:352|332:352|376:340,1,154.000004699707,8|2,0:0|0:0,0:0:0:0:
436,272,88485,1,0,0:0:0:0:
340,244,88664,1,8,0:0:0:0:
436,272,88844,6,0,L|452:180,1,77.0000023498536,6|0,0:0|0:0,0:0:0:0:
326,168,89203,2,0,L|340:244,1,77.0000023498536,2|8,0:0|0:0,0:0:0:0:
208,220,89563,2,0,L|224:128,1,77.0000023498536,2|8,0:0|0:0,0:0:0:0:
256,48,89922,1,0,0:0:0:0:
256,48,90102,1,8,0:0:0:0:
132,32,90281,6,0,P|124:72|128:116,1,77.0000023498536,6|0,0:0|0:0,0:0:0:0:
140,208,90640,1,0,0:0:0:0:
221,144,90820,2,0,P|308:140|368:100,1,154.000004699707,8|2,0:0|0:0,0:0:0:0:
432,32,91359,1,0,0:0:0:0:
480,120,91539,1,8,0:0:0:0:
360,72,91718,6,0,L|380:224,1,154.000004699707,6|0,0:0|0:0,0:0:0:0:
336,308,92257,2,0,P|296:320|248:312,1,77.0000023498536,10|0,0:0|0:0,0:0:0:0:
136,252,92616,2,0,P|176:240|224:248,1,77.0000023498536,10|2,0:0|0:0,0:0:0:0:
96,324,92976,1,10,0:0:0:0:
76,192,93155,6,0,P|108:108|96:32,1,154.000004699707,6|0,0:0|0:0,0:0:0:0:
196,20,93694,2,0,P|244:16|284:24,1,77.0000023498536,8|0,0:0|0:0,0:0:0:0:
344,92,94054,2,0,P|392:96|432:88,2,77.0000023498536,2|2|10,0:0|0:0|0:0,0:0:0:0:
468,172,94593,6,0,P|384:168|304:192,1,154.000004699707,6|0,0:0|0:0,0:0:0:0:
248,256,95131,2,0,P|252:296|244:340,1,77.0000023498536,8|0,0:0|0:0,0:0:0:0:
156,216,95491,2,0,P|152:176|160:132,2,77.0000023498536,2|2|10,0:0|0:0|0:0,0:0:0:0:
248,256,96030,1,0,0:0:0:0:
317,185,96209,6,0,L|321:105,1,77.0000023498536,14|10,0:0|0:0,0:0:0:0:
404,56,96569,1,10,0:0:0:0:
491,99,96748,2,0,L|488:176,1,77.0000023498536,6|8,0:0|0:0,0:0:0:0:
408,236,97107,1,8,0:0:0:0:
480,304,97287,1,10,0:0:0:0:
344,312,97467,5,6,0:0:0:0:
256,192,97646,12,4,99084,0:3:0:0:
