osu file format v14

[General]
AudioFilename: audio.mp3
AudioLeadIn: 0
PreviewTime: 75018
Countdown: 0
SampleSet: Soft
StackLeniency: 0.7
Mode: 0
LetterboxInBreaks: 0
WidescreenStoryboard: 0

[Editor]
DistanceSpacing: 1
BeatDivisor: 4
GridSize: 4
TimelineZoom: 1

[Metadata]
Title:Butterfly Regret
TitleUnicode:Butterfly Regret
Artist:ClariS
ArtistUnicode:ClariS
Creator:Yasaija 714
Version:Easy
Source:
Tags:hitorigoto ヒトリゴト Little CloudSplash16 _kotachi_
BeatmapID:1407927
BeatmapSetID:665235

[Difficulty]
HPDrainRate:2
CircleSize:3
OverallDifficulty:3
ApproachRate:3
SliderMultiplier:0.9
SliderTickRate:1

[Events]
//Background and Video events
0,0,"BG.jpg",0,0
//Break Periods
//Storyboard Layer 0 (Background)
//Storyboard Layer 1 (Fail)
//Storyboard Layer 2 (Pass)
//Storyboard Layer 3 (Foreground)
//Storyboard Sound Samples

[TimingPoints]
1150,545.454545454546,4,2,1,30,1,0
18605,359.281437125748,4,2,1,60,1,0
30102,-100,4,2,1,40,0,0
53096,-100,4,2,1,50,0,0
64593,-100,4,2,1,60,0,0
75910,-100,4,2,1,80,0,1
97467,-100,4,2,1,80,0,0
99084,-100,4,2,1,60,0,0

[Colours]
Combo1 : 140,255,189
Combo2 : 213,155,227
Combo3 : 255,157,111
Combo4 : 85,170,255

[HitObjects]
96,192,1150,6,0,P|184:204|276:152,1,180,2|0,0:0|0:0,0:0:0:0:
368,80,3059,2,0,P|436:72|472:80,2,90,2|2|2,0:0|0:0|0:0,0:0:0:0:
288,292,5513,6,0,B|197:330|196:252|108:292,1,180,2|0,0:0|0:0,0:0:0:0:
44,124,7695,2,0,P|48:80|72:32,1,90,2|2,0:0|0:0,0:0:0:0:
156,56,8786,2,0,P|200:64|248:56,1,90,2|0,0:0|0:0,0:0:0:0:
332,32,9877,6,0,P|388:100|368:196,1,180,2|2,0:0|0:0,0:0:0:0:
304,244,11513,1,0,0:0:0:0:
224,204,12059,2,0,P|156:148|60:168,1,180,2|2,0:0|0:0,0:0:0:0:
36,244,13695,1,0,0:0:0:0:
72,328,14240,6,0,P|116:336|172:332,2,90,2|2|2,0:0|0:0|0:0,0:0:0:0:
148,164,16422,2,0,P|103:162|58:170,2,90,2|2|2,0:0|0:0|0:0,0:0:0:0:
176,252,18059,1,2,0:0:0:0:
244,192,18605,6,0,P|248:128|232:56,2,135,6|6|14,0:0|0:0|0:0,0:0:0:0:
176,252,20042,2,0,P|92:272|64:360,1,180,2|8,0:0|0:0,0:0:0:0:
152,340,21119,1,8,0:0:0:0:
240,356,21479,6,0,B|332:352|332:352|372:332,2,135,6|6|14,0:0|0:0|0:0,0:0:0:0:
152,340,22916,2,0,B|184:252|114:252|152:152,1,180,8|8,0:0|0:0,0:0:0:0:
200,92,23994,1,8,0:0:0:0:
280,136,24353,6,0,B|324:144|324:144|368:128|368:128|412:136,2,135,6|6|14,0:0|0:0|0:0,0:0:0:0:
200,92,25790,2,0,P|148:80|104:84,1,90,8|8,0:0|0:0,0:0:0:0:
36,132,26509,2,0,P|24:184|28:228,1,90,8|8,0:0|0:0,0:0:0:0:
92,280,27227,6,0,P|172:268|244:280,1,135,6|6,0:0|0:0,0:0:0:0:
352,328,28305,1,14,0:0:0:0:
428,276,28664,2,0,P|432:224|424:184,1,90,8|8,0:0|0:0,0:0:0:0:
372,116,29383,2,0,P|328:86|290:73,1,90,8|8,0:0|0:0,0:0:0:0:
220,124,30102,6,0,P|132:136|56:88,1,180,6|2,0:0|0:0,0:0:0:0:
20,220,31359,2,0,L|32:360,1,135,2|8,0:0|0:0,0:0:0:0:
112,312,32257,2,0,P|156:300|208:304,1,90,2|10,0:0|0:0,0:0:0:0:
280,344,32976,5,2,0:0:0:0:
352,288,33335,2,0,P|396:300|448:296,2,90,8|0|8,0:0|0:0|0:0,0:0:0:0:
296,216,34413,2,0,P|212:192|120:212,1,180,0|10,0:0|0:0,0:0:0:0:
56,272,35491,1,10,0:0:0:0:
20,188,35850,6,0,P|36:100|4:12,1,180,6|10,0:0|0:0,0:0:0:0:
140,48,37107,2,0,B|208:40|208:40|296:64,1,135,10|8,0:0|0:0,0:0:0:0:
348,108,38006,2,0,B|392:116|392:116|448:104,1,90,2|10,0:0|0:0,0:0:0:0:
500,172,38724,6,0,P|496:228|504:276,1,90,0|8,0:0|0:0,0:0:0:0:
436,324,39443,2,0,P|380:320|332:328,1,90,0|8,0:0|0:0,0:0:0:0:
260,308,40161,2,0,B|256:264|264:204,2,90,0|8|0,0:0|0:0|0:0,0:0:0:0:
180,348,41239,1,0,0:0:0:0:
120,280,41599,6,0,L|24:272,1,90,6|8,0:0|0:0,0:0:0:0:
20,184,42317,2,0,P|8:96|24:36,2,135,2|10|8,0:0|0:0|0:0,0:0:0:0:
108,195,43754,2,0,P|152:188|196:192,1,90,2|8,0:0|0:0,0:0:0:0:
272,244,44473,6,0,P|284:204|276:148,2,90,2|8|2,0:0|0:0|0:0,0:0:0:0:
400,284,45730,2,0,P|416:200|404:140,1,135,2|10,0:0|0:0,0:0:0:0:
367,71,46628,1,10,0:0:0:0:
276,73,46988,1,8,0:0:0:0:
192,36,47347,6,0,P|184:88|200:128,1,90,6|8,0:0|0:0,0:0:0:0:
276,232,48245,1,0,0:0:0:0:
252,320,48604,2,0,L|100:312,1,135,0|8,0:0|0:0,0:0:0:0:
68,236,49503,2,0,P|56:176|64:140,1,90,0|8,0:0|0:0,0:0:0:0:
140,104,50221,6,0,L|232:112,1,90,0|8,0:0|0:0,0:0:0:0:
288,180,50940,2,0,L|380:172,1,90,8|8,0:0|0:0,0:0:0:0:
452,124,51658,2,0,P|464:180|456:216,1,90,0|8,0:0|0:0,0:0:0:0:
386,266,52377,1,8,0:0:0:0:
296,271,52736,1,8,0:3:0:0:
204,276,53096,6,0,P|216:204|196:140,2,135,4|4|4,0:0|0:0|0:0,0:0:0:0:
164,356,54533,1,0,0:0:0:0:
252,352,54892,2,0,P|295:360|339:351,2,90,0|0|2,0:0|0:0|0:0,0:0:0:0:
204,276,55970,6,0,B|152:252|104:288|104:288|64:268|48:200,1,180,6|2,0:0|0:0,0:0:0:0:
44,144,57048,1,8,0:0:0:0:
108,80,57407,2,0,P|152:72|204:80,1,90,2|8,0:0|0:0,0:0:0:0:
256,144,58125,2,0,P|300:152|352:144,1,90,8|8,0:0|0:0,0:0:0:0:
420,100,58844,6,0,B|452:136|452:136|452:228,2,135,4|4|4,0:0|0:0|0:0,0:0:0:0:
348,44,60281,1,0,0:0:0:0:
284,104,60640,2,0,P|224:96|192:104,2,90,0|0|2,0:0|0:0|0:0,0:0:0:0:
344,172,61718,6,0,B|324:260|324:260|236:304,1,180,6|2,0:0|0:0,0:0:0:0:
164,260,62796,1,10,0:0:0:0:
80,292,63155,1,2,0:0:0:0:
12,236,63515,2,0,L|12:140,2,90,8|8|8,0:0|0:0|0:0,0:0:0:0:
80,292,64593,6,0,P|136:284|184:288,1,90,6|10,0:0|0:0,0:0:0:0:
252,320,65311,2,0,P|308:328|356:324,2,90,2|8|2,0:0|0:0|0:0,0:0:0:0:
240,232,66389,1,8,0:0:0:0:
280,152,66748,2,0,P|284:112|276:56,1,90,2|8,0:0|0:0,0:0:0:0:
192,32,67467,6,0,P|92:40|68:92,1,135,6|6,0:0|0:0,0:0:0:0:
36,140,68365,1,8,0:0:0:0:
108,256,68904,2,0,P|180:252|260:256,1,135,6|6,0:0|0:0,0:0:0:0:
328,280,69802,1,8,0:0:0:0:
444,208,70341,6,0,P|452:156|452:112,1,90,6|8,0:0|0:0,0:0:0:0:
388,56,71060,2,0,P|328:48|280:56,1,90,2|10,0:0|0:0,0:0:0:0:
236,116,71778,2,0,P|176:124|128:116,2,90,0|8|2,0:0|0:0|0:0,0:0:0:0:
300,180,72856,1,8,0:0:0:0:
256,260,73215,6,0,P|344:260|390:168,2,180,4|4|4,0:3|0:3|0:3,0:0:0:0:
32,40,75910,6,0,P|20:112|56:184,1,135,6|8,0:0|0:0,0:0:0:0:
120,212,76808,1,2,0:0:0:0:
252,185,77347,2,0,P|298:162|360:156,2,90,6|2|2,0:0|0:0|0:0,0:0:0:0:
188,248,78425,1,0,0:0:0:0:
98,237,78784,6,0,P|106:153|90:97,1,135,6|8,0:0|0:0,0:0:0:0:
32,40,79682,1,2,0:0:0:0:
164,8,80221,1,6,0:0:0:0:
284,72,80760,2,0,P|280:124|288:184,2,90,10|10|10,0:0|0:0|0:0,0:0:0:0:
318,42,81658,6,0,P|390:68|399:128,1,135,4|8,0:0|0:0,0:0:0:0:
357,199,82557,1,2,0:0:0:0:
464,280,83096,2,0,P|443:341|380:356,1,135,4|8,0:0|0:0,0:0:0:0:
326,284,83994,1,2,0:0:0:0:
163,360,84712,6,0,P|75:356|35:332,1,135,2|2,0:0|0:0,0:0:0:0:
28,243,85610,1,2,0:0:0:0:
93,180,85970,2,0,P|105:132|93:88,1,90,4|4,0:0|0:0,0:0:0:0:
162,33,86688,2,0,P|222:49|282:29,1,90,4|6,0:0|0:0,0:0:0:0:
338,52,87407,6,0,B|362:140|362:140|358:200,1,135,6|8,0:0|0:0,0:0:0:0:
344,272,88305,1,2,0:0:0:0:
216,228,88844,2,0,B|172:220|172:220|128:232,2,90,6|2|2,0:0|0:0|0:0,0:0:0:0:
260,308,89922,1,0,0:0:0:0:
344,272,90281,6,0,P|372:184|340:108,1,135,6|8,0:0|0:0,0:0:0:0:
296,84,91179,1,2,0:0:0:0:
164,120,91718,1,6,0:0:0:0:
36,72,92257,2,0,P|28:120|40:176,2,90,10|10|10,0:0|0:0|0:0,0:0:0:0:
65,37,93155,6,0,L|241:51,1,135,4|8,0:0|0:0,0:0:0:0:
283,80,94054,1,2,0:0:0:0:
390,162,94593,2,0,L|242:175,1,135,4|8,0:0|0:0,0:0:0:0:
171,207,95491,1,2,0:0:0:0:
77,360,96209,6,0,P|153:360|173:352,1,90,14|10,0:0|0:0,0:0:0:0:
235,299,96928,2,0,P|315:291|367:319,1,135,8|6,0:0|0:0,0:0:0:0:
256,192,97646,12,4,99084,0:3:0:0:
