osu file format v14

[General]
AudioFilename: audio.mp3
AudioLeadIn: 0
PreviewTime: 73947
Countdown: 0
SampleSet: Soft
StackLeniency: 0.4
Mode: 0
LetterboxInBreaks: 0
WidescreenStoryboard: 0

[Editor]
Bookmarks: 15626,29955,44059,58612,74731,89059,103388,110328,111671
DistanceSpacing: 1.2
BeatDivisor: 4
GridSize: 4
TimelineZoom: 1.5

[Metadata]
Title:Blue Canvas
TitleUnicode:Blue Canvas
Artist:ClariS
ArtistUnicode:ClariS
Creator:lit120
Version:Insane
Source:ブルーアーカイブ -Blue Archive-
Tags:Yostar nat games Blue Archive ブルアカ 蔚蓝档案 blueaka mobile rpg japanese pop j-pop jpop video game videogame size clara karen -Hakurei-
BeatmapID:4251315
BeatmapSetID:2038252

[Difficulty]
HPDrainRate:6
CircleSize:4
OverallDifficulty:7.5
ApproachRate:8
SliderMultiplier:1.8
SliderTickRate:1

[Events]
//Background and Video events
0,0,"abydos.jpg",0,0
Video,-22,"Blue Canvas.avi"
//Break Periods
//Storyboard Layer 0 (Background)
//Storyboard Layer 1 (Fail)
//Storyboard Layer 2 (Pass)
//Storyboard Layer 3 (Foreground)
//Storyboard Layer 4 (Overlay)
//Storyboard Sound Samples

[TimingPoints]
15627,447.76119402985,4,2,1,40,1,0
15627,-200,4,2,1,40,0,0
19209,-133.333333333333,4,2,1,60,0,0
21559,-133.333333333333,4,2,1,5,0,0
21671,-133.333333333333,4,2,1,60,0,0
22791,-83.3333333333333,4,2,1,80,0,0
29955,-133.333333333333,4,2,2,60,0,0
44059,-100,4,2,2,70,0,0
58612,-133.333333333333,4,2,2,60,0,0
65776,-100,4,2,3,70,0,0
71261,-100,4,2,1,5,0,0
71373,-100,4,2,3,70,0,0
71597,-100,4,2,3,5,0,0
71709,-100,4,2,3,70,0,0
71821,-100,4,2,3,5,0,0
71932,-100,4,2,3,70,0,0
73052,-100,4,2,3,5,0,0
73164,-100,4,2,3,70,0,0
73276,-100,4,2,3,5,0,0
73388,-100,4,2,3,70,0,0
73500,-100,4,2,1,5,0,0
73835,-100,4,2,1,70,0,0
74619,-100,4,2,1,5,0,0
74731,-83.3333333333333,4,2,1,80,0,1
88612,-83.3333333333333,4,2,3,80,0,1
89059,-83.3333333333333,4,2,1,80,0,1
100925,-100,4,2,1,5,0,1
101037,-83.3333333333333,4,2,1,80,0,1
101261,-100,4,2,1,5,0,1
101373,-83.3333333333333,4,2,1,80,0,1
103276,-100,4,2,1,5,0,1
103388,-83.3333333333333,4,2,1,80,0,0
109880,-83.3333333333333,4,2,1,5,0,0
109992,-83.3333333333333,4,2,1,80,0,0
110216,-83.3333333333333,4,2,1,5,0,0
110328,-83.3333333333333,4,2,1,80,0,0
111671,-100,4,2,1,5,0,0

[Colours]
Combo1 : 242,199,196
Combo2 : 99,250,254
Combo3 : 243,133,169
Combo4 : 191,230,77

[HitObjects]
86,45,15627,6,0,P|139:54|203:61,1,90,2|2,0:0|0:0,0:0:0:0:
108,195,16298,1,2,0:0:0:0:
108,195,16410,1,2,0:0:0:0:
108,195,16522,2,0,L|119:129,2,67.5,2|2|2,0:0|0:0|0:0,0:0:0:0:
108,195,17641,6,0,L|100:239,2,45,2|0|0,0:0|0:0|0:0,0:0:0:0:
29,290,18313,1,2,0:0:0:0:
80,361,18537,1,2,0:0:0:0:
151,310,18761,1,2,0:0:0:0:
453,228,19209,6,0,L|278:217,1,135.000005149842,2|2,0:0|0:0,0:0:0:0:
340,139,19880,1,2,0:0:0:0:
340,139,19992,1,2,0:0:0:0:
340,139,20104,2,0,L|441:145,2,101.250003862381,2|2|2,0:0|0:0|0:0,0:0:0:0:
344,143,21224,5,8,0:3:0:0:
344,143,21335,2,0,P|355:88|363:51,1,67.5000025749208,8|0,0:3|0:0,0:0:0:0:
277,59,21671,1,8,0:3:0:0:
277,59,21783,1,8,0:3:0:0:
277,59,21895,2,0,P|270:92|264:126,1,67.5000025749208,2|2,0:0|0:0,0:0:0:0:
166,266,22343,1,8,0:3:0:0:
169,282,22455,1,8,0:3:0:0:
172,299,22567,1,4,0:3:0:0:
175,315,22679,1,4,0:3:0:0:
179,332,22791,6,0,P|230:346|279:292,1,107.999996704102,6|2,3:2|0:2,0:0:0:0:
358,242,23126,1,2,0:2:0:0:
358,242,23238,2,0,P|265:228|226:222,1,107.999996704102,2|2,3:2|0:2,0:0:0:0:
100,100,23686,1,2,3:2:0:0:
183,51,23910,1,2,0:2:0:0:
183,51,24022,2,0,P|193:79|195:114,1,53.9999983520508,2|0,0:2|3:2,0:0:0:0:
32,169,24246,1,2,0:2:0:0:
32,169,24358,2,0,P|5:123|7:69,1,107.999996704102,2|0,0:2|3:2,0:0:0:0:
193,198,24806,5,2,0:2:0:0:
44,289,25029,1,2,3:2:0:0:
198,373,25253,1,2,0:2:0:0:
283,283,25477,2,0,P|278:207|273:101,1,161.999995056153,2|2,3:2|0:2,0:0:0:0:
285,80,25925,1,0,3:2:0:0:
415,17,26149,1,2,0:2:0:0:
415,17,26261,1,2,0:0:0:0:
415,17,26373,6,0,P|468:15|511:46,1,107.999996704102,2|2,3:2|0:2,0:0:0:0:
454,203,26709,1,2,0:2:0:0:
454,203,26821,2,0,P|449:149|442:95,1,107.999996704102,2|2,3:2|0:2,0:0:0:0:
277,202,27268,1,2,3:2:0:0:
201,145,27492,1,2,0:2:0:0:
201,145,27604,2,0,P|203:118|205:91,1,53.9999983520508,2|0,0:2|3:2,0:0:0:0:
353,259,27828,1,2,0:2:0:0:
353,259,27940,2,0,P|347:328|344:376,1,107.999996704102,2|0,0:2|3:2,0:0:0:0:
115,214,28388,5,2,0:2:0:0:
201,145,28612,1,2,3:2:0:0:
100,105,28835,1,2,0:2:0:0:
216,254,29059,5,2,3:2:0:0:
12,172,29283,1,2,3:2:0:0:
188,36,29507,1,2,3:2:0:0:
236,43,29619,1,2,0:0:0:0:
284,50,29731,1,2,0:0:0:0:
331,57,29843,1,2,0:0:0:0:
377,63,29955,6,0,P|390:94|389:128,1,67.5000025749208,6|2,3:2|0:2,0:0:0:0:
292,219,30403,2,0,P|279:188|280:154,1,67.5000025749208,10|2,0:2|0:2,0:0:0:0:
381,320,30850,1,2,0:2:0:0:
508,259,31074,2,0,P|467:262|417:264,1,67.5000025749208,2|10,3:2|0:2,0:0:0:0:
254,381,31522,6,0,P|181:371|105:361,1,135.000005149842,2|2,3:2|3:2,0:0:0:0:
204,224,32194,1,8,0:2:0:0:
204,224,32418,2,0,L|196:291,1,67.5000025749208,2|0,0:2|0:0,0:0:0:0:
168,136,32865,1,2,3:2:0:0:
263,149,33089,1,8,0:2:0:0:
224,58,33313,1,2,0:2:0:0:
224,58,33425,1,2,0:0:0:0:
224,58,33537,6,0,P|158:40|93:76,2,135.000005149842,2|8|0,3:2|0:2|0:0,0:0:0:0:
101,192,34656,2,0,P|39:182|14:179,1,67.5000025749208,2|10,3:2|0:2,0:0:0:0:
191,324,35104,6,0,P|273:314|338:306,1,135.000005149842,2|0,3:2|3:2,0:0:0:0:
463,226,35776,1,8,0:2:0:0:
363,150,36000,1,2,0:2:0:0:
363,150,36112,1,2,0:0:0:0:
363,150,36224,2,0,P|373:221|376:248,1,67.5000025749208,2|2,0:2|3:2,0:0:0:0:
491,79,36671,1,10,0:2:0:0:
391,29,36895,1,2,0:2:0:0:
391,29,37007,1,2,0:0:0:0:
391,29,37119,6,0,P|315:39|239:48,2,135.000005149842,2|8|0,3:2|0:2|0:0,0:0:0:0:
272,164,38238,2,0,P|216:154|190:150,1,67.5000025749208,2|10,3:2|0:2,0:0:0:0:
54,9,38686,6,0,P|9:70|58:131,1,135.000005149842,2|0,3:2|3:2,0:0:0:0:
96,270,39358,1,10,0:2:0:0:
96,270,39582,2,0,P|140:208|91:147,1,135.000005149842,2|2,0:2|3:2,0:0:0:0:
12,321,40253,1,10,0:2:0:0:
99,369,40477,1,2,0:2:0:0:
99,369,40589,1,2,0:0:0:0:
99,369,40701,6,0,P|163:365|254:361,1,135.000005149842,2|10,3:2|0:2,0:0:0:0:
361,237,41373,2,0,P|354:297|353:329,1,67.5000025749208,2|0,0:2|0:0,0:0:0:0:
229,124,41821,2,0,P|236:184|237:216,1,67.5000025749208,2|8,3:2|0:2,0:0:0:0:
413,15,42268,6,0,P|349:19|258:23,1,135.000005149842,2|0,3:2|0:0,0:0:0:0:
99,369,43164,2,0,P|163:365|254:361,1,135.000005149842,2|2,3:2|0:0,0:0:0:0:
252,353,43724,1,2,0:0:0:0:
270,345,43835,1,2,0:0:0:0:
288,337,43947,1,2,0:0:0:0:
306,329,44059,6,0,P|310:231|232:195,1,180,6|2,3:2|3:2,0:0:0:0:
88,276,44731,2,0,P|147:268|198:264,1,90,10|2,3:2|0:2,0:0:0:0:
48,82,45179,1,2,3:2:0:0:
138,172,45403,1,2,0:2:0:0:
205,2,45626,1,10,3:2:0:0:
295,92,45850,6,0,P|215:87|165:86,1,90,2|0,0:2|3:2,0:0:0:0:
347,186,46298,2,0,P|427:191|477:192,1,90,2|8,0:2|3:2,0:0:0:0:
230,264,46746,2,0,P|150:259|100:258,1,90,2|0,0:2|3:2,0:0:0:0:
282,358,47194,1,2,0:2:0:0:
127,255,47418,1,8,3:2:0:0:
215,168,47641,1,2,0:2:0:0:
215,168,47753,1,2,0:0:0:0:
215,168,47865,6,0,P|228:100|147:25,1,180,0|8,3:2|3:2,0:0:0:0:
42,24,48537,1,2,0:0:0:0:
42,24,48649,1,2,0:0:0:0:
42,24,48761,1,2,3:2:0:0:
137,118,48985,1,2,0:2:0:0:
26,240,49209,1,10,3:2:0:0:
153,334,49432,6,0,P|220:329|273:327,1,90,2|0,0:2|3:2,0:0:0:0:
286,328,49768,1,2,0:2:0:0:
286,328,49880,1,2,0:2:0:0:
366,195,50104,2,0,P|299:200|246:202,1,90,8|0,3:2|0:0,0:0:0:0:
137,118,50552,1,2,3:2:0:0:
264,49,50776,1,2,0:2:0:0:
202,240,51000,1,10,3:2:0:0:
359,115,51224,1,2,0:2:0:0:
359,115,51335,1,2,0:0:0:0:
359,115,51447,5,2,3:2:0:0:
446,204,51671,2,0,P|456:276|460:324,1,90,2|8,0:2|3:2,0:0:0:0:
328,374,52119,2,0,P|318:302|314:254,1,90,2|0,0:2|3:2,0:0:0:0:
163,86,52567,5,2,0:2:0:0:
127,172,52791,1,10,3:2:0:0:
220,159,53015,2,0,P|280:163|326:166,1,90,2|0,0:2|3:2,0:0:0:0:
69,99,53462,5,2,0:2:0:0:
256,72,53686,1,10,3:2:0:0:
184,246,53910,2,0,P|185:287|190:341,1,90,2|0,0:2|3:2,0:0:0:0:
301,207,54358,5,2,0:2:0:0:
431,302,54582,1,10,3:2:0:0:
485,98,54806,2,0,P|440:100|395:101,1,90,2|0,3:2|0:0,0:0:0:0:
211,177,55253,5,2,3:2:0:0:
81,82,55477,1,10,0:2:0:0:
27,286,55701,2,0,P|71:283|116:282,1,90,2|0,3:2|0:0,0:0:0:0:
338,182,56149,5,2,3:2:0:0:
207,127,56373,1,10,0:2:0:0:
190,350,56597,2,0,L|238:235,1,90,2|0,3:2|0:0,0:0:0:0:
153,55,57044,2,0,L|229:155,1,90,10|0,3:2|0:0,0:0:0:0:
427,170,57492,2,0,L|303:187,1,90,10|0,3:2|0:0,0:0:0:0:
224,267,57940,1,2,3:2:0:0:
202,265,58052,1,2,0:0:0:0:
180,262,58164,1,2,0:0:0:0:
158,258,58276,1,2,0:0:0:0:
135,256,58388,1,2,0:2:0:0:
113,254,58500,1,2,0:0:0:0:
91,250,58612,6,0,P|73:295|77:319,1,67.5000025749208,6|2,3:2|0:2,0:0:0:0:
183,359,59059,1,10,0:2:0:0:
224,267,59283,2,0,P|217:206|215:188,1,67.5000025749208,2|8,0:2|0:2,0:0:0:0:
102,115,59731,2,0,P|159:139|175:147,1,67.5000025749208,2|8,0:2|0:2,0:0:0:0:
294,86,60179,2,0,P|246:123|232:134,1,67.5000025749208,2|8,0:2|3:2,0:0:0:0:
398,227,60626,5,2,0:2:0:0:
459,164,60850,1,10,0:2:0:0:
423,311,61074,1,2,0:2:0:0:
312,207,61298,2,0,P|316:131|319:49,1,135.000005149842,10|10,0:2|0:2,0:0:0:0:
403,12,61970,1,2,0:2:0:0:
403,12,62082,1,2,0:0:0:0:
403,12,62194,6,0,P|407:56|411:88,2,67.5000025749208,10|2|10,3:2|0:2|0:2,0:0:0:0:
241,71,62865,2,0,P|275:68|309:65,1,67.5000025749208,2|8,0:2|0:2,0:0:0:0:
173,12,63313,2,0,P|139:9|105:5,1,67.5000025749208,2|8,0:2|0:2,0:0:0:0:
14,116,63761,6,0,P|48:119|82:123,1,67.5000025749208,2|8,0:2|3:2,0:0:0:0:
162,192,64209,1,2,0:2:0:0:
162,192,64321,1,2,0:2:0:0:
162,192,64432,1,10,0:2:0:0:
14,268,64656,2,0,P|48:266|82:262,1,67.5000025749208,2|8,0:2|0:2,0:0:0:0:
173,373,65104,1,2,0:2:0:0:
173,373,65328,2,0,P|139:376|105:379,1,67.5000025749208,10|2,0:2|0:2,0:0:0:0:
256,263,65776,5,0,3:2:0:0:
350,313,66000,1,2,0:2:0:0:
350,313,66112,1,2,0:2:0:0:
350,313,66224,2,0,P|406:303|448:297,1,90,2|2,3:2|0:2,0:0:0:0:
465,216,66559,1,2,0:2:0:0:
465,216,66671,2,0,P|409:226|367:232,1,90,2|2,3:2|0:2,0:0:0:0:
241,117,67119,1,2,3:2:0:0:
425,30,67343,1,2,0:2:0:0:
320,163,67567,1,2,3:2:0:0:
162,71,67791,5,2,0:2:0:0:
162,71,67903,1,2,0:2:0:0:
162,71,68015,2,0,P|106:81|64:87,1,90,2|2,3:2|0:2,0:0:0:0:
47,168,68350,1,2,0:2:0:0:
47,168,68462,2,0,P|103:158|145:152,1,90,2|2,3:2|0:2,0:0:0:0:
271,267,68910,1,2,3:2:0:0:
87,354,69134,1,2,0:2:0:0:
192,221,69358,5,10,3:2:0:0:
192,221,69470,1,8,0:0:0:0:
192,221,69582,2,0,P|186:262|180:294,1,45,8|8,3:2|0:0,0:0:0:0:
226,370,69806,2,0,P|194:345|169:324,1,45,10|8,3:2|0:0,0:0:0:0:
80,326,70029,2,0,P|119:311|150:300,1,45,8|10,3:2|0:2,0:0:0:0:
284,279,70253,5,8,3:2:0:0:
308,241,70365,1,8,0:0:0:0:
311,197,70477,1,10,3:2:0:0:
294,156,70589,1,8,0:0:0:0:
260,128,70701,2,0,P|221:133|185:137,1,45,10|8,3:2|0:0,0:0:0:0:
27,38,70925,6,0,P|78:89|163:69,1,135,10|0,3:2|0:0,0:0:0:0:
222,13,71373,1,8,0:2:0:0:
222,13,71485,2,0,P|183:18|147:22,1,45,8|0,0:2|0:0,0:0:0:0:
260,128,71709,2,0,P|299:123|335:119,1,45,8|0,0:2|0:0,0:0:0:0:
473,20,71932,1,8,0:2:0:0:
473,20,72044,1,8,0:2:0:0:
496,132,72268,1,8,0:2:0:0:
386,96,72492,1,8,0:2:0:0:
240,225,72716,6,0,P|171:216|85:206,1,135,10|0,3:2|0:0,0:0:0:0:
43,154,73164,2,0,P|43:120|53:99,1,45,10|0,3:2|0:0,0:0:0:0:
174,4,73388,2,0,P|176:26|171:48,1,45,10|0,3:2|0:0,0:0:0:0:
171,48,73835,5,8,0:3:0:0:
184,52,73947,1,8,0:3:0:0:
196,55,74059,1,8,0:3:0:0:
208,58,74171,1,8,0:3:0:0:
220,62,74283,2,0,P|239:115|176:160,1,135,8|0,0:1|0:0,0:0:0:0:
96,178,74731,6,0,P|169:191|327:219,1,215.999993408203,6|10,3:2|3:2,0:0:0:0:
476,56,75403,2,0,P|466:127|460:198,1,107.999996704102,2|0,0:2|3:2,0:0:0:0:
389,364,75850,1,2,0:2:0:0:
389,364,75962,1,2,0:0:0:0:
389,364,76074,1,8,3:2:0:0:
215,280,76298,6,0,B|137:292|137:292|96:334|96:334|19:347,1,215.999993408203,2|2,0:2|0:2,0:0:0:0:
195,377,76970,1,10,3:2:0:0:
40,251,77194,2,0,P|46:187|50:130,1,107.999996704102,2|0,0:2|3:2,0:0:0:0:
134,30,77641,1,2,0:2:0:0:
243,209,77865,1,10,3:2:0:0:
243,209,77977,1,2,0:2:0:0:
243,209,78089,1,2,0:2:0:0:
433,39,78313,6,0,P|315:28|276:107,1,215.999993408203,2|10,3:2|3:2,0:0:0:0:
401,234,78985,2,0,P|415:162|428:111,1,107.999996704102,2|0,0:2|3:2,0:0:0:0:
242,253,79432,1,2,0:2:0:0:
242,253,79544,1,2,0:0:0:0:
242,253,79656,1,8,3:2:0:0:
85,142,79880,6,0,P|91:195|110:362,1,215.999993408203,2|0,0:2|0:0,0:0:0:0:
336,260,80552,1,8,3:2:0:0:
205,382,80776,1,2,0:2:0:0:
103,157,81000,1,2,3:2:0:0:
229,276,81224,1,2,0:2:0:0:
309,44,81447,1,10,3:2:0:0:
348,50,81559,1,2,0:0:0:0:
388,56,81671,1,2,0:2:0:0:
428,63,81783,1,2,0:0:0:0:
468,69,81895,6,0,P|506:137|402:184,1,215.999993408203,2|8,3:2|3:2,0:0:0:0:
229,276,82567,2,0,P|283:269|337:264,1,107.999996704102,2|0,0:2|3:2,0:0:0:0:
235,171,83015,1,2,0:2:0:0:
112,368,83238,1,10,3:2:0:0:
10,275,83462,6,0,P|64:270|118:263,1,107.999996704102,2|0,0:2|3:2,0:0:0:0:
267,101,83910,1,2,0:2:0:0:
106,26,84134,1,10,3:2:0:0:
248,134,84358,2,0,P|312:125|369:120,1,107.999996704102,2|0,0:2|3:2,0:0:0:0:
486,46,84806,1,2,0:2:0:0:
379,263,85029,1,10,3:2:0:0:
229,167,85253,1,2,0:2:0:0:
229,167,85365,1,2,0:2:0:0:
229,167,85477,6,0,B|151:179|151:179|110:221|110:221|33:234,1,215.999993408203,2|8,3:2|3:2,0:0:0:0:
195,368,86149,1,2,0:2:0:0:
195,368,86261,1,2,0:2:0:0:
195,368,86373,2,0,P|199:314|205:261,1,107.999996704102,2|2,3:2|0:2,0:0:0:0:
57,140,86821,1,10,3:2:0:0:
235,73,87044,6,0,P|307:82|454:98,1,215.999993408203,2|2,3:2|0:2,0:0:0:0:
351,9,87716,1,2,0:2:0:0:
333,162,87940,2,0,P|343:269|352:377,1,215.999993408203,2|2,0:2|0:2,0:0:0:0:
238,298,88612,1,10,0:2:0:0:
238,298,88724,1,2,0:2:0:0:
238,298,88835,1,10,0:2:0:0:
45,376,89059,6,0,P|52:269|64:161,1,215.999993408203,6|10,3:2|3:2,0:0:0:0:
230,65,89731,2,0,P|179:106|95:97,1,107.999996704102,2|0,0:2|3:2,0:0:0:0:
9,9,90179,1,2,0:2:0:0:
9,9,90291,1,2,0:0:0:0:
9,9,90403,1,8,3:2:0:0:
65,162,90626,6,0,P|137:153|287:139,1,215.999993408203,2|2,0:2|0:2,0:0:0:0:
457,244,91298,1,10,3:2:0:0:
363,343,91522,2,0,P|351:279|339:223,1,107.999996704102,2|0,0:2|3:2,0:0:0:0:
435,102,91970,1,2,0:2:0:0:
270,13,92194,1,10,3:2:0:0:
270,13,92306,1,2,0:2:0:0:
270,13,92418,1,2,0:2:0:0:
181,178,92641,6,0,P|70:194|31:93,1,215.999993408203,2|10,3:2|3:2,0:0:0:0:
134,10,93313,2,0,P|124:63|116:116,1,107.999996704102,2|0,0:2|3:2,0:0:0:0:
17,289,93761,1,2,0:2:0:0:
17,289,93873,1,2,0:0:0:0:
17,289,93985,1,8,3:2:0:0:
188,350,94209,6,0,B|265:337|265:337|306:295|306:295|384:283,1,215.999993408203,2|0,0:2|0:0,0:0:0:0:
163,135,94880,1,8,3:2:0:0:
297,29,95104,1,2,0:2:0:0:
216,254,95328,1,2,3:2:0:0:
342,125,95552,1,2,0:2:0:0:
459,338,95776,1,10,3:2:0:0:
462,297,95888,1,2,0:0:0:0:
466,257,96000,1,2,0:2:0:0:
470,217,96112,1,2,0:0:0:0:
474,176,96224,6,0,P|411:134|337:211,1,161.999995056153,2|0,3:2|3:2,0:0:0:0:
318,253,96671,1,12,3:2:0:0:
179,192,96895,1,2,0:2:0:0:
179,192,97007,1,2,0:2:0:0:
179,192,97119,2,0,P|118:202|55:212,1,107.999996704102,2|2,3:2|0:2,0:0:0:0:
259,60,97567,1,10,3:2:0:0:
126,3,97791,6,0,P|134:68|141:128,1,107.999996704102,2|0,0:2|3:2,0:0:0:0:
275,267,98238,1,2,0:2:0:0:
275,267,98350,1,2,0:2:0:0:
275,267,98462,1,10,3:2:0:0:
163,334,98686,2,0,P|99:327|43:321,1,107.999996704102,2|0,0:2|3:2,0:0:0:0:
277,383,99134,2,0,P|341:376|397:370,1,107.999996704102,2|10,0:2|3:2,0:0:0:0:
497,185,99582,6,0,P|433:192|377:198,1,107.999996704102,10|0,0:2|3:2,0:0:0:0:
321,154,99918,1,2,0:2:0:0:
321,154,100029,1,10,0:2:0:0:
194,354,100253,1,10,3:2:0:0:
12,201,100477,1,8,0:2:0:0:
12,201,100589,1,8,0:2:0:0:
12,201,100701,6,0,P|80:219|179:234,1,107.999996704102,10|0,3:2|0:0,0:0:0:0:
223,112,101037,2,0,P|170:122|118:137,1,107.999996704102,10|0,3:2|0:0,0:0:0:0:
50,41,101373,1,10,3:2:0:0:
50,41,102940,6,0,P|75:85|40:42,1,161.999995056153,8|0,0:1|0:0,0:0:0:0:
76,25,103388,6,0,P|142:36|204:45,1,107.999996704102,6|2,3:2|0:2,0:0:0:0:
272,7,103724,1,2,0:2:0:0:
272,7,103835,2,0,P|264:61|255:114,1,107.999996704102,10|2,3:2|0:2,0:0:0:0:
117,280,104283,1,2,3:2:0:0:
13,210,104507,1,2,0:2:0:0:
13,210,104619,2,0,P|61:215|98:217,1,53.9999983520508,2|8,0:2|3:2,0:0:0:0:
167,344,104843,1,2,0:2:0:0:
167,344,104955,2,0,P|229:337|292:331,1,107.999996704102,2|0,0:2|3:2,0:0:0:0:
456,268,105403,5,2,0:2:0:0:
278,221,105626,1,10,3:2:0:0:
425,363,105850,1,2,0:2:0:0:
475,165,106074,2,0,P|474:71|393:41,1,161.999995056153,2|2,3:2|0:2,0:0:0:0:
378,32,106522,1,8,3:2:0:0:
256,122,106746,1,2,0:2:0:0:
256,122,106858,1,2,0:0:0:0:
256,122,106970,6,0,P|260:190|263:248,1,107.999996704102,2|2,3:2|0:2,0:0:0:0:
183,314,107306,1,2,0:2:0:0:
183,314,107418,2,0,P|179:246|176:188,1,107.999996704102,10|2,3:2|0:2,0:0:0:0:
43,78,107865,1,2,3:2:0:0:
145,10,108089,1,2,0:2:0:0:
145,10,108201,2,0,P|135:61|130:90,1,53.9999983520508,2|8,0:2|3:2,0:0:0:0:
58,169,108425,1,2,0:2:0:0:
58,169,108537,2,0,P|69:237|77:287,1,107.999996704102,2|0,0:2|3:2,0:0:0:0:
237,381,108985,5,2,0:2:0:0:
288,141,109209,1,10,3:2:0:0:
168,285,109432,1,2,0:2:0:0:
168,285,109544,1,2,0:0:0:0:
168,285,109656,2,0,P|239:276|314:273,1,107.999996704102,2|0,3:2|0:0,0:0:0:0:
389,186,109992,2,0,P|335:182|282:175,1,107.999996704102,2|0,3:2|0:0,0:0:0:0:
213,87,110328,6,0,B|118:116|128:213|128:213|100:119|2:129|2:129|95:101|87:4|87:4|114:97|213:87,1,647.99998022461,2|0,3:2|0:0,0:0:0:0:
