osu file format v14

[General]
AudioFilename: audio.mp3
AudioLeadIn: 0
PreviewTime: 174847
Countdown: 0
SampleSet: Soft
StackLeniency: 0.4
Mode: 0
LetterboxInBreaks: 0
WidescreenStoryboard: 0

[Editor]
Bookmarks: 109,14437,28541,43094,59213,73541,87870,95034,109362,123691,138019,152347,159511,175631,191750,206079,220183,221526
DistanceSpacing: 1.6
BeatDivisor: 4
GridSize: 4
TimelineZoom: 2.4

[Metadata]
Title:Blue Canvas
TitleUnicode:Blue Canvas
Artist:ClariS
ArtistUnicode:ClariS
Creator:lit120
Version:Gehenna (Hard)
Source:ブルーアーカイブ -Blue Archive-
Tags:Yostar nat games Blue Archive ブルアカ 蔚蓝档案 blueaka mobile rpg japanese pop j-pop jpop video game clara karen -Hakurei-
BeatmapID:4259958
BeatmapSetID:2041719

[Difficulty]
HPDrainRate:5
CircleSize:4
OverallDifficulty:6
ApproachRate:7
SliderMultiplier:1.5
SliderTickRate:1

[Events]
//Background and Video events
0,0,"gehenna.jpg",0,0
//Break Periods
2,152547,158251
//Storyboard Layer 0 (Background)
//Storyboard Layer 1 (Fail)
//Storyboard Layer 2 (Pass)
//Storyboard Layer 3 (Foreground)
//Storyboard Layer 4 (Overlay)
//Storyboard Sound Samples

[TimingPoints]
109,447.761194029851,4,2,1,40,1,0
109,-133.333333333333,4,2,1,40,0,0
3691,-133.333333333333,4,2,1,60,0,0
7273,-100,4,2,1,80,0,0
14437,-133.333333333333,4,2,2,60,0,0
28541,-100,4,2,2,70,0,0
43094,-133.333333333333,4,2,2,60,0,0
50258,-100,4,2,3,70,0,0
58765,-100,4,2,1,70,0,0
59101,-100,4,2,1,5,0,0
59213,-90.9090909090909,4,2,1,80,0,1
73094,-90.9090909090909,4,2,3,80,0,1
73541,-90.9090909090909,4,2,1,80,0,1
85407,-90.9090909090909,4,2,1,5,0,1
85519,-90.9090909090909,4,2,1,80,0,1
85743,-90.9090909090909,4,2,1,5,0,1
85855,-90.9090909090909,4,2,1,80,0,1
87758,-90.9090909090909,4,2,1,5,0,1
87870,-100,4,2,1,80,0,0
95034,-133.333333333333,4,2,1,60,0,0
95258,-133.333333333333,4,2,1,5,0,0
96153,-133.333333333333,4,2,1,60,0,0
96377,-133.333333333333,4,2,1,5,0,0
96601,-133.333333333333,4,2,1,60,0,0
97049,-133.333333333333,4,2,1,5,0,0
97944,-133.333333333333,4,2,1,60,0,0
98168,-133.333333333333,4,2,1,5,0,0
98392,-133.333333333333,4,2,1,60,0,0
98840,-133.333333333333,4,2,1,5,0,0
99511,-133.333333333333,4,2,1,60,0,0
99735,-133.333333333333,4,2,1,5,0,0
100183,-133.333333333333,4,2,1,60,0,0
100631,-133.333333333333,4,2,1,5,0,0
101079,-133.333333333333,4,2,1,60,0,0
102198,-100,4,2,2,70,0,0
109362,-133.333333333333,4,2,2,60,0,0
116526,-100,4,2,3,70,0,0
123243,-100,4,2,1,70,0,0
123579,-100,4,2,1,5,0,0
123691,-90.9090909090909,4,2,1,80,0,1
137571,-90.9090909090909,4,2,3,80,0,1
138019,-90.9090909090909,4,2,1,80,0,1
149885,-90.9090909090909,4,2,1,5,0,1
149997,-90.9090909090909,4,2,1,80,0,1
150220,-90.9090909090909,4,2,1,5,0,1
150332,-90.9090909090909,4,2,1,80,0,1
152347,-133.333333333333,4,2,1,40,0,0
159511,-133.333333333333,4,2,3,60,0,0
175631,-133.333333333333,4,2,3,70,0,0
175855,-133.333333333333,4,2,3,5,0,0
176750,-133.333333333333,4,2,3,70,0,0
176974,-133.333333333333,4,2,3,5,0,0
177198,-133.333333333333,4,2,3,70,0,0
177646,-133.333333333333,4,2,3,5,0,0
178094,-133.333333333333,4,2,3,70,0,0
179437,-133.333333333333,4,2,3,5,0,0
180332,-133.333333333333,4,2,3,70,0,0
180556,-133.333333333333,4,2,3,5,0,0
180780,-133.333333333333,4,2,3,70,0,0
181228,-133.333333333333,4,2,3,5,0,0
181676,-133.333333333333,4,2,3,70,0,0
182795,-100,4,2,3,70,0,0
187497,-100,4,2,3,5,0,0
187609,-100,4,2,3,70,0,0
187832,-100,4,2,3,5,0,0
187944,-100,4,2,3,70,0,0
191303,-100,4,2,1,70,0,0
191638,-100,4,2,1,5,0,0
191750,-90.9090909090909,4,2,1,80,0,1
203616,-90.9090909090909,4,2,1,5,0,1
203728,-90.9090909090909,4,2,1,80,0,1
203952,-90.9090909090909,4,2,1,5,0,1
204064,-90.9090909090909,4,2,1,80,0,1
205967,-90.9090909090909,4,2,1,5,0,1
206079,-100,4,2,1,80,0,0
221526,-100,4,2,1,5,0,0

[Colours]
Combo1 : 225,145,158
Combo2 : 133,209,250
Combo3 : 253,119,192
Combo4 : 239,250,109

[HitObjects]
25,77,109,6,0,P|77:35|130:43,1,112.500004291535,2|2,0:0|0:0,0:0:0:0:
203,70,780,1,2,0:0:0:0:
203,70,892,1,2,0:0:0:0:
203,70,1004,2,0,L|295:64,2,84.3750032186509,2|2|2,0:0|0:0|0:0,0:0:0:0:
203,70,2123,6,0,P|214:26|218:4,2,56.2500021457673,2|0|0,0:0|0:0|0:0,0:0:0:0:
148,142,2795,2,0,P|153:169|161:196,1,56.2500021457673,2|2,0:0|0:0,0:0:0:0:
209,273,3243,1,2,0:0:0:0:
376,208,3691,6,0,P|422:239|426:305,1,112.500004291535,2|2,0:0|0:0,0:0:0:0:
382,368,4362,1,2,0:0:0:0:
382,368,4474,1,2,0:0:0:0:
382,368,4586,2,0,P|459:376|491:381,2,84.3750032186509,2|2|2,0:0|0:0|0:0,0:0:0:0:
386,372,5706,5,8,0:3:0:0:
386,372,5817,2,0,P|336:366|285:361,1,84.3750032186509,8|8,0:3|0:3,0:0:0:0:
256,359,6265,1,8,0:3:0:0:
256,359,6377,2,0,L|177:367,1,56.2500021457673,2|2,0:0|0:0,0:0:0:0:
127,310,6825,2,0,L|98:307,3,28.1250010728836,8|8|4|4,0:3|0:3|0:3|0:3,0:0:0:0:
164,283,7273,6,0,P|175:224|157:181,1,75,6|2,3:2|0:2,0:0:0:0:
122,135,7720,1,2,3:2:0:0:
180,66,7944,1,2,0:2:0:0:
180,66,8056,1,2,0:0:0:0:
180,66,8168,2,0,P|247:83|310:89,1,112.5,2|2,3:2|0:2,0:0:0:0:
335,87,8616,1,0,3:2:0:0:
413,43,8840,2,0,L|493:55,1,75,2|0,0:2|3:2,0:0:0:0:
486,143,9288,6,0,L|412:132,2,75,2|2|2,0:2|3:2|0:2,0:0:0:0:
485,232,9959,2,0,L|346:211,1,112.5,2|2,3:2|0:2,0:0:0:0:
328,208,10407,1,0,3:2:0:0:
240,186,10631,1,2,0:2:0:0:
240,186,10743,1,2,0:0:0:0:
240,186,10855,6,0,P|207:215|172:242,1,75,2|2,3:2|0:2,0:0:0:0:
104,279,11303,1,2,3:2:0:0:
39,217,11526,1,2,0:2:0:0:
39,217,11638,1,2,0:0:0:0:
39,217,11750,2,0,P|29:155|51:93,1,112.5,2|2,3:2|0:2,0:0:0:0:
70,72,12198,1,0,3:2:0:0:
148,28,12422,2,0,P|215:39|253:45,1,75,2|0,0:2|3:2,0:0:0:0:
299,87,12870,6,0,P|366:76|404:70,2,75,2|2|2,0:2|3:2|0:2,0:0:0:0:
242,156,13541,1,2,3:2:0:0:
319,203,13765,1,2,3:2:0:0:
262,272,13989,2,0,L|224:266,3,37.5,2|2|2|2,3:2|0:0|0:0|0:0,0:0:0:0:
288,309,14437,6,0,P|342:325|364:323,1,56.2500021457673,6|2,3:2|0:2,0:0:0:0:
417,276,14885,2,0,P|433:222|431:200,1,56.2500021457673,10|2,0:2|0:2,0:0:0:0:
382,147,15332,2,0,L|373:79,2,56.2500021457673,2|2|10,0:2|3:2|0:2,0:0:0:0:
473,141,16004,6,0,L|452:-15,1,112.500004291535,2|2,3:2|3:2,0:0:0:0:
370,7,16676,1,8,0:2:0:0:
370,7,16900,2,0,P|303:27|242:36,1,112.500004291535,2|2,0:2|3:2,0:0:0:0:
205,104,17571,1,8,0:2:0:0:
260,174,17795,1,2,0:2:0:0:
260,174,17907,1,2,0:0:0:0:
260,174,18019,6,0,P|256:236|255:303,2,112.500004291535,2|8|0,3:2|0:2|0:0,0:0:0:0:
171,186,19138,2,0,P|126:196|90:202,1,56.2500021457673,2|10,3:2|0:2,0:0:0:0:
40,248,19586,6,0,P|74:284|97:347,1,112.500004291535,2|0,3:2|3:2,0:0:0:0:
177,381,20258,1,8,0:2:0:0:
177,381,20482,2,0,L|246:377,2,56.2500021457673,2|2|2,0:2|0:2|3:2,0:0:0:0:
170,291,21153,1,10,0:2:0:0:
245,241,21377,1,2,0:2:0:0:
245,241,21489,1,2,0:0:0:0:
245,241,21601,6,0,P|293:254|373:272,2,112.500004291535,2|8|0,3:2|0:2|0:0,0:0:0:0:
193,167,22720,2,0,P|197:110|202:91,1,56.2500021457673,2|10,3:2|0:2,0:0:0:0:
275,65,23168,6,0,P|326:74|404:85,1,112.500004291535,2|0,3:2|3:2,0:0:0:0:
472,55,23840,1,10,0:2:0:0:
472,55,24064,2,0,P|463:106|452:184,1,112.500004291535,2|2,0:2|3:2,0:0:0:0:
482,252,24735,1,10,0:2:0:0:
415,312,24959,1,2,0:2:0:0:
415,312,25071,1,2,0:0:0:0:
415,312,25183,6,0,P|357:271|292:268,1,112.500004291535,2|10,3:2|0:2,0:0:0:0:
226,266,25855,2,0,L|149:273,1,56.2500021457673,2|0,0:2|0:0,0:0:0:0:
131,189,26303,2,0,L|187:183,1,56.2500021457673,2|8,3:2|0:2,0:0:0:0:
149,101,26750,6,0,L|36:111,1,112.500004291535,2|0,3:2|0:0,0:0:0:0:
185,8,27646,2,0,L|297:18,1,112.500004291535,2|2,3:2|0:0,0:0:0:0:
362,79,28317,1,2,0:0:0:0:
362,79,28429,1,2,0:0:0:0:
362,79,28541,6,0,P|355:135|344:234,1,150,6|2,3:2|3:2,0:0:0:0:
270,279,29213,2,0,P|224:250|175:240,1,75,10|2,3:2|0:2,0:0:0:0:
162,163,29661,2,0,P|113:188|80:225,1,75,2|2,3:2|0:2,0:0:0:0:
7,198,30109,1,10,3:2:0:0:
49,278,30332,6,0,L|38:358,1,75,2|0,0:2|3:2,0:0:0:0:
125,378,30780,2,0,L|135:303,1,75,2|8,0:2|3:2,0:0:0:0:
204,243,31228,2,0,L|193:168,1,75,2|0,0:2|3:2,0:0:0:0:
279,144,31676,2,0,L|290:223,1,75,2|8,0:2|3:2,0:0:0:0:
354,282,32123,1,2,0:2:0:0:
354,282,32235,1,2,0:0:0:0:
354,282,32347,6,0,P|420:269|509:258,2,150,0|8|0,3:2|3:2|3:2,0:0:0:0:
376,194,33467,2,0,L|365:119,1,75,2|10,0:2|3:2,0:0:0:0:
411,42,33914,6,0,P|376:29|339:32,1,75,2|0,0:0|3:2,0:0:0:0:
300,55,34250,1,2,0:0:0:0:
300,55,34362,1,2,0:0:0:0:
278,143,34586,2,0,P|246:128|215:84,1,75,8|0,3:2|0:0,0:0:0:0:
156,36,35034,2,0,P|85:48|52:53,2,75,2|2|10,3:2|0:2|3:2,0:0:0:0:
134,124,35706,6,0,P|126:178|122:206,1,75,2|0,0:2|3:2,0:0:0:0:
72,272,36153,2,0,P|121:295|146:308,1,75,2|8,0:2|3:2,0:0:0:0:
193,376,36601,2,0,P|230:336|250:316,1,75,2|0,0:2|3:2,0:0:0:0:
330,292,37049,1,2,0:0:0:0:
270,224,37273,1,10,3:2:0:0:
293,137,37497,6,0,P|358:170|443:145,1,150,2|2,0:2|0:2,0:0:0:0:
479,78,38168,1,10,3:2:0:0:
413,16,38392,2,0,L|258:30,1,150,2|2,0:2|0:2,0:0:0:0:
195,88,39064,1,10,3:2:0:0:
127,28,39288,6,0,P|150:111|164:205,1,150,2|2,3:2|3:2,0:0:0:0:
229,232,39959,1,10,0:2:0:0:
296,172,40183,2,0,P|273:255|259:349,1,150,2|2,3:2|3:2,0:0:0:0:
194,376,40855,1,10,0:2:0:0:
127,315,41079,6,0,L|37:323,1,75,2|0,3:2|0:0,0:0:0:0:
5,244,41526,2,0,P|21:200|43:171,1,75,10|0,3:2|0:0,0:0:0:0:
116,133,41974,2,0,P|177:179|282:170,1,150,10|2,3:2|3:2,0:0:0:0:
494,71,43094,6,0,P|501:32|508:1,2,56.2500021457673,6|2|10,3:2|0:2|0:2,0:0:0:0:
447,148,43765,2,0,P|452:175|457:203,1,56.2500021457673,2|10,0:2|0:2,0:0:0:0:
388,261,44213,2,0,P|333:267|286:237,1,112.500004291535,2|2,0:2|0:2,0:0:0:0:
236,164,44885,5,8,3:2:0:0:
236,164,45109,2,0,P|247:119|253:86,2,56.2500021457673,2|10|2,0:2|0:2|0:2,0:0:0:0:
156,206,45780,2,0,L|164:344,1,112.500004291535,10|10,0:2|0:2,0:0:0:0:
95,378,46452,1,2,0:2:0:0:
95,378,46676,6,0,L|38:381,2,56.2500021457673,10|2|10,3:2|0:2|0:2,0:0:0:0:
77,290,47347,2,0,L|73:233,1,56.2500021457673,2|8,0:2|0:2,0:0:0:0:
14,165,47795,2,0,L|20:52,1,112.500004291535,2|2,0:2|0:2,0:0:0:0:
101,12,48467,5,8,3:2:0:0:
176,61,48691,2,0,L|176:104,2,28.1250010728836,2|2|8,0:2|0:2|0:2,0:0:0:0:
251,12,49138,2,0,P|285:21|381:36,1,112.500004291535,2|2,0:2|0:2,0:0:0:0:
415,106,49810,2,0,P|409:140|404:168,1,56.2500021457673,10|2,0:2|0:2,0:0:0:0:
424,249,50258,5,0,3:2:0:0:
347,294,50482,2,0,L|355:344,2,37.5,2|2|2,0:2|0:2|3:2,0:0:0:0:
280,234,50929,1,2,0:2:0:0:
280,234,51041,1,2,0:2:0:0:
280,234,51153,2,0,L|197:248,1,75,2|2,3:2|0:2,0:0:0:0:
176,161,51601,2,0,L|249:148,1,75,2|2,3:2|0:2,0:0:0:0:
219,63,52049,5,2,3:2:0:0:
130,48,52273,2,0,L|117:4,2,37.5,2|2|2,0:2|0:2|3:2,0:0:0:0:
72,117,52720,1,2,0:2:0:0:
72,117,52832,1,2,0:2:0:0:
72,117,52944,2,0,P|68:168|66:201,1,75,2|2,3:2|0:2,0:0:0:0:
8,260,53392,2,0,P|12:311|14:344,1,75,2|2,3:2|0:2,0:0:0:0:
92,378,53840,6,8,P|141:369|172:350,1,75,10|8,3:2|3:2,0:0:0:0:
226,292,54288,2,8,P|275:301|306:320,1,75,10|8,3:2|3:2,0:0:0:0:
388,313,54735,1,8,3:2:0:0:
342,234,54959,1,10,0:0:0:0:
342,234,55071,1,8,0:0:0:0:
342,234,55183,1,10,3:2:0:0:
342,234,55295,1,8,0:0:0:0:
342,234,55407,6,0,P|336:172|376:85,1,150,10|8,3:2|0:2,0:0:0:0:
338,59,55967,2,0,P|293:79|246:92,1,75,8|8,0:2|0:2,0:0:0:0:
178,90,56414,1,8,0:2:0:0:
178,90,56526,2,0,L|98:83,1,75,8|8,0:2|0:2,0:0:0:0:
21,121,56974,1,8,0:2:0:0:
30,210,57198,6,0,L|16:315,1,75,10|0,3:2|0:0,0:0:0:0:
19,374,57646,1,10,3:2:0:0:
102,340,57870,1,10,3:2:0:0:
281,335,58317,1,8,0:0:0:0:
286,334,58428,1,8,0:0:0:0:
291,333,58540,1,8,0:0:0:0:
296,332,58652,1,8,0:0:0:0:
301,331,58765,2,0,P|356:327|412:323,1,112.5,8|0,0:1|0:0,0:0:0:0:
456,348,59213,6,0,P|412:274|457:196,1,165.000005035401,6|10,3:2|3:2,0:0:0:0:
493,123,59885,2,0,P|485:61|480:22,1,82.5000025177003,2|0,0:2|3:2,0:0:0:0:
385,19,60332,2,0,P|380:56|373:104,1,82.5000025177003,2|8,0:2|3:2,0:0:0:0:
296,164,60780,6,0,P|261:95|159:94,1,165.000005035401,2|2,0:2|0:2,0:0:0:0:
101,143,61452,1,10,3:2:0:0:
164,219,61676,2,0,L|150:402,1,165.000005035401,2|2,0:2|0:2,0:0:0:0:
53,379,62347,1,10,3:2:0:0:
53,379,62459,1,2,0:2:0:0:
53,379,62571,1,2,0:2:0:0:
10,289,62795,6,0,L|23:101,1,165.000005035401,2|10,3:2|3:2,0:0:0:0:
70,37,63467,2,0,P|107:28|153:37,1,82.5000025177003,2|0,0:2|3:2,0:0:0:0:
213,111,63914,2,0,P|253:118|293:109,1,82.5000025177003,2|8,0:2|3:2,0:0:0:0:
359,39,64362,6,0,P|333:126|310:225,1,165.000005035401,2|0,0:2|0:0,0:0:0:0:
280,291,65034,1,8,3:2:0:0:
211,362,65258,2,0,P|283:325|368:363,1,165.000005035401,2|2,0:2|0:2,0:0:0:0:
456,362,65929,1,10,3:2:0:0:
498,272,66153,1,2,0:2:0:0:
498,272,66265,1,2,0:0:0:0:
498,272,66377,6,0,P|492:197|484:86,1,165.000005035401,2|8,3:2|3:2,0:0:0:0:
419,32,67049,2,0,P|382:69|339:85,1,82.5000025177003,2|0,0:2|3:2,0:0:0:0:
257,96,67497,2,0,L|174:91,1,82.5000025177003,2|10,0:2|3:2,0:0:0:0:
127,3,67944,6,0,P|144:90|82:130,1,165.000005035401,2|2,0:2|0:2,0:0:0:0:
13,193,68616,1,10,3:2:0:0:
89,254,68840,2,0,P|148:305|127:381,1,165.000005035401,2|2,0:2|0:2,0:0:0:0:
226,383,69511,1,10,3:2:0:0:
272,295,69735,1,2,0:0:0:0:
272,295,69847,1,2,0:0:0:0:
272,295,69959,6,0,P|335:307|437:323,1,165.000005035401,2|8,3:2|3:2,0:0:0:0:
489,240,70631,1,2,0:0:0:0:
489,240,70743,1,2,0:0:0:0:
489,240,70855,2,0,P|476:187|453:164,1,82.5000025177003,2|2,3:2|0:2,0:0:0:0:
363,141,71303,1,10,3:2:0:0:
269,172,71526,6,0,P|192:168|86:164,1,165.000005035401,2|2,3:2|0:2,0:0:0:0:
43,85,72198,1,2,0:2:0:0:
116,19,72422,2,0,P|193:23|299:27,1,165.000005035401,2|2,0:2|0:2,0:0:0:0:
342,106,73094,1,10,0:2:0:0:
342,106,73206,1,2,0:2:0:0:
342,106,73317,1,10,0:2:0:0:
407,31,73541,6,0,P|438:87|395:191,1,165.000005035401,6|10,3:2|3:2,0:0:0:0:
350,258,74213,2,0,L|359:351,1,82.5000025177003,2|0,0:2|3:2,0:0:0:0:
261,360,74661,2,0,L|251:269,1,82.5000025177003,2|8,0:2|3:2,0:0:0:0:
168,224,75109,6,0,P|142:319|46:320,1,165.000005035401,2|2,0:2|0:2,0:0:0:0:
4,279,75780,1,10,3:2:0:0:
56,194,76004,2,0,P|45:119|24:29,1,165.000005035401,2|2,0:2|0:2,0:0:0:0:
121,8,76676,1,10,3:2:0:0:
121,8,76788,1,2,0:2:0:0:
121,8,76900,1,2,0:2:0:0:
179,87,77123,6,0,P|255:48|359:61,1,165.000005035401,2|10,3:2|3:2,0:0:0:0:
429,73,77795,2,0,L|526:95,1,82.5000025177003,2|0,0:2|3:2,0:0:0:0:
504,190,78243,2,0,L|416:169,1,82.5000025177003,2|8,0:2|3:2,0:0:0:0:
325,153,78691,6,0,P|333:247|336:338,1,165.000005035401,2|0,0:2|0:0,0:0:0:0:
256,375,79362,1,8,3:2:0:0:
175,317,79586,2,0,P|179:235|187:153,1,165.000005035401,2|0,0:2|0:0,0:0:0:0:
256,81,80258,1,10,3:2:0:0:
187,8,80482,1,2,0:0:0:0:
187,8,80594,1,2,0:0:0:0:
187,8,80706,6,0,P|116:44|51:29,1,123.75000377655,2|0,3:2|3:2,0:0:0:0:
26,27,81153,1,12,3:2:0:0:
55,121,81377,1,2,0:0:0:0:
55,121,81489,1,2,0:0:0:0:
55,121,81601,2,0,P|45:182|44:219,1,82.5000025177003,2|2,3:2|0:2,0:0:0:0:
93,288,82049,1,10,3:2:0:0:
24,359,82273,6,0,P|90:324|174:358,1,165.000005035401,2|2,0:2|0:2,0:0:0:0:
265,380,82944,1,10,3:2:0:0:
311,292,83168,2,0,P|305:245|301:201,1,82.5000025177003,2|0,0:2|3:2,0:0:0:0:
215,159,83616,2,0,P|221:112|225:68,1,82.5000025177003,2|10,0:2|3:2,0:0:0:0:
302,15,84064,6,0,P|333:66|396:76,1,123.75000377655,10|2,0:2|0:2,0:0:0:0:
441,74,84511,1,10,0:2:0:0:
502,151,84735,1,10,3:2:0:0:
429,218,84959,1,8,0:2:0:0:
429,218,85071,1,8,0:2:0:0:
429,218,85183,2,0,P|435:261|439:301,1,82.5000025177003,10|0,3:2|0:0,0:0:0:0:
397,327,85519,2,0,P|354:333|314:337,1,82.5000025177003,10|0,3:2|0:0,0:0:0:0:
280,302,85855,5,10,3:2:0:0:
280,302,87422,6,0,P|312:325|264:317,1,123.75000377655,8|0,0:1|0:0,0:0:0:0:
248,282,87870,6,0,P|259:213|265:172,1,75,6|2,3:2|0:2,0:0:0:0:
260,117,88317,1,10,3:2:0:0:
178,77,88541,1,2,0:2:0:0:
178,77,88653,1,2,0:0:0:0:
178,77,88765,2,0,P|126:114|55:110,1,112.5,2|2,3:2|0:2,0:0:0:0:
42,144,89213,1,8,3:2:0:0:
68,230,89437,2,0,L|59:318,1,75,2|0,0:2|3:2,0:0:0:0:
146,332,89885,6,0,L|153:257,2,75,2|10|2,0:2|3:2|0:2,0:0:0:0:
232,359,90556,2,0,P|300:343|376:330,1,112.5,2|2,3:2|0:2,0:0:0:0:
387,328,91004,1,8,3:2:0:0:
436,253,91228,1,2,0:2:0:0:
436,253,91340,1,2,0:0:0:0:
436,253,91452,6,0,P|432:198|414:162,1,75,0|2,3:2|0:2,0:0:0:0:
345,136,91900,1,10,3:2:0:0:
269,184,92123,1,2,0:2:0:0:
269,184,92235,1,2,0:0:0:0:
269,184,92347,2,0,P|256:124|286:68,1,112.5,2|2,3:2|0:2,0:0:0:0:
312,52,92795,1,8,3:2:0:0:
236,2,93019,2,0,P|190:17|155:25,1,75,2|0,0:2|3:2,0:0:0:0:
91,77,93467,6,0,P|45:62|10:54,2,75,2|10|2,0:2|3:2|0:2,0:0:0:0:
147,147,94138,1,2,3:2:0:0:
74,201,94362,1,2,3:2:0:0:
130,271,94586,2,0,L|133:308,3,37.5,10|2|2|2,3:2|0:0|0:0|0:0,0:0:0:0:
165,242,95034,6,0,P|210:254|235:259,1,56.2500021457673,2|0,3:2|0:0,0:0:0:0:
506,38,96153,2,0,L|502:115,1,56.2500021457673,2|0,3:2|0:0,0:0:0:0:
416,119,96601,2,0,L|421:6,1,112.500004291535,2|0,3:2|0:0,0:0:0:0:
100,168,97944,6,0,L|104:245,1,56.2500021457673,2|0,3:2|0:0,0:0:0:0:
190,249,98392,2,0,L|184:136,1,112.500004291535,2|0,3:2|0:0,0:0:0:0:
451,95,99511,2,0,L|453:151,1,56.2500021457673,2|0,3:2|0:0,0:0:0:0:
422,329,100183,6,0,P|366:314|313:305,1,112.500004291535,2|0,3:2|0:0,0:0:0:0:
147,378,101079,2,0,P|187:337|222:295,1,112.500004291535,2|2,3:2|0:2,0:0:0:0:
275,221,101750,2,0,L|317:208,2,28.1250010728836,2|2|2,0:0|0:0|0:0,0:0:0:0:
238,138,102198,5,6,3:2:0:0:
238,138,102422,2,0,L|252:62,1,75,2|0,0:2|3:2,0:0:0:0:
169,26,102870,2,0,L|155:99,1,75,2|0,0:2|3:2,0:0:0:0:
87,158,103317,1,2,0:0:0:0:
114,243,103541,1,10,3:2:0:0:
53,309,103765,6,0,P|112:268|194:288,1,150,2|2,0:2|0:2,0:0:0:0:
256,336,104437,1,2,3:2:0:0:
326,281,104661,2,0,P|398:267|459:309,1,150,2|2,0:2|0:2,0:0:0:0:
508,234,105332,1,10,3:2:0:0:
443,171,105556,6,0,P|452:102|464:13,1,150,2|2,0:2|0:2,0:0:0:0:
374,1,106228,1,2,3:2:0:0:
300,52,106452,2,0,P|231:48|141:43,1,150,2|2,0:2|0:2,0:0:0:0:
111,124,107123,1,10,3:2:0:0:
193,159,107347,6,0,L|183:243,1,75,2|0,3:2|0:0,0:0:0:0:
269,263,107795,2,0,L|277:188,1,75,10|0,3:2|0:0,0:0:0:0:
363,219,108243,2,0,L|345:367,1,150,10|0,3:2|3:2,0:0:0:0:
255,374,108914,1,0,3:2:0:0:
75,364,109362,6,0,P|47:358|9:355,2,56.2500021457673,6|2|10,3:2|0:2|0:2,0:0:0:0:
109,280,110034,2,0,P|102:234|93:208,1,56.2500021457673,2|8,0:2|0:2,0:0:0:0:
37,159,110482,2,0,P|52:112|72:35,1,112.500004291535,2|2,0:2|0:2,0:0:0:0:
146,5,111153,5,8,3:2:0:0:
146,5,111377,2,0,L|209:8,2,56.2500021457673,2|10|2,0:2|0:2|0:2,0:0:0:0:
147,95,112049,2,0,L|273:101,1,112.500004291535,10|10,0:2|0:2,0:0:0:0:
343,132,112720,1,2,0:2:0:0:
343,132,112944,6,0,P|387:124|418:120,2,56.2500021457673,10|2|10,3:2|0:2|0:2,0:0:0:0:
285,202,113616,2,0,L|289:271,1,56.2500021457673,2|8,0:2|0:2,0:0:0:0:
215,312,114064,2,0,P|166:298|154:230,1,112.500004291535,2|2,0:2|0:2,0:0:0:0:
102,166,114735,6,0,L|111:121,2,28.1250010728836,8|2|2,3:2|0:0|0:2,0:0:0:0:
39,231,115183,1,8,0:2:0:0:
39,231,115407,2,0,P|44:283|48:348,1,112.500004291535,2|2,0:2|0:2,0:0:0:0:
135,364,116079,2,0,P|180:352|208:346,1,56.2500021457673,10|2,0:2|0:2,0:0:0:0:
256,289,116526,5,0,3:2:0:0:
322,349,116750,2,0,L|367:353,2,37.5,2|2|2,0:2|0:2|3:2,0:0:0:0:
341,261,117198,1,2,0:2:0:0:
341,261,117310,1,2,0:2:0:0:
341,261,117422,2,0,P|350:223|361:173,1,75,2|2,3:2|0:2,0:0:0:0:
418,121,117870,2,0,P|409:83|398:33,1,75,2|2,3:2|0:2,0:0:0:0:
316,17,118317,5,2,3:2:0:0:
256,84,118541,2,0,L|256:121,2,37.5,2|2|2,0:2|0:2|3:2,0:0:0:0:
196,17,118989,1,2,0:2:0:0:
196,17,119101,1,2,0:2:0:0:
196,17,119213,2,0,P|145:34|115:42,1,75,2|2,3:2|0:2,0:0:0:0:
60,103,119661,2,0,P|96:113|131:125,1,75,2|2,3:2|0:2,0:0:0:0:
175,204,120109,6,8,L|161:279,1,75,10|8,3:2|3:2,0:0:0:0:
204,356,120556,2,8,P|239:368|275:378,1,75,10|8,3:2|3:2,0:0:0:0:
366,379,121004,1,8,3:2:0:0:
372,290,121228,1,8,3:2:0:0:
373,285,121340,1,8,0:0:0:0:
374,280,121452,1,8,3:2:0:0:
375,275,121564,1,8,0:0:0:0:
376,270,121676,6,0,P|355:207|263:167,1,150,10|8,3:2|3:2,0:0:0:0:
195,162,122347,2,8,L|111:173,1,75,8|8,3:2|0:0,0:0:0:0:
33,145,122795,1,8,3:2:0:0:
68,62,123019,1,8,0:0:0:0:
68,62,123131,1,8,0:0:0:0:
68,62,123243,2,0,P|120:42|175:51,1,112.5,8|0,0:1|0:0,0:0:0:0:
225,51,123691,6,0,P|288:41|391:28,1,165.000005035401,6|10,3:2|3:2,0:0:0:0:
473,80,124362,2,0,P|500:123|506:156,1,82.5000025177003,2|0,0:2|3:2,0:0:0:0:
450,236,124810,2,0,P|399:237|367:226,1,82.5000025177003,2|8,0:2|3:2,0:0:0:0:
326,138,125258,6,0,P|274:207|293:291,1,165.000005035401,2|2,0:2|0:2,0:0:0:0:
350,355,125929,1,10,3:2:0:0:
255,383,126153,2,0,P|159:371|71:360,1,165.000005035401,2|2,0:2|0:2,0:0:0:0:
29,284,126825,1,10,3:2:0:0:
29,284,126937,1,2,0:2:0:0:
29,284,127049,1,2,0:2:0:0:
104,218,127273,6,0,P|88:136|61:56,1,165.000005035401,2|10,3:2|3:2,0:0:0:0:
144,3,127944,2,0,P|186:32|227:46,1,82.5000025177003,2|0,0:2|3:2,0:0:0:0:
310,72,128392,2,0,L|393:65,1,82.5000025177003,2|8,0:2|3:2,0:0:0:0:
468,1,128840,6,0,P|440:59|412:155,1,165.000005035401,2|0,0:2|0:0,0:0:0:0:
333,215,129511,1,8,3:2:0:0:
258,149,129735,2,0,P|292:224|315:302,1,165.000005035401,2|2,0:2|0:2,0:0:0:0:
373,383,130407,1,10,3:2:0:0:
430,302,130631,1,2,0:0:0:0:
430,302,130743,1,2,0:0:0:0:
430,302,130855,6,0,P|453:223|487:149,1,165.000005035401,2|8,3:2|3:2,0:0:0:0:
508,52,131526,2,0,P|465:66|421:76,1,82.5000025177003,2|0,0:2|3:2,0:0:0:0:
338,33,131974,2,0,P|295:19|251:9,1,82.5000025177003,2|8,0:2|3:2,0:0:0:0:
193,85,132422,6,0,P|274:104|294:189,1,165.000005035401,2|2,0:2|0:2,0:0:0:0:
330,268,133094,1,10,3:2:0:0:
255,332,133317,2,0,P|177:320|87:314,1,165.000005035401,2|2,0:2|0:2,0:0:0:0:
1,270,133989,1,10,3:2:0:0:
74,204,134213,1,2,0:2:0:0:
74,204,134325,1,2,0:2:0:0:
74,204,134437,6,0,P|74:150|15:47,1,165.000005035401,2|8,3:2|3:2,0:0:0:0:
111,8,135109,1,2,0:2:0:0:
111,8,135220,1,2,0:2:0:0:
111,8,135332,2,0,P|150:26|193:42,1,82.5000025177003,2|2,3:2|0:2,0:0:0:0:
256,112,135780,1,10,3:2:0:0:
164,150,136004,6,0,P|175:226|184:326,1,165.000005035401,2|2,3:2|0:2,0:0:0:0:
256,381,136676,1,2,0:2:0:0:
328,313,136900,2,0,P|336:231|348:150,1,165.000005035401,2|2,0:2|0:2,0:0:0:0:
256,112,137571,1,10,0:2:0:0:
256,112,137683,1,2,0:0:0:0:
256,112,137795,1,10,0:2:0:0:
325,39,138019,6,0,P|383:75|490:52,1,165.000005035401,6|10,3:2|3:2,0:0:0:0:
511,154,138691,2,0,P|503:195|496:237,1,82.5000025177003,2|0,0:2|3:2,0:0:0:0:
408,280,139138,2,0,P|416:321|423:364,1,82.5000025177003,2|8,0:2|3:2,0:0:0:0:
325,383,139586,6,0,P|272:338|182:346,1,165.000005035401,2|2,0:2|0:2,0:0:0:0:
87,378,140258,1,10,3:2:0:0:
42,289,140482,2,0,P|40:219|123:152,1,165.000005035401,2|2,0:2|0:2,0:0:0:0:
197,121,141153,1,10,3:2:0:0:
197,121,141265,1,2,0:2:0:0:
197,121,141377,1,2,0:2:0:0:
261,195,141601,6,0,P|292:141|253:40,1,165.000005035401,2|10,3:2|3:2,0:0:0:0:
168,15,142273,2,0,P|98:23|67:25,1,82.5000025177003,2|0,0:2|3:2,0:0:0:0:
3,79,142720,2,0,P|10:149|13:183,1,82.5000025177003,2|8,0:2|3:2,0:0:0:0:
92,218,143168,6,0,P|66:299|71:382,1,165.000005035401,2|0,0:2|0:0,0:0:0:0:
160,335,143840,1,8,3:2:0:0:
249,377,144064,2,0,P|334:369|439:365,1,165.000005035401,2|2,0:2|0:2,0:0:0:0:
475,288,144735,1,10,3:2:0:0:
406,216,144959,1,2,0:0:0:0:
406,216,145071,1,2,0:0:0:0:
406,216,145183,6,0,P|327:237|254:240,1,123.75000377655,2|0,3:2|3:2,0:0:0:0:
235,238,145631,1,12,3:2:0:0:
157,176,145855,1,2,0:0:0:0:
157,176,145967,1,2,0:0:0:0:
157,176,146079,2,0,L|169:82,1,82.5000025177003,2|2,3:2|0:2,0:0:0:0:
224,13,146526,1,10,3:2:0:0:
316,49,146750,6,0,P|377:45|482:38,1,165.000005035401,2|2,0:2|0:2,0:0:0:0:
509,133,147422,1,10,3:2:0:0:
430,192,147646,2,0,P|430:235|437:288,1,82.5000025177003,2|0,0:2|3:2,0:0:0:0:
372,352,148094,2,0,P|336:336|292:334,1,82.5000025177003,2|10,0:2|3:2,0:0:0:0:
196,311,148541,6,0,L|46:319,1,123.75000377655,10|2,0:2|0:2,0:0:0:0:
25,301,148989,1,10,0:2:0:0:
84,221,149213,1,10,3:2:0:0:
24,141,149437,1,8,0:2:0:0:
24,141,149549,1,8,0:2:0:0:
24,141,149661,2,0,P|32:91|38:58,1,82.5000025177003,10|0,3:2|0:0,0:0:0:0:
80,33,149997,2,0,P|130:41|168:48,1,82.5000025177003,10|0,3:2|0:0,0:0:0:0:
181,91,150332,5,10,3:2:0:0:
181,91,151900,6,0,P|163:56|175:102,1,165.000005035401,8|2,0:1|0:0,0:0:0:0:
476,285,159511,6,0,L|463:369,1,56.2500021457673,6|2,3:2|0:2,0:0:0:0:
383,308,159959,2,0,L|391:252,1,56.2500021457673,2|0,3:2|0:0,0:0:0:0:
308,220,160407,2,0,L|299:275,2,56.2500021457673,2|2|2,3:2|0:2|3:2,0:0:0:0:
223,187,161079,6,0,P|159:223|95:216,1,112.500004291535,2|2,0:2|0:2,0:0:0:0:
51,167,161750,1,2,3:2:0:0:
69,78,161974,2,0,P|133:42|197:49,1,112.500004291535,2|0,0:2|0:0,0:0:0:0:
241,98,162646,1,0,3:2:0:0:
405,172,163094,6,0,L|479:165,1,56.2500021457673,2|2,3:2|0:2,0:0:0:0:
485,253,163541,2,0,L|429:258,1,56.2500021457673,2|0,3:2|0:0,0:0:0:0:
453,345,163989,2,0,L|509:339,2,56.2500021457673,2|2|2,3:2|0:2|3:2,0:0:0:0:
368,376,164661,6,0,P|317:338|230:353,1,112.500004291535,2|2,0:2|0:2,0:0:0:0:
189,376,165332,1,2,3:2:0:0:
166,288,165556,2,0,P|171:215|218:185,1,112.500004291535,2|0,0:2|0:0,0:0:0:0:
262,129,166228,1,0,3:0:0:0:
131,4,166676,6,0,L|60:11,1,56.2500021457673,2|2,3:2|0:2,0:0:0:0:
40,92,167123,2,0,L|95:86,1,56.2500021457673,2|0,3:2|0:0,0:0:0:0:
61,169,167571,2,0,L|5:174,2,56.2500021457673,2|2|2,3:2|0:2|3:2,0:0:0:0:
27,252,168243,6,0,P|35:317|41:378,1,112.500004291535,2|2,0:2|0:2,0:0:0:0:
127,345,168914,1,2,3:2:0:0:
214,363,169138,2,0,P|220:307|227:252,1,112.500004291535,2|0,0:2|0:0,0:0:0:0:
300,198,169810,2,0,L|369:208,1,56.2500021457673,2|2,3:2|0:2,0:0:0:0:
428,152,170258,6,0,P|434:96|440:40,1,112.500004291535,2|0,3:2|3:2,0:0:0:0:
354,14,170929,1,2,0:2:0:0:
354,14,171153,2,0,L|291:20,2,56.2500021457673,2|2|2,3:2|0:2|3:2,0:0:0:0:
327,100,171825,6,0,P|271:94|216:88,1,112.500004291535,2|2,3:2|3:2,0:0:0:0:
151,150,172497,1,2,3:2:0:0:
198,225,172720,2,0,P|186:309|177:378,1,112.500004291535,2|2,0:2|0:2,0:0:0:0:
103,379,173392,1,8,3:2:0:0:
47,308,173616,1,10,0:2:0:0:
47,308,173728,1,8,0:0:0:0:
47,308,175631,6,0,L|39:245,1,56.2500021457673,2|0,3:2|0:0,0:0:0:0:
338,50,176750,2,0,L|327:126,1,56.2500021457673,2|0,3:2|0:0,0:0:0:0:
241,123,177198,2,0,L|256:10,1,112.500004291535,2|0,3:2|0:0,0:0:0:0:
113,121,178094,2,0,L|128:233,1,112.500004291535,2|2,0:2|0:2,0:0:0:0:
140,321,178765,2,0,L|124:364,2,28.1250010728836,2|2|2,0:0|0:0|0:0,0:0:0:0:
227,309,179213,6,0,L|285:314,1,56.2500021457673,2|0,3:2|0:0,0:0:0:0:
92,9,180332,2,0,L|15:19,1,56.2500021457673,2|0,3:2|0:0,0:0:0:0:
19,106,180780,2,0,L|131:90,1,112.500004291535,2|0,3:2|0:0,0:0:0:0:
294,14,181676,2,0,L|406:29,1,112.500004291535,2|2,0:2|0:2,0:0:0:0:
462,99,182347,1,2,0:2:0:0:
400,164,182571,1,2,0:2:0:0:
400,164,182683,1,2,0:2:0:0:
400,164,182795,6,0,P|405:209|416:322,1,150,2|0,3:2|3:2,0:0:0:0:
339,362,183467,2,0,P|290:346|251:342,1,75,2|0,0:0|3:2,0:0:0:0:
213,270,183914,2,0,P|174:304|151:336,1,75,2|2,0:0|3:2,0:0:0:0:
70,333,184362,6,0,P|21:278|58:190,1,150,2|2,0:0|0:0,0:0:0:0:
105,150,185034,1,2,3:2:0:0:
187,186,185258,2,0,P|259:180|359:173,1,150,2|2,0:0|0:0,0:0:0:0:
403,234,185929,1,2,3:2:0:0:
481,190,186153,1,2,0:0:0:0:
481,190,186265,1,2,0:0:0:0:
481,190,186377,6,0,P|474:133|469:99,1,75,2|0,3:2|3:2,0:0:0:0:
429,35,186825,1,2,3:2:0:0:
353,83,187049,1,2,3:2:0:0:
277,35,187273,2,0,P|215:45|180:49,1,75,2|0,3:2|0:0,0:0:0:0:
170,77,187609,2,0,P|108:67|73:63,1,75,0|0,3:2|0:0,0:0:0:0:
59,39,187944,6,0,P|69:100|76:206,1,150,10|10,0:0|0:0,0:0:0:0:
88,231,188504,2,0,L|82:321,1,75,8|8,0:0|0:0,0:0:0:0:
170,328,188952,1,8,0:0:0:0:
170,328,189064,2,0,L|174:253,1,75,8|8,0:0|0:0,0:0:0:0:
256,212,189511,1,8,0:0:0:0:
337,253,189735,6,0,L|342:328,1,75,10|0,3:2|0:0,0:0:0:0:
428,305,190183,1,10,3:2:0:0:
477,229,190407,1,10,3:2:0:0:
324,135,190855,1,8,0:0:0:0:
319,136,190967,1,8,0:0:0:0:
314,137,191079,1,8,0:0:0:0:
309,138,191191,1,8,0:0:0:0:
304,139,191303,2,0,P|233:134|186:96,1,112.5,8|0,0:1|0:0,0:0:0:0:
166,75,191750,6,0,L|2:90,1,165.000005035401,6|10,3:2|3:2,0:0:0:0:
51,176,192422,2,0,L|132:167,1,82.5000025177003,2|0,0:2|3:2,0:0:0:0:
143,266,192870,2,0,L|61:274,1,82.5000025177003,2|8,0:2|3:2,0:0:0:0:
28,367,193317,6,0,L|192:351,1,165.000005035401,2|2,0:2|0:2,0:0:0:0:
256,275,193989,1,10,3:2:0:0:
319,351,194213,2,0,L|484:367,1,165.000005035401,2|2,0:2|0:2,0:0:0:0:
450,274,194885,1,10,3:2:0:0:
450,274,194997,1,2,0:0:0:0:
450,274,195109,1,2,0:0:0:0:
497,188,195332,6,0,P|485:122|476:24,1,165.000005035401,2|10,3:2|3:2,0:0:0:0:
378,2,196004,2,0,P|331:31|286:47,1,82.5000025177003,2|0,0:2|3:2,0:0:0:0:
206,41,196452,2,0,P|168:24|134:2,1,82.5000025177003,2|8,0:2|3:2,0:0:0:0:
35,24,196900,6,0,P|29:106|15:188,1,165.000005035401,2|0,0:2|0:2,0:0:0:0:
95,245,197571,1,8,3:2:0:0:
184,201,197795,2,0,P|252:206|352:213,1,165.000005035401,2|2,0:2|0:2,0:0:0:0:
403,295,198467,1,10,3:2:0:0:
314,340,198691,1,2,0:2:0:0:
314,340,198803,1,2,0:0:0:0:
314,340,198914,6,0,P|252:316|164:329,1,123.75000377655,2|0,3:2|3:2,0:0:0:0:
151,342,199362,1,12,3:2:0:0:
92,262,199586,1,2,0:0:0:0:
92,262,199698,1,2,0:0:0:0:
92,262,199810,2,0,P|31:276|-1:280,1,82.5000025177003,2|2,3:2|0:2,0:0:0:0:
1,179,200258,1,10,3:2:0:0:
40,87,200482,6,0,L|204:110,1,165.000005035401,2|2,0:2|0:2,0:0:0:0:
256,193,201153,1,10,3:2:0:0:
308,110,201377,2,0,L|389:98,1,82.5000025177003,2|0,0:2|3:2,0:0:0:0:
434,184,201825,2,0,L|353:196,1,82.5000025177003,2|8,0:2|3:2,0:0:0:0:
256,193,202273,1,10,0:2:0:0:
256,193,202385,1,8,0:0:0:0:
256,193,202497,5,0,3:2:0:0:
224,285,202720,1,8,3:2:0:0:
301,343,202944,1,10,3:2:0:0:
379,287,203168,1,8,3:2:0:0:
379,287,203280,1,8,3:2:0:0:
379,287,203392,2,0,L|465:294,1,82.5000025177003,10|0,3:2|0:0,0:0:0:0:
485,250,203728,2,0,P|458:193|419:175,1,82.5000025177003,10|0,3:2|0:0,0:0:0:0:
395,170,204064,5,10,3:2:0:0:
395,170,205631,6,0,P|423:145|398:185,1,123.75000377655,8|0,0:1|0:0,0:0:0:0:
383,219,206079,6,0,P|317:215|283:213,1,75,6|2,3:2|0:2,0:0:0:0:
256,140,206526,1,10,3:2:0:0:
203,214,206750,1,2,0:2:0:0:
203,214,206862,1,2,0:0:0:0:
203,214,206974,2,0,P|166:216|67:224,1,112.5,2|2,3:2|0:2,0:0:0:0:
46,229,207422,1,8,3:2:0:0:
6,147,207646,2,0,P|18:102|45:63,1,75,2|0,0:2|3:2,0:0:0:0:
110,32,208094,6,0,L|208:24,2,75,2|10|2,0:2|3:2|0:2,0:0:0:0:
155,109,208765,2,0,L|302:97,1,112.5,2|2,3:2|0:2,0:0:0:0:
312,96,209213,1,8,3:2:0:0:
377,158,209437,1,2,0:2:0:0:
377,158,209549,1,2,0:0:0:0:
377,158,209661,6,0,P|370:213|365:250,1,75,0|2,3:2|0:2,0:0:0:0:
409,312,210109,1,10,3:2:0:0:
477,254,210332,1,2,0:2:0:0:
477,254,210444,1,2,0:0:0:0:
477,254,210556,2,0,P|474:172|467:111,1,112.5,2|2,3:2|0:2,0:0:0:0:
463,96,211004,1,8,3:2:0:0:
394,37,211228,2,0,P|350:49|304:57,1,75,2|0,0:2|3:2,0:0:0:0:
234,81,211676,6,0,P|190:69|144:61,2,75,2|10|2,0:2|3:2|0:2,0:0:0:0:
291,150,212347,2,0,P|287:205|284:267,1,112.5,2|2,3:2|0:2,0:0:0:0:
277,307,212795,1,8,3:2:0:0:
196,347,213019,1,2,0:2:0:0:
196,347,213131,1,2,0:0:0:0:
196,347,213243,6,0,P|155:322|126:311,1,75,2|2,3:2|0:2,0:0:0:0:
41,293,213691,1,10,3:2:0:0:
8,209,213914,1,2,0:2:0:0:
8,209,214026,1,2,0:0:0:0:
8,209,214138,2,0,P|18:142|28:77,1,112.5,2|2,3:2|0:2,0:0:0:0:
32,53,214586,1,8,3:2:0:0:
111,10,214810,2,0,P|163:40|199:52,1,75,2|0,0:2|3:2,0:0:0:0:
258,84,215258,6,0,P|288:61|321:44,2,75,2|10|2,0:2|3:2|0:2,0:0:0:0:
184,135,215929,2,0,P|188:172|176:256,1,112.5,2|2,3:2|0:2,0:0:0:0:
162,288,216377,1,8,3:2:0:0:
227,350,216601,1,2,0:2:0:0:
227,350,216713,1,2,0:0:0:0:
227,350,216825,6,0,P|270:338|317:330,1,75,0|2,3:2|0:2,0:0:0:0:
389,319,217273,1,10,3:2:0:0:
436,242,217497,1,2,0:2:0:0:
436,242,217609,1,2,0:0:0:0:
436,242,217720,2,0,P|429:170|401:121,1,112.5,2|2,3:2|0:2,0:0:0:0:
376,106,218168,1,8,3:2:0:0:
286,97,218392,2,0,P|213:106|179:110,1,75,2|0,0:2|3:2,0:0:0:0:
132,150,218840,6,0,P|94:145|57:140,2,75,2|10|2,0:2|3:2|0:2,0:0:0:0:
190,218,219511,2,0,P|183:276|180:309,1,75,2|0,3:2|3:2,0:0:0:0:
174,337,219847,1,2,3:2:0:0:
174,337,219959,1,8,0:2:0:0:
91,373,220183,5,2,3:2:0:0:
256,192,220295,12,0,221526,0:0:0:0:
