osu file format v14

[General]
AudioFilename: audio.mp3
AudioLeadIn: 0
PreviewTime: 174847
Countdown: 0
SampleSet: Soft
StackLeniency: 0.4
Mode: 0
LetterboxInBreaks: 0
WidescreenStoryboard: 0

[Editor]
Bookmarks: 109,14437,28541,43094,59213,73541,87870,95034,109362,123691,138019,152347,159511,175631,191750,206079,220183,221526
DistanceSpacing: 1
BeatDivisor: 4
GridSize: 4
TimelineZoom: 2.1

[Metadata]
Title:Blue Canvas
TitleUnicode:Blue Canvas
Artist:ClariS
ArtistUnicode:ClariS
Creator:lit120
Version:Abydos (Insane)
Source:ブルーアーカイブ -Blue Archive-
Tags:Yostar nat games Blue Archive ブルアカ 蔚蓝档案 blueaka mobile rpg japanese pop j-pop jpop video game clara karen -Hakurei-
BeatmapID:4259959
BeatmapSetID:2041719

[Difficulty]
HPDrainRate:6
CircleSize:4
OverallDifficulty:7.5
ApproachRate:8
SliderMultiplier:1.8
SliderTickRate:1

[Events]
//Background and Video events
0,0,"abydos1.jpg",0,0
//Break Periods
2,152547,158761
//Storyboard Layer 0 (Background)
//Storyboard Layer 1 (Fail)
//Storyboard Layer 2 (Pass)
//Storyboard Layer 3 (Foreground)
//Storyboard Layer 4 (Overlay)
//Storyboard Sound Samples

[TimingPoints]
109,447.761194029851,4,2,1,40,1,0
109,-200,4,2,1,40,0,0
3691,-133.333333333333,4,2,1,60,0,0
6041,-133.333333333333,4,2,1,5,0,0
6153,-133.333333333333,4,2,1,60,0,0
7273,-83.3333333333333,4,2,1,80,0,0
14437,-133.333333333333,4,2,2,60,0,0
28541,-100,4,2,2,70,0,0
43094,-133.333333333333,4,2,2,60,0,0
50258,-100,4,2,3,70,0,0
55743,-100,4,2,3,5,0,0
55855,-100,4,2,3,70,0,0
56079,-100,4,2,3,5,0,0
56191,-100,4,2,3,70,0,0
56303,-100,4,2,3,5,0,0
56414,-100,4,2,3,70,0,0
57534,-100,4,2,3,5,0,0
57646,-100,4,2,3,70,0,0
57758,-100,4,2,3,5,0,0
57870,-100,4,2,3,70,0,0
57982,-100,4,2,3,5,0,0
58317,-100,4,2,3,70,0,0
58765,-100,4,2,1,70,0,0
59101,-100,4,2,1,5,0,0
59213,-83.3333333333333,4,2,1,80,0,1
73094,-83.3333333333333,4,2,3,80,0,1
73541,-83.3333333333333,4,2,1,80,0,1
85407,-83.3333333333333,4,2,1,5,0,1
85519,-83.3333333333333,4,2,1,80,0,1
85743,-83.3333333333333,4,2,1,5,0,1
85855,-83.3333333333333,4,2,1,80,0,1
87758,-83.3333333333333,4,2,1,5,0,1
87870,-83.3333333333333,4,2,1,80,0,0
95034,-66.6666666666667,4,2,1,60,0,0
95146,-133.333333333333,4,2,1,5,0,0
96153,-133.333333333333,4,2,1,60,0,0
96377,-133.333333333333,4,2,1,5,0,0
96601,-133.333333333333,4,2,1,60,0,0
96825,-133.333333333333,4,2,1,5,0,0
97944,-133.333333333333,4,2,1,60,0,0
98168,-133.333333333333,4,2,1,5,0,0
98392,-133.333333333333,4,2,1,60,0,0
98616,-133.333333333333,4,2,1,5,0,0
99511,-133.333333333333,4,2,1,60,0,0
99735,-133.333333333333,4,2,1,5,0,0
100183,-133.333333333333,4,2,1,60,0,0
100407,-133.333333333333,4,2,1,5,0,0
101079,-133.333333333333,4,2,1,60,0,0
102198,-100,4,2,2,70,0,0
109362,-133.333333333333,4,2,2,60,0,0
116526,-100,4,2,3,70,0,0
122011,-100,4,2,3,5,0,0
122123,-100,4,2,3,70,0,0
123243,-100,4,2,1,70,0,0
123579,-100,4,2,1,5,0,0
123691,-83.3333333333333,4,2,1,80,0,1
137571,-83.3333333333333,4,2,3,80,0,1
138019,-83.3333333333333,4,2,1,80,0,1
149885,-83.3333333333333,4,2,1,5,0,1
149997,-83.3333333333333,4,2,1,80,0,1
150220,-83.3333333333333,4,2,1,5,0,1
150332,-83.3333333333333,4,2,1,80,0,1
152347,-100,4,2,1,40,0,0
159511,-133.333333333333,4,2,3,60,0,0
175631,-133.333333333333,4,2,3,70,0,0
175855,-133.333333333333,4,2,3,5,0,0
176750,-133.333333333333,4,2,3,70,0,0
176974,-133.333333333333,4,2,3,5,0,0
177198,-133.333333333333,4,2,3,70,0,0
177422,-133.333333333333,4,2,3,5,0,0
178094,-133.333333333333,4,2,3,70,0,0
179437,-133.333333333333,4,2,3,5,0,0
180332,-133.333333333333,4,2,3,70,0,0
180556,-133.333333333333,4,2,3,5,0,0
180780,-133.333333333333,4,2,3,70,0,0
181004,-133.333333333333,4,2,3,5,0,0
181676,-133.333333333333,4,2,3,70,0,0
187497,-133.333333333333,4,2,3,5,0,0
187609,-133.333333333333,4,2,3,70,0,0
187832,-133.333333333333,4,2,3,5,0,0
187944,-100,4,2,3,70,0,0
188280,-100,4,2,3,5,0,0
188392,-100,4,2,3,70,0,0
188616,-100,4,2,3,5,0,0
188728,-100,4,2,3,70,0,0
188840,-100,4,2,3,5,0,0
188952,-100,4,2,3,70,0,0
190071,-100,4,2,3,5,0,0
190183,-100,4,2,3,70,0,0
190295,-100,4,2,3,5,0,0
190407,-100,4,2,3,70,0,0
190519,-100,4,2,3,5,0,0
190855,-100,4,2,3,70,0,0
191303,-100,4,2,1,70,0,0
191638,-100,4,2,1,5,0,0
191750,-83.3333333333333,4,2,1,80,0,1
203616,-83.3333333333333,4,2,1,5,0,1
203728,-83.3333333333333,4,2,1,80,0,1
203952,-83.3333333333333,4,2,1,5,0,1
204064,-83.3333333333333,4,2,1,80,0,1
205967,-83.3333333333333,4,2,1,5,0,1
206079,-83.3333333333333,4,2,1,80,0,0
219735,-83.3333333333333,4,2,1,5,0,0
219847,-83.3333333333333,4,2,1,80,0,0
220071,-83.3333333333333,4,2,1,5,0,0
220183,-83.3333333333333,4,2,1,80,0,0
221526,-100,4,2,1,5,0,0

[Colours]
Combo1 : 242,201,198
Combo2 : 99,250,254
Combo3 : 243,133,169
Combo4 : 210,241,86

[HitObjects]
453,360,109,6,0,P|410:351|356:340,1,90,2|2,0:0|0:0,0:0:0:0:
274,298,780,1,2,0:0:0:0:
274,298,892,1,2,0:0:0:0:
274,298,1004,2,0,P|216:307|202:308,2,67.5,2|2|2,0:0|0:0|0:0,0:0:0:0:
274,298,2123,6,0,P|268:337|266:355,2,45,2|0|0,0:0|0:0|0:0,0:0:0:0:
187,232,2795,1,2,0:0:0:0:
134,327,3019,1,2,0:0:0:0:
47,261,3243,1,2,0:0:0:0:
233,11,3691,6,0,L|367:35,1,135.000005149842,2|2,0:0|0:0,0:0:0:0:
334,113,4362,1,2,0:0:0:0:
334,113,4474,1,2,0:0:0:0:
334,113,4586,2,0,L|233:95,2,101.250003862381,2|2|2,0:0|0:0|0:0,0:0:0:0:
338,117,5706,5,8,0:3:0:0:
338,117,5817,2,0,P|347:163|354:190,1,67.5000025749208,8|0,0:3|0:0,0:0:0:0:
269,201,6153,1,8,0:3:0:0:
269,201,6265,1,8,0:3:0:0:
269,201,6377,2,0,P|262:167|254:135,1,67.5000025749208,2|2,0:0|0:0,0:0:0:0:
67,7,6825,1,8,0:3:0:0:
62,24,6937,1,8,0:3:0:0:
58,40,7049,1,4,0:3:0:0:
54,57,7161,1,4,0:3:0:0:
50,73,7273,6,0,P|57:137|63:195,1,107.999996704102,6|2,3:2|0:2,0:0:0:0:
116,243,7609,1,2,0:2:0:0:
116,243,7720,2,0,P|109:307|103:365,1,107.999996704102,2|2,3:2|0:2,0:0:0:0:
310,227,8168,1,2,3:2:0:0:
423,307,8392,1,2,0:2:0:0:
422,307,8504,2,0,P|395:305|369:303,1,53.9999983520508,2|0,0:2|3:2,0:0:0:0:
250,151,8728,1,2,0:2:0:0:
250,151,8840,2,0,P|196:158|143:164,1,107.999996704102,2|0,0:2|3:2,0:0:0:0:
351,14,9288,5,2,0:2:0:0:
508,74,9511,1,2,3:2:0:0:
378,180,9735,1,2,0:2:0:0:
502,339,9959,2,0,P|445:286|369:303,1,161.999995056153,2|2,3:2|0:2,0:0:0:0:
331,328,10407,1,0,3:2:0:0:
179,374,10631,1,2,0:2:0:0:
179,374,10743,1,2,0:0:0:0:
179,374,10855,6,0,P|121:367|66:362,1,107.999996704102,2|2,3:2|0:2,0:0:0:0:
12,293,11191,1,2,0:2:0:0:
12,293,11303,2,0,P|65:287|119:281,1,107.999996704102,2|2,3:2|0:2,0:0:0:0:
274,165,11750,1,2,3:2:0:0:
194,110,11974,1,2,0:2:0:0:
194,110,12086,2,0,P|149:116|114:120,1,53.9999983520508,2|0,0:2|3:2,0:0:0:0:
354,220,12310,1,2,0:2:0:0:
354,220,12422,2,0,P|414:212|481:205,1,107.999996704102,2|0,0:2|3:2,0:0:0:0:
258,41,12870,5,2,0:2:0:0:
349,132,13094,1,2,3:2:0:0:
383,8,13317,1,2,0:2:0:0:
225,166,13541,5,2,3:2:0:0:
441,224,13765,1,2,3:2:0:0:
283,382,13989,1,2,3:2:0:0:
242,378,14101,1,2,0:0:0:0:
202,374,14213,1,2,0:0:0:0:
162,370,14325,1,2,0:0:0:0:
121,366,14437,6,0,P|61:362|41:362,1,67.5000025749208,6|2,3:2|0:2,0:0:0:0:
198,258,14885,2,0,P|231:256|265:253,1,67.5000025749208,10|2,0:2|0:2,0:0:0:0:
362,184,15332,1,2,0:2:0:0:
262,57,15556,2,0,P|268:90|273:123,1,67.5000025749208,2|10,3:2|0:2,0:0:0:0:
355,321,16004,6,0,P|365:263|384:175,1,135.000005149842,2|2,3:2|3:2,0:0:0:0:
481,76,16676,1,8,0:2:0:0:
481,76,16900,2,0,P|444:85|413:91,1,67.5000025749208,2|0,0:2|0:0,0:0:0:0:
199,179,17347,1,2,3:2:0:0:
279,61,17571,1,8,0:2:0:0:
185,14,17795,1,2,0:2:0:0:
185,14,17907,1,2,0:0:0:0:
185,14,18019,6,0,P|106:31|24:43,2,135.000005149842,2|8|0,3:2|0:2|0:0,0:0:0:0:
96,172,19138,2,0,P|103:205|109:239,1,67.5000025749208,2|10,3:2|0:2,0:0:0:0:
237,378,19586,6,0,P|287:330|384:351,1,135.000005149842,2|0,3:2|3:2,0:0:0:0:
470,213,20258,1,8,0:2:0:0:
381,180,20482,1,2,0:2:0:0:
381,180,20594,1,2,0:0:0:0:
381,180,20706,2,0,P|376:137|372:89,1,67.5000025749208,2|2,0:2|3:2,0:0:0:0:
256,27,21153,1,10,0:2:0:0:
138,113,21377,1,2,0:2:0:0:
138,113,21489,1,2,0:0:0:0:
138,113,21601,6,0,P|131:180|121:247,2,135.000005149842,2|8|0,3:2|0:2|0:0,0:0:0:0:
256,12,22720,2,0,P|261:76|263:105,1,67.5000025749208,2|10,3:2|0:2,0:0:0:0:
348,256,23168,6,0,P|418:261|473:198,1,135.000005149842,2|0,3:2|3:2,0:0:0:0:
487,65,23840,1,10,0:2:0:0:
487,65,24064,2,0,P|417:60|362:123,1,135.000005149842,2|2,0:2|3:2,0:0:0:0:
180,155,24735,1,10,0:2:0:0:
104,30,24959,1,2,0:2:0:0:
104,30,25071,1,2,0:0:0:0:
104,30,25183,6,0,P|172:42|251:55,1,135.000005149842,2|10,3:2|0:2,0:0:0:0:
341,180,25855,2,0,P|333:125|329:93,1,67.5000025749208,2|0,0:2|0:0,0:0:0:0:
171,204,26303,2,0,P|179:259|183:291,1,67.5000025749208,2|8,3:2|0:2,0:0:0:0:
408,354,26750,6,0,P|340:342|261:329,1,135.000005149842,2|0,3:2|0:0,0:0:0:0:
104,30,27646,2,0,P|172:42|251:55,1,135.000005149842,2|2,3:2|0:0,0:0:0:0:
251,68,28206,1,2,0:0:0:0:
264,83,28317,1,2,0:0:0:0:
277,98,28429,1,2,0:0:0:0:
290,113,28541,6,0,P|290:175|158:193,1,180,6|2,3:2|3:2,0:0:0:0:
37,77,29213,2,0,P|51:157|56:205,1,90,10|2,3:2|0:2,0:0:0:0:
161,361,29661,1,2,3:2:0:0:
39,281,29885,1,2,0:2:0:0:
208,190,30109,1,10,3:2:0:0:
280,298,30332,6,0,P|333:293|380:289,1,90,2|0,0:2|3:2,0:0:0:0:
223,193,30780,2,0,P|170:188|123:184,1,90,2|8,0:2|3:2,0:0:0:0:
336,117,31228,2,0,P|381:113|426:109,1,90,2|0,0:2|3:2,0:0:0:0:
167,12,31676,1,2,0:2:0:0:
250,183,31900,1,8,3:2:0:0:
431,19,32123,1,2,0:2:0:0:
431,19,32235,1,2,0:0:0:0:
431,19,32347,6,0,P|426:109|421:199,2,180,0|8|0,3:2|3:2|3:2,0:0:0:0:
306,112,33467,1,2,0:2:0:0:
442,231,33691,1,10,3:2:0:0:
256,321,33914,6,0,P|203:317|142:314,1,90,2|0,0:2|3:2,0:0:0:0:
120,310,34250,1,2,0:2:0:0:
120,310,34362,1,2,0:2:0:0:
227,132,34586,2,0,P|280:136|341:139,1,90,8|0,3:2|0:0,0:0:0:0:
179,40,35034,1,2,3:2:0:0:
89,216,35258,1,2,0:2:0:0:
229,150,35482,1,10,3:2:0:0:
84,34,35706,1,2,0:2:0:0:
84,34,35817,1,2,0:0:0:0:
84,34,35929,5,2,3:2:0:0:
0,152,36153,2,0,P|57:141|111:134,1,90,2|8,0:2|3:2,0:0:0:0:
233,22,36601,2,0,P|277:31|322:38,1,90,2|0,0:2|3:2,0:0:0:0:
478,211,37049,5,2,0:2:0:0:
387,151,37273,1,10,3:2:0:0:
321,236,37497,2,0,P|329:302|333:346,1,90,2|0,0:2|3:2,0:0:0:0:
231,133,37944,5,2,0:2:0:0:
114,218,38168,1,10,3:2:0:0:
61,102,38392,2,0,P|56:57|51:13,1,90,2|0,0:2|3:2,0:0:0:0:
256,254,38840,5,2,0:2:0:0:
139,355,39064,1,10,3:2:0:0:
68,189,39288,2,0,P|75:132|81:73,1,90,2|0,3:2|0:0,0:0:0:0:
256,131,39735,5,2,3:2:0:0:
373,29,39959,1,10,0:2:0:0:
444,195,40183,2,0,P|437:252|431:311,1,90,2|0,3:2|0:0,0:0:0:0:
171,175,40631,5,2,3:2:0:0:
284,273,40855,1,10,0:2:0:0:
371,59,41079,2,0,L|309:129,1,90,2|0,3:2|0:0,0:0:0:0:
83,158,41526,2,0,L|175:176,1,90,10|0,3:2|0:0,0:0:0:0:
313,358,41974,2,0,L|282:269,1,90,10|0,3:2|0:0,0:0:0:0:
171,175,42422,1,2,3:2:0:0:
178,153,42534,1,2,0:0:0:0:
185,132,42646,1,2,0:0:0:0:
193,111,42758,1,2,0:0:0:0:
200,90,42870,1,2,0:2:0:0:
207,68,42982,1,2,0:0:0:0:
214,47,43094,6,0,P|271:44|298:54,1,67.5000025749208,6|2,3:2|0:2,0:0:0:0:
394,137,43541,1,10,0:2:0:0:
491,26,43765,2,0,P|480:58|471:90,1,67.5000025749208,2|8,0:2|0:2,0:0:0:0:
512,218,44213,2,0,P|459:165|402:178,1,135.000005149842,2|2,0:0|0:0,0:0:0:0:
308,260,44885,5,8,3:2:0:0:
308,260,45109,2,0,P|303:194|302:165,2,67.5000025749208,2|10|2,0:0|0:2|0:0,0:0:0:0:
213,359,45780,2,0,P|135:354|65:351,1,135.000005149842,10|10,0:2|0:2,0:0:0:0:
11,275,46452,1,2,0:2:0:0:
11,275,46564,1,2,0:0:0:0:
11,275,46676,6,0,P|42:263|74:250,2,67.5000025749208,10|2|10,3:2|0:2|0:2,0:0:0:0:
135,178,47347,2,0,P|161:198|187:220,1,67.5000025749208,2|8,0:2|0:2,0:0:0:0:
41,160,47795,2,0,P|50:94|62:27,1,135.000005149842,2|2,0:2|0:2,0:0:0:0:
179,101,48467,5,8,3:2:0:0:
259,35,48691,1,2,0:2:0:0:
259,35,48803,1,2,0:2:0:0:
259,35,48914,1,8,0:2:0:0:
343,138,49138,2,0,P|406:158|468:115,1,135.000005149842,2|2,0:0|0:0,0:0:0:0:
400,10,49810,2,0,P|399:44|397:78,1,67.5000025749208,10|2,0:0|0:0,0:0:0:0:
256,217,50258,5,0,3:2:0:0:
350,328,50482,1,2,0:2:0:0:
350,328,50594,1,2,0:2:0:0:
350,328,50706,2,0,P|414:322|457:318,1,90,2|2,3:2|0:2,0:0:0:0:
494,235,51041,1,2,0:2:0:0:
494,235,51153,2,0,P|430:241|387:245,1,90,2|2,3:2|0:2,0:0:0:0:
236,133,51601,1,2,3:2:0:0:
429,25,51825,1,2,0:2:0:0:
338,153,52049,1,2,3:2:0:0:
162,56,52273,5,2,0:2:0:0:
162,56,52385,1,2,0:2:0:0:
162,56,52497,2,0,P|98:62|55:66,1,90,2|2,3:2|0:2,0:0:0:0:
18,149,52832,1,2,0:2:0:0:
18,149,52944,2,0,P|82:143|125:139,1,90,2|2,3:2|0:2,0:0:0:0:
276,251,53392,1,2,3:2:0:0:
83,359,53616,1,2,0:2:0:0:
174,231,53840,5,10,3:2:0:0:
174,231,53952,1,8,0:0:0:0:
174,231,54064,2,8,P|179:273|181:291,1,45,8|8,3:2|0:0,0:0:0:0:
275,354,54288,2,8,P|236:337|219:330,1,45,10|8,3:2|0:0,0:0:0:0:
117,379,54511,2,8,P|150:353|165:342,1,45,8|10,3:2|0:2,0:0:0:0:
285,215,54735,5,8,3:2:0:0:
300,172,54847,1,8,0:0:0:0:
296,128,54959,1,10,3:2:0:0:
274,89,55071,1,8,0:0:0:0:
239,62,55183,2,8,P|204:67|178:73,1,45,10|8,3:2|0:0,0:0:0:0:
33,171,55407,6,0,P|99:173|145:127,1,135,10|0,3:2|0:0,0:0:0:0:
114,9,55855,1,8,0:2:0:0:
114,9,55967,2,0,L|119:54,1,45,8|0,0:2|0:0,0:0:0:0:
243,106,56191,2,0,L|239:62,1,45,8|0,0:2|0:0,0:0:0:0:
374,7,56414,1,8,0:2:0:0:
374,7,56526,1,8,0:2:0:0:
463,72,56750,1,8,0:2:0:0:
364,118,56974,1,8,0:2:0:0:
462,333,57198,6,0,P|506:289|473:212,1,135,10|0,3:2|0:0,0:0:0:0:
414,192,57646,2,0,P|370:200|347:203,1,45,10|0,3:2|0:0,0:0:0:0:
222,313,57870,2,0,P|244:308|267:305,1,45,10|0,3:2|0:0,0:0:0:0:
267,305,58317,5,8,0:3:0:0:
270,292,58429,1,8,0:3:0:0:
273,279,58541,1,8,0:3:0:0:
276,266,58653,1,8,0:3:0:0:
280,253,58765,2,0,P|269:193|197:163,1,135,8|0,0:1|0:0,0:0:0:0:
114,150,59213,6,0,P|225:124|353:93,1,215.999993408203,6|10,3:2|3:2,0:0:0:0:
488,9,59885,2,0,P|481:77|477:128,1,107.999996704102,2|0,0:2|3:2,0:0:0:0:
401,340,60332,1,2,0:2:0:0:
401,340,60444,1,2,0:0:0:0:
401,340,60556,1,10,3:2:0:0:
247,237,60780,6,0,P|113:250|0:259,1,215.999993408203,2|2,0:2|0:2,0:0:0:0:
188,95,61452,1,10,3:2:0:0:
65,5,61676,2,0,P|74:58|82:112,1,107.999996704102,2|0,0:2|3:2,0:0:0:0:
152,282,62123,1,2,0:2:0:0:
287,150,62347,1,10,3:2:0:0:
287,150,62459,1,2,0:2:0:0:
287,150,62571,1,2,0:2:0:0:
407,332,62795,6,0,P|500:247|455:174,1,215.999993408203,2|10,3:2|3:2,0:0:0:0:
350,9,63467,2,0,P|359:79|364:130,1,107.999996704102,2|0,0:2|3:2,0:0:0:0:
246,299,63914,1,2,0:2:0:0:
246,299,64026,1,2,0:0:0:0:
246,299,64138,1,10,3:2:0:0:
99,221,64362,6,0,P|162:137|262:157,1,215.999993408203,2|0,0:2|0:0,0:0:0:0:
72,0,65034,1,8,3:2:0:0:
150,106,65258,1,2,0:2:0:0:
303,3,65482,1,2,3:2:0:0:
196,228,65706,1,2,0:2:0:0:
423,327,65929,1,10,3:2:0:0:
459,310,66041,1,2,0:0:0:0:
482,277,66153,1,2,0:2:0:0:
487,237,66265,1,2,0:0:0:0:
472,200,66377,6,0,B|388:212|388:212|363:251|363:251|279:263,1,215.999993408203,2|8,3:2|3:2,0:0:0:0:
130,136,67049,2,0,P|200:148|262:157,1,107.999996704102,2|0,0:2|3:2,0:0:0:0:
110,312,67497,1,2,0:2:0:0:
7,141,67720,1,10,3:2:0:0:
102,343,67944,6,0,P|172:331|234:322,1,107.999996704102,2|0,0:2|3:2,0:0:0:0:
363,194,68392,1,2,0:2:0:0:
436,376,68616,1,10,3:2:0:0:
232,235,68840,2,0,P|240:180|245:128,1,107.999996704102,2|0,0:2|3:2,0:0:0:0:
362,17,69288,1,2,0:2:0:0:
455,219,69511,1,10,3:2:0:0:
232,250,69735,1,2,0:2:0:0:
232,250,69847,1,2,0:2:0:0:
232,250,69959,6,0,B|148:238|148:238|123:199|123:199|39:187,1,215.999993408203,2|8,3:2|3:2,0:0:0:0:
234,47,70631,1,2,0:2:0:0:
234,47,70743,1,2,0:2:0:0:
234,47,70855,2,0,P|223:112|215:171,1,107.999996704102,2|2,3:2|0:2,0:0:0:0:
55,284,71303,1,10,3:2:0:0:
249,359,71526,6,0,P|337:351|477:342,1,215.999993408203,2|2,3:2|0:2,0:0:0:0:
347,230,72198,1,2,0:2:0:0:
465,118,72422,2,0,P|357:111|250:101,1,215.999993408203,2|2,0:2|0:2,0:0:0:0:
147,206,73094,1,10,0:2:0:0:
147,206,73206,1,2,0:2:0:0:
147,206,73317,1,10,0:2:0:0:
6,31,73541,6,0,P|18:128|30:253,1,215.999993408203,6|10,3:2|3:2,0:0:0:0:
177,363,74213,2,0,P|105:349|57:345,1,107.999996704102,2|0,0:2|3:2,0:0:0:0:
233,228,74661,1,2,0:2:0:0:
233,228,74773,1,2,0:0:0:0:
233,228,74885,1,10,3:2:0:0:
317,342,75109,6,0,B|400:330|400:330|425:291|425:291|509:279,1,215.999993408203,2|2,0:2|0:2,0:0:0:0:
364,136,75780,1,10,3:2:0:0:
472,42,76004,2,0,P|465:99|461:170,1,107.999996704102,2|0,0:2|3:2,0:0:0:0:
340,249,76452,1,2,0:2:0:0:
233,78,76676,1,10,3:2:0:0:
233,78,76788,1,2,0:2:0:0:
233,78,76900,1,2,0:2:0:0:
62,185,77123,6,0,P|75:262|220:242,1,215.999993408203,2|10,3:2|3:2,0:0:0:0:
348,146,77795,2,0,P|254:162|218:167,1,107.999996704102,2|0,0:2|3:2,0:0:0:0:
68,48,78243,1,2,0:2:0:0:
68,48,78355,1,2,0:0:0:0:
68,48,78467,1,10,3:2:0:0:
149,179,78691,6,0,B|129:261|129:261|157:298|157:298|138:380,1,215.999993408203,2|0,0:2|0:0,0:0:0:0:
34,224,79362,1,8,3:2:0:0:
228,130,79586,1,2,0:2:0:0:
9,11,79810,1,2,3:2:0:0:
81,143,80034,1,2,0:2:0:0:
261,2,80258,1,10,3:2:0:0:
301,6,80370,1,2,0:0:0:0:
341,10,80482,1,2,0:2:0:0:
381,15,80594,1,2,0:0:0:0:
422,19,80706,6,0,P|447:80|370:150,1,161.999995056153,2|0,3:2|3:2,0:0:0:0:
318,178,81153,1,12,3:2:0:0:
192,111,81377,1,2,0:2:0:0:
192,111,81489,1,2,0:2:0:0:
192,111,81601,2,0,P|197:175|200:228,1,107.999996704102,2|2,3:2|0:2,0:0:0:0:
290,384,82049,1,10,3:2:0:0:
412,268,82273,6,0,P|335:280|286:286,1,107.999996704102,2|0,0:2|3:2,0:0:0:0:
114,368,82720,1,2,0:2:0:0:
114,368,82832,1,2,0:2:0:0:
114,368,82944,1,10,3:2:0:0:
30,264,83168,2,0,P|42:187|48:138,1,107.999996704102,2|0,0:2|3:2,0:0:0:0:
211,57,83616,2,0,P|203:110|196:164,1,107.999996704102,2|10,0:2|3:2,0:0:0:0:
290,384,84064,6,0,P|302:307|308:258,1,107.999996704102,10|0,0:2|3:2,0:0:0:0:
314,201,84400,1,2,0:2:0:0:
314,201,84511,1,10,0:2:0:0:
150,359,84735,1,10,3:2:0:0:
45,157,84959,1,8,0:2:0:0:
45,157,85071,1,8,0:2:0:0:
45,157,85183,6,0,P|106:149|174:142,1,107.999996704102,10|0,3:2|0:0,0:0:0:0:
275,68,85519,2,0,P|214:60|146:53,1,107.999996704102,10|0,3:2|0:0,0:0:0:0:
72,3,85855,1,10,3:2:0:0:
72,3,87422,6,0,P|54:62|56:6,1,161.999995056153,8|0,0:1|0:0,0:0:0:0:
110,1,87870,6,0,P|177:14|252:25,1,107.999996704102,6|2,3:2|0:2,0:0:0:0:
303,91,88206,1,2,0:2:0:0:
303,91,88317,2,0,P|249:99|196:110,1,107.999996704102,10|2,3:2|0:2,0:0:0:0:
123,306,88765,1,2,3:2:0:0:
9,239,88989,1,2,0:2:0:0:
9,239,89101,2,0,P|56:247|96:251,1,53.9999983520508,2|8,0:2|3:2,0:0:0:0:
183,364,89325,1,2,0:2:0:0:
183,364,89437,2,0,P|252:356|306:349,1,107.999996704102,2|0,0:2|3:2,0:0:0:0:
469,228,89885,5,2,0:2:0:0:
322,138,90109,1,10,3:2:0:0:
477,215,90332,1,2,0:2:0:0:
253,270,90556,2,0,P|198:222|234:119,1,161.999995056153,2|2,3:2|0:2,0:0:0:0:
241,101,91004,1,8,3:2:0:0:
141,9,91228,1,2,0:2:0:0:
141,9,91340,1,2,0:0:0:0:
141,9,91452,6,0,P|60:15|27:17,1,107.999996704102,0|2,3:2|0:2,0:0:0:0:
6,100,91788,1,2,0:2:0:0:
6,100,91900,2,0,P|87:94|120:92,1,107.999996704102,10|2,3:2|0:2,0:0:0:0:
220,267,92347,1,2,3:2:0:0:
125,216,92571,1,2,0:2:0:0:
125,216,92683,2,0,P|98:220|71:225,1,53.9999983520508,2|8,0:2|3:2,0:0:0:0:
22,342,92907,1,2,0:2:0:0:
22,342,93019,2,0,P|75:332|129:324,1,107.999996704102,2|0,0:2|3:2,0:0:0:0:
345,225,93467,5,2,0:2:0:0:
252,149,93691,1,10,3:2:0:0:
363,107,93914,1,2,0:2:0:0:
233,267,94138,5,2,3:2:0:0:
455,181,94362,1,2,3:2:0:0:
270,32,94586,1,10,3:2:0:0:
229,36,94698,1,2,0:0:0:0:
189,41,94810,1,2,0:0:0:0:
149,45,94922,1,2,0:0:0:0:
108,49,95034,6,0,P|102:93|128:116,1,67.5000025749208,2|0,3:2|0:0,0:0:0:0:
436,384,96153,6,0,P|452:330|463:297,1,67.5000025749208,2|0,3:2|0:0,0:0:0:0:
368,293,96601,2,0,P|359:325|349:358,1,67.5000025749208,2|0,3:2|0:0,0:0:0:0:
76,384,97944,6,0,P|60:330|49:297,1,67.5000025749208,2|0,3:2|0:0,0:0:0:0:
144,293,98392,2,0,P|153:325|163:358,1,67.5000025749208,2|0,3:2|0:0,0:0:0:0:
411,126,99511,6,0,P|365:145|341:155,1,67.5000025749208,2|0,3:2|0:0,0:0:0:0:
101,126,100183,6,0,P|147:145|171:155,1,67.5000025749208,2|0,3:2|0:0,0:0:0:0:
256,378,101079,6,0,L|256:310,1,67.5000025749208,2|0,3:2|0:0,0:0:0:0:
202,217,101526,1,2,0:2:0:0:
310,217,101750,2,0,L|321:196,4,16.8750006437302,2|2|2|2|2,0:2|0:0|0:0|0:0|0:0,0:0:0:0:
148,310,102198,5,6,3:2:0:0:
148,310,102422,2,0,P|88:305|40:304,1,90,2|0,0:2|3:2,0:0:0:0:
256,378,102870,2,0,P|300:376|345:372,1,90,2|0,0:2|3:2,0:0:0:0:
498,182,103317,5,2,0:2:0:0:
405,237,103541,1,10,3:2:0:0:
350,144,103765,2,0,P|355:93|359:48,1,90,2|0,0:2|3:2,0:0:0:0:
231,237,104213,5,2,0:2:0:0:
97,157,104437,1,2,3:2:0:0:
17,291,104661,2,0,P|24:364|29:429,1,90,2|0,0:2|3:2,0:0:0:0:
214,250,105109,5,2,0:2:0:0:
80,170,105332,1,10,3:2:0:0:
153,353,105556,2,0,P|197:348|242:344,1,90,2|0,0:2|3:2,0:0:0:0:
298,134,106004,5,2,0:2:0:0:
432,214,106227,1,2,3:2:0:0:
359,31,106451,2,0,P|314:35|269:39,1,90,2|0,0:2|3:2,0:0:0:0:
208,264,106900,5,2,0:2:0:0:
341,196,107124,1,10,3:2:0:0:
175,35,107348,2,0,L|215:116,1,90,2|0,3:2|0:0,0:0:0:0:
159,339,107795,2,0,L|210:261,1,90,10|0,3:2|0:0,0:0:0:0:
431,201,108243,2,0,L|337:196,1,90,10|0,3:2|0:0,0:0:0:0:
216,116,108691,1,2,3:2:0:0:
193,117,108803,1,2,0:0:0:0:
171,118,108914,1,2,3:2:0:0:
148,119,109026,1,2,0:0:0:0:
126,120,109138,1,2,0:2:0:0:
103,121,109250,1,2,0:0:0:0:
81,122,109362,6,0,P|35:116|-8:115,1,67.5000025749208,6|2,3:2|0:0,0:0:0:0:
142,245,109810,1,10,0:2:0:0:
239,115,110034,2,0,P|235:160|233:197,1,67.5000025749208,2|8,0:2|0:2,0:0:0:0:
329,323,110482,2,0,P|269:275|199:301,1,135.000005149842,2|2,0:0|0:0,0:0:0:0:
148,119,111153,5,8,3:2:0:0:
148,119,111377,2,0,P|132:59|125:33,2,67.5000025749208,2|10|2,0:0|0:0|0:0,0:0:0:0:
277,39,112049,2,0,P|370:54|395:104,1,135.000005149842,10|10,0:0|0:0,0:0:0:0:
349,255,112720,1,2,0:2:0:0:
349,255,112832,1,2,0:0:0:0:
349,255,112944,6,0,P|344:222|339:189,2,67.5000025749208,10|2|10,3:2|0:2|0:2,0:0:0:0:
483,326,113616,2,0,P|451:313|420:301,1,67.5000025749208,2|8,0:2|0:2,0:0:0:0:
292,382,114064,2,0,P|193:347|145:339,1,135.000005149842,2|2,0:0|0:0,0:0:0:0:
31,292,114735,5,10,3:2:0:0:
31,292,114847,1,2,0:0:0:0:
31,292,114959,2,0,P|85:299|118:302,1,67.5000025749208,2|8,0:0|0:0,0:0:0:0:
205,231,115407,2,0,P|218:166|181:112,1,135.000005149842,2|2,0:0|0:0,0:0:0:0:
70,174,116079,2,0,P|103:178|137:183,1,67.5000025749208,10|2,0:0|0:0,0:0:0:0:
256,333,116526,5,0,3:2:0:0:
355,262,116750,1,2,0:2:0:0:
355,262,116862,1,2,0:2:0:0:
355,262,116974,2,0,P|405:271|456:280,1,90,2|2,3:2|0:2,0:0:0:0:
495,208,117310,1,2,0:2:0:0:
495,208,117422,2,0,P|445:199|394:190,1,90,2|2,3:2|0:2,0:0:0:0:
256,307,117870,1,2,3:2:0:0:
171,80,118094,1,2,0:2:0:0:
326,139,118317,1,2,3:2:0:0:
157,262,118541,5,2,0:2:0:0:
157,262,118653,1,2,0:2:0:0:
157,262,118765,2,0,P|107:271|56:280,1,90,2|2,3:2|0:2,0:0:0:0:
17,208,119101,1,2,0:2:0:0:
17,208,119213,2,0,P|67:199|118:190,1,90,2|2,3:2|0:2,0:0:0:0:
256,307,119661,1,2,3:2:0:0:
341,80,119885,1,2,0:2:0:0:
186,139,120109,5,10,3:2:0:0:
186,139,120220,1,8,0:0:0:0:
186,139,120332,2,8,P|226:123|247:116,1,45,8|8,3:2|0:0,0:0:0:0:
269,8,120556,2,8,P|262:50|258:72,1,45,10|8,3:2|0:0,0:0:0:0:
340,145,120780,2,8,P|306:118|289:103,1,45,8|10,3:2|0:2,0:0:0:0:
132,27,121004,5,8,3:2:0:0:
87,28,121116,1,8,0:0:0:0:
48,49,121228,1,10,3:2:0:0:
23,86,121340,1,8,0:0:0:0:
18,130,121452,2,8,P|24:167|28:200,1,45,10|8,3:2|0:0,0:0:0:0:
110,326,121676,6,0,P|115:270|124:184,1,135,10|0,3:2|0:0,0:0:0:0:
186,139,122123,2,0,P|224:146|264:152,1,45,8|8,3:2|0:2,0:0:0:0:
313,233,122347,1,8,3:2:0:0:
313,233,122459,1,8,0:2:0:0:
313,233,122571,2,0,P|291:237|269:242,1,45,8|8,0:0|0:2,0:0:0:0:
412,121,122795,5,8,3:2:0:0:
408,107,122907,1,8,0:2:0:0:
405,93,123019,1,8,0:2:0:0:
401,79,123131,1,8,0:2:0:0:
398,66,123243,2,0,P|341:114|276:89,1,135,8|0,0:1|0:0,0:0:0:0:
238,28,123691,6,0,P|254:135|269:242,1,215.999993408203,6|10,3:2|3:2,0:0:0:0:
410,358,124362,2,0,P|365:318|302:318,1,107.999996704102,2|0,0:2|3:2,0:0:0:0:
149,378,124810,1,2,0:2:0:0:
149,378,124922,1,2,0:0:0:0:
149,378,125034,1,10,3:2:0:0:
31,173,125258,6,0,P|59:237|212:207,1,215.999993408203,2|2,0:2|0:2,0:0:0:0:
263,77,125929,1,10,3:2:0:0:
158,8,126153,2,0,P|168:81|175:142,1,107.999996704102,2|0,0:2|3:2,0:0:0:0:
289,231,126601,1,2,0:2:0:0:
370,37,126825,1,10,3:2:0:0:
370,37,126937,1,2,0:2:0:0:
370,37,127049,1,2,0:2:0:0:
479,142,127273,6,0,P|474:205|465:367,1,215.999993408203,2|10,3:2|3:2,0:0:0:0:
270,228,127944,2,0,P|331:239|396:249,1,107.999996704102,2|0,0:2|3:2,0:0:0:0:
202,374,128392,1,2,0:2:0:0:
202,374,128504,1,2,0:0:0:0:
202,374,128616,1,10,3:2:0:0:
130,250,128840,6,0,B|146:166|146:166|117:130|117:130|133:47,1,215.999993408203,2|0,0:2|0:0,0:0:0:0:
47,205,129511,1,8,3:2:0:0:
217,93,129735,1,2,0:2:0:0:
298,308,129959,1,0,3:2:0:0:
160,227,130183,1,2,0:2:0:0:
315,383,130407,1,10,3:2:0:0:
354,377,130519,1,2,0:0:0:0:
394,371,130631,1,2,0:2:0:0:
434,364,130743,1,2,0:0:0:0:
475,358,130855,6,0,P|491:288|390:200,1,215.999993408203,2|8,3:2|3:2,0:0:0:0:
215,300,131526,2,0,P|274:291|336:284,1,107.999996704102,2|0,0:2|3:2,0:0:0:0:
226,174,131974,1,2,0:2:0:0:
116,373,132198,1,10,3:2:0:0:
20,261,132422,6,0,P|73:255|127:247,1,107.999996704102,2|0,0:2|3:2,0:0:0:0:
245,157,132870,1,2,0:2:0:0:
85,69,133094,1,10,3:2:0:0:
173,6,133317,2,0,P|167:80|165:128,1,107.999996704102,2|0,0:2|3:2,0:0:0:0:
116,275,133765,1,2,0:2:0:0:
319,201,133989,1,10,3:2:0:0:
452,371,134213,1,2,0:2:0:0:
452,371,134325,1,2,0:2:0:0:
452,371,134437,6,0,B|468:287|468:287|439:251|439:251|455:168,1,215.999993408203,2|8,3:2|3:2,0:0:0:0:
313,11,135109,1,2,0:2:0:0:
313,11,135220,1,2,0:2:0:0:
313,11,135332,2,0,P|319:69|324:123,1,107.999996704102,2|2,3:2|0:2,0:0:0:0:
376,325,135780,1,10,3:2:0:0:
237,286,136004,6,0,P|130:303|23:318,1,215.999993408203,2|2,3:2|0:2,0:0:0:0:
141,381,136676,1,2,0:2:0:0:
117,221,136900,2,0,P|102:114|84:7,1,215.999993408203,2|2,0:2|0:2,0:0:0:0:
256,70,137571,1,10,0:2:0:0:
256,70,137683,1,2,0:2:0:0:
256,70,137795,1,10,0:2:0:0:
427,7,138019,6,0,P|409:114|395:221,1,215.999993408203,6|10,3:2|3:2,0:0:0:0:
463,371,138691,2,0,P|487:295|459:252,1,107.999996704102,2|0,0:2|3:2,0:0:0:0:
313,170,139138,1,2,0:2:0:0:
313,170,139250,1,2,0:0:0:0:
313,170,139362,1,10,3:2:0:0:
177,340,139586,6,0,P|284:326|392:318,1,215.999993408203,2|2,0:2|0:2,0:0:0:0:
223,185,140258,1,10,3:2:0:0:
331,63,140482,2,0,P|321:116|313:170,1,107.999996704102,2|0,0:2|3:2,0:0:0:0:
193,323,140929,1,2,0:2:0:0:
121,142,141153,1,10,3:2:0:0:
121,142,141265,1,2,0:2:0:0:
121,142,141377,1,2,0:2:0:0:
32,369,141601,6,0,B|15:285|15:285|44:249|44:249|28:166,1,215.999993408203,2|10,3:2|3:2,0:0:0:0:
154,37,142273,2,0,P|105:59|52:73,1,107.999996704102,2|0,0:2|3:2,0:0:0:0:
188,211,142720,1,2,0:2:0:0:
188,211,142832,1,2,0:0:0:0:
188,211,142944,1,10,3:2:0:0:
309,60,143168,6,0,P|299:142|284:290,1,215.999993408203,2|0,0:2|0:0,0:0:0:0:
465,380,143840,1,8,3:2:0:0:
378,257,144064,1,2,0:2:0:0:
239,382,144288,1,2,3:2:0:0:
297,173,144511,1,2,0:2:0:0:
88,228,144735,1,10,3:2:0:0:
40,203,144847,1,2,0:0:0:0:
15,156,144959,1,2,0:2:0:0:
20,103,145071,1,2,0:0:0:0:
53,62,145183,6,0,P|130:71|236:80,1,161.999995056153,2|0,3:2|3:2,0:0:0:0:
293,55,145631,1,12,3:2:0:0:
403,188,145855,1,2,0:2:0:0:
403,188,145967,1,2,0:2:0:0:
403,188,146079,2,0,P|350:179|297:173,1,107.999996704102,2|2,3:2|0:2,0:0:0:0:
126,304,146526,1,10,3:2:0:0:
224,383,146750,6,0,P|233:318|243:264,1,107.999996704102,2|0,0:2|3:2,0:0:0:0:
188,52,147198,1,2,0:2:0:0:
188,52,147310,1,2,0:2:0:0:
188,52,147422,1,10,3:2:0:0:
64,173,147646,2,0,P|117:163|170:154,1,107.999996704102,2|0,0:2|3:2,0:0:0:0:
318,47,148094,2,0,P|264:38|211:28,1,107.999996704102,2|10,0:2|3:2,0:0:0:0:
367,254,148541,6,0,P|385:186|399:141,1,107.999996704102,10|0,0:2|3:2,0:0:0:0:
418,77,148877,1,2,0:2:0:0:
418,77,148989,1,10,0:2:0:0:
256,202,149213,1,10,3:2:0:0:
94,77,149437,1,8,0:2:0:0:
94,77,149549,1,8,0:2:0:0:
94,77,149661,6,0,P|89:137|81:202,1,107.999996704102,10|0,3:2|0:0,0:0:0:0:
36,296,149997,2,0,P|90:270|150:244,1,107.999996704102,10|0,3:2|0:0,0:0:0:0:
250,234,150332,1,10,3:2:0:0:
250,234,151900,6,0,P|246:313|239:234,1,215.999993408203,8|2,0:1|0:0,0:0:0:0:
393,315,159511,6,0,P|399:348|405:381,1,67.5000025749208,6|2,3:2|0:2,0:0:0:0:
495,260,159959,2,0,P|488:226|482:193,1,67.5000025749208,2|0,3:2|0:0,0:0:0:0:
316,66,160407,1,2,3:2:0:0:
375,139,160631,1,2,0:2:0:0:
409,52,160855,1,2,3:2:0:0:
282,153,161079,6,0,P|230:147|127:138,1,135.000005149842,2|2,0:2|0:2,0:0:0:0:
40,240,161750,1,2,3:2:0:0:
40,240,161974,2,0,P|107:234|174:226,1,135.000005149842,2|0,0:2|0:2,0:0:0:0:
312,317,162646,1,0,3:2:0:0:
273,175,162870,1,2,0:0:0:0:
177,379,163094,6,0,P|186:346|186:313,1,67.5000025749208,2|2,3:2|0:2,0:0:0:0:
294,174,163541,2,0,P|284:206|285:240,1,67.5000025749208,2|0,3:2|0:0,0:0:0:0:
389,308,163989,1,2,3:2:0:0:
305,351,164213,1,2,0:2:0:0:
469,360,164437,1,2,3:2:0:0:
394,214,164661,6,0,P|399:171|416:63,1,135.000005149842,2|2,0:2|0:2,0:0:0:0:
290,6,165332,1,2,3:2:0:0:
290,6,165556,2,0,P|300:72|308:139,1,135.000005149842,2|0,0:2|0:2,0:0:0:0:
338,282,166228,1,0,3:2:0:0:
424,195,166452,1,2,0:0:0:0:
312,266,166676,6,0,P|279:271|246:276,1,67.5000025749208,2|2,3:2|0:2,0:0:0:0:
143,384,167123,2,0,P|155:352|168:321,1,67.5000025749208,2|0,3:2|0:0,0:0:0:0:
125,178,167571,1,2,3:2:0:0:
61,247,167795,1,2,0:2:0:0:
98,88,168019,1,2,3:2:0:0:
219,199,168243,6,0,P|252:193|390:188,1,135.000005149842,2|2,0:2|0:2,0:0:0:0:
450,298,168914,1,2,3:2:0:0:
450,298,169138,2,0,P|382:295|315:285,1,135.000005149842,2|0,0:2|0:2,0:0:0:0:
214,377,169810,2,0,P|202:334|198:288,1,67.5000025749208,2|2,3:2|0:2,0:0:0:0:
26,201,170258,6,0,P|104:254|162:223,1,135.000005149842,2|0,3:2|3:2,0:0:0:0:
227,153,170929,1,2,0:2:0:0:
227,153,171153,2,0,P|264:149|308:143,2,67.5000025749208,2|2|2,3:2|0:2|3:2,0:0:0:0:
99,7,171825,6,0,P|109:83|118:154,1,135.000005149842,2|2,3:2|3:2,0:0:0:0:
79,300,172497,1,2,3:2:0:0:
197,225,172720,1,2,0:2:0:0:
257,384,172944,2,0,P|207:379|169:377,1,67.5000025749208,0|2,3:2|0:2,0:0:0:0:
355,306,173392,1,8,3:2:0:0:
380,303,173504,1,8,0:0:0:0:
405,300,173616,1,10,0:2:0:0:
430,297,173728,1,8,0:0:0:0:
430,297,175631,6,0,P|434:263|440:230,1,67.5000025749208,2|0,3:2|0:0,0:0:0:0:
82,297,176750,6,0,P|77:263|71:230,1,67.5000025749208,2|0,3:2|0:0,0:0:0:0:
171,215,177198,2,0,P|175:248|181:281,1,67.5000025749208,2|0,3:2|0:0,0:0:0:0:
256,14,178094,6,0,L|256:151,1,135.000005149842,2|2,0:2|0:2,0:0:0:0:
256,235,178765,1,2,0:2:0:0:
256,235,178877,1,2,0:0:0:0:
256,235,178989,1,2,0:0:0:0:
143,80,179213,6,0,P|109:85|76:90,1,67.5000025749208,2|0,3:2|0:0,0:0:0:0:
369,80,180332,6,0,P|402:85|435:90,1,67.5000025749208,2|0,3:2|0:0,0:0:0:0:
420,189,180780,2,0,P|386:183|353:178,1,67.5000025749208,2|0,3:2|0:0,0:0:0:0:
256,370,181676,6,0,L|256:233,1,135.000005149842,2|2,0:2|0:2,0:0:0:0:
158,178,182347,1,2,0:2:0:0:
141,180,182459,1,2,0:2:0:0:
125,183,182571,1,2,0:2:0:0:
108,186,182683,1,2,0:2:0:0:
92,189,182795,6,0,P|59:245|108:317,1,135.000005149842,2|0,3:2|3:2,0:0:0:0:
228,377,183467,2,0,P|261:321|212:249,1,135.000005149842,2|2,0:2|0:2,0:0:0:0:
136,110,184138,1,2,3:2:0:0:
221,176,184362,6,0,P|292:169|368:163,1,135.000005149842,2|2,0:0|0:0,0:0:0:0:
444,115,185034,1,2,3:2:0:0:
374,7,185258,2,0,P|370:40|365:74,1,67.5000025749208,2|0,0:0|3:2,0:0:0:0:
433,204,185706,1,2,0:2:0:0:
275,307,185929,1,2,3:2:0:0:
363,367,186153,1,2,0:0:0:0:
363,367,186265,1,2,0:0:0:0:
363,367,186377,5,2,3:2:0:0:
413,201,186601,1,0,3:2:0:0:
275,307,186825,1,2,3:2:0:0:
448,303,187049,1,2,3:2:0:0:
305,204,187273,2,0,P|245:211|218:214,1,67.5000025749208,2|0,3:2|0:0,0:0:0:0:
169,139,187609,2,0,P|202:135|236:131,1,67.5000025749208,0|0,3:2|0:0,0:0:0:0:
311,73,187944,6,0,P|290:24|194:20,1,135,10|0,0:0|0:0,0:0:0:0:
127,9,188392,1,10,0:0:0:0:
127,9,188504,2,0,P|130:49|131:69,1,45,8|2,0:0|0:0,0:0:0:0:
17,154,188728,2,0,P|14:114|13:94,1,45,8|2,0:0|0:0,0:0:0:0:
130,227,188952,1,8,0:0:0:0:
130,227,189064,1,8,0:0:0:0:
42,290,189288,1,8,0:0:0:0:
140,334,189511,1,8,0:0:0:0:
294,221,189735,6,0,P|346:231|448:247,1,135,10|0,3:2|0:0,0:0:0:0:
487,185,190183,2,0,P|493:163|490:141,1,45,10|0,3:2|0:0,0:0:0:0:
352,31,190407,2,0,P|345:52|348:74,1,45,10|0,3:2|0:0,0:0:0:0:
348,74,190855,5,8,0:2:0:0:
335,79,190967,1,8,0:2:0:0:
322,83,191079,1,8,0:2:0:0:
309,87,191191,1,8,0:2:0:0:
296,91,191303,2,0,P|273:145|324:193,1,135,8|0,0:1|0:0,0:0:0:0:
406,226,191750,6,0,P|310:236|173:252,1,215.999993408203,6|10,3:2|3:2,0:0:0:0:
37,380,192422,2,0,P|48:318|56:254,1,107.999996704102,2|0,0:2|3:2,0:0:0:0:
16,51,192870,1,2,0:2:0:0:
16,51,192982,1,2,0:0:0:0:
16,51,193094,1,10,3:2:0:0:
155,137,193317,6,0,B|238:125|238:125|263:86|263:86|348:74,1,215.999993408203,2|2,0:2|0:2,0:0:0:0:
178,33,193989,1,10,3:2:0:0:
325,178,194213,1,2,0:2:0:0:
320,218,194325,1,2,0:0:0:0:
316,258,194437,1,2,3:2:0:0:
312,298,194549,1,2,0:0:0:0:
309,339,194661,1,2,0:2:0:0:
210,248,194885,1,10,3:2:0:0:
210,248,194997,1,2,0:2:0:0:
210,248,195109,1,2,0:2:0:0:
424,268,195332,6,0,P|455:211|403:66,1,215.999993408203,2|10,3:2|3:2,0:0:0:0:
262,7,196004,2,0,P|269:106|271:145,1,107.999996704102,2|0,0:2|3:2,0:0:0:0:
309,339,196452,1,2,0:2:0:0:
309,339,196564,1,2,0:0:0:0:
309,339,196676,1,10,3:2:0:0:
220,239,196900,6,0,P|123:253|-6:269,1,215.999993408203,2|0,0:2|0:0,0:0:0:0:
87,67,197571,1,8,3:2:0:0:
160,168,197795,1,2,0:2:0:0:
280,15,198019,1,2,3:2:0:0:
236,224,198243,1,2,0:2:0:0:
420,82,198467,1,10,3:2:0:0:
459,91,198579,1,2,0:0:0:0:
489,117,198691,1,2,0:2:0:0:
504,154,198803,1,2,0:0:0:0:
500,194,198914,6,0,P|493:275|488:365,1,161.999995056153,2|0,3:2|3:2,0:0:0:0:
411,384,199362,1,12,3:2:0:0:
320,299,199586,1,2,0:2:0:0:
320,299,199698,1,2,0:2:0:0:
320,299,199810,2,0,P|259:309|203:316,1,107.999996704102,2|2,3:2|0:2,0:0:0:0:
387,133,200258,1,10,3:2:0:0:
259,46,200482,6,0,P|271:131|277:184,1,107.999996704102,2|0,0:2|3:2,0:0:0:0:
197,345,200929,1,2,0:2:0:0:
197,345,201041,1,2,0:2:0:0:
197,345,201153,1,10,3:2:0:0:
75,213,201377,2,0,P|137:222|195:228,1,107.999996704102,2|0,0:2|3:2,0:0:0:0:
341,384,201825,2,0,P|317:325|294:272,1,107.999996704102,2|10,0:2|3:2,0:0:0:0:
355,66,202273,6,0,P|315:115|281:162,1,107.999996704102,10|0,0:2|3:2,0:0:0:0:
257,220,202609,1,2,3:2:0:0:
257,220,202720,1,10,3:2:0:0:
459,146,202944,1,10,3:2:0:0:
295,8,203168,1,8,3:2:0:0:
295,8,203280,1,8,0:2:0:0:
295,8,203392,6,0,P|231:15|166:22,1,107.999996704102,10|0,3:2|0:0,0:0:0:0:
70,95,203728,2,0,P|123:100|177:107,1,107.999996704102,10|0,3:2|0:0,0:0:0:0:
285,174,204064,1,10,3:2:0:0:
285,174,205631,6,0,P|292:115|264:170,1,161.999995056153,8|0,0:1|0:0,0:0:0:0:
313,207,206079,6,0,P|379:198|443:191,1,107.999996704102,6|2,3:2|0:2,0:0:0:0:
496,119,206414,1,2,0:2:0:0:
496,119,206526,2,0,P|442:112|388:105,1,107.999996704102,10|2,3:2|0:2,0:0:0:0:
183,224,206974,1,2,3:2:0:0:
103,120,207198,1,2,0:2:0:0:
103,120,207310,2,0,P|109:158|114:188,1,53.9999983520508,2|8,0:2|3:2,0:0:0:0:
255,274,207534,1,2,0:2:0:0:
255,274,207646,2,0,P|248:327|242:381,1,107.999996704102,2|0,0:2|3:2,0:0:0:0:
34,245,208094,5,2,0:2:0:0:
213,198,208317,1,10,3:2:0:0:
20,241,208541,1,2,0:2:0:0:
163,377,208765,2,0,P|241:362|353:349,1,161.999995056153,2|2,3:2|0:0,0:0:0:0:
373,339,209213,1,8,3:2:0:0:
226,236,209437,1,2,0:2:0:0:
226,236,209549,1,2,0:0:0:0:
226,236,209661,6,0,P|218:167|213:120,1,107.999996704102,0|2,3:2|0:2,0:0:0:0:
252,53,209997,1,2,0:2:0:0:
252,53,210109,2,0,P|315:52|348:111,1,107.999996704102,10|2,3:2|0:2,0:0:0:0:
490,287,210556,1,2,3:2:0:0:
396,371,210780,1,2,0:2:0:0:
396,371,210892,2,0,P|403:325|407:287,1,53.9999983520508,2|8,0:2|3:2,0:0:0:0:
459,201,211116,1,2,0:2:0:0:
459,201,211228,2,0,P|451:141|447:80,1,107.999996704102,2|0,0:2|3:2,0:0:0:0:
294,14,211676,5,2,0:2:0:0:
184,224,211900,1,10,3:2:0:0:
322,148,212123,1,2,0:2:0:0:
428,339,212347,2,0,P|366:281|270:341,1,161.999995056153,2|2,3:2|0:2,0:0:0:0:
225,350,212795,1,10,3:2:0:0:
184,345,212907,1,2,0:0:0:0:
144,340,213019,1,2,0:2:0:0:
104,336,213131,1,2,0:0:0:0:
63,332,213243,6,0,P|37:276|71:212,1,107.999996704102,2|2,3:2|0:2,0:0:0:0:
114,184,213579,1,2,0:2:0:0:
114,184,213691,2,0,L|233:202,1,107.999996704102,10|2,3:2|0:2,0:0:0:0:
388,79,214138,1,2,3:2:0:0:
292,32,214362,1,2,0:2:0:0:
292,32,214474,2,0,P|283:58|280:85,1,53.9999983520508,2|8,0:2|3:2,0:0:0:0:
469,150,214698,1,2,0:2:0:0:
469,150,214810,2,0,P|492:102|487:41,1,107.999996704102,2|0,0:2|3:2,0:0:0:0:
321,202,215258,5,2,0:2:0:0:
462,294,215482,1,10,3:2:0:0:
311,370,215706,1,2,0:2:0:0:
170,278,215929,2,0,P|177:203|189:103,1,161.999995056153,2|2,3:2|0:2,0:0:0:0:
199,72,216377,1,8,3:2:0:0:
28,22,216601,1,2,0:2:0:0:
28,22,216713,1,2,0:0:0:0:
28,22,216825,6,0,P|34:86|39:138,1,107.999996704102,0|2,3:2|0:2,0:0:0:0:
78,202,217161,1,2,0:2:0:0:
78,202,217273,2,0,P|72:266|67:318,1,107.999996704102,10|2,3:2|0:2,0:0:0:0:
258,180,217720,1,2,3:2:0:0:
187,116,217944,1,2,0:2:0:0:
187,116,218056,2,0,P|135:124|103:127,1,53.9999983520508,2|8,0:2|3:2,0:0:0:0:
329,244,218280,1,2,0:2:0:0:
329,244,218392,2,0,P|382:235|435:228,1,107.999996704102,2|0,0:2|3:2,0:0:0:0:
207,292,218840,5,2,0:2:0:0:
309,68,219064,1,10,3:2:0:0:
163,11,219288,1,2,0:2:0:0:
163,11,219400,1,2,0:0:0:0:
163,11,219511,2,0,P|67:26|28:30,1,107.999996704102,2|0,3:2|0:0,0:0:0:0:
8,130,219847,2,0,P|61:121|115:113,1,107.999996704102,2|0,3:2|0:0,0:0:0:0:
225,166,220183,6,0,B|248:266|156:308|156:308|255:284|297:377|297:377|274:279|365:236|365:236|267:260|225:166,1,647.99998022461,2|0,3:2|0:0,0:0:0:0:
