osu file format v14

[General]
AudioFilename: audio.mp3
AudioLeadIn: 0
PreviewTime: 56909
Countdown: 0
SampleSet: Normal
StackLeniency: 0.7
Mode: 3
LetterboxInBreaks: 0
SpecialStyle: 0
WidescreenStoryboard: 1

[Editor]
DistanceSpacing: 1
BeatDivisor: 4
GridSize: 4
TimelineZoom: 2.3

[Metadata]
Title:Anemone -TV Mix-
TitleUnicode:アネモネ -TV MIX-
Artist:ClariS
ArtistUnicode:ClariS
Creator:Nixo
Version:Easy
Source:クラスルーム☆クライシス
Tags:tv size ending ed classroom crisis
BeatmapID:997572
BeatmapSetID:463034

[Difficulty]
HPDrainRate:7.2
CircleSize:4
OverallDifficulty:6
ApproachRate:5
SliderMultiplier:1.4
SliderTickRate:1

[Events]
//Background and Video events
0,0,"Back but also Ground.jpg",0,0
//Break Periods
//Storyboard Layer 0 (Background)
//Storyboard Layer 1 (Fail)
//Storyboard Layer 2 (Pass)
//Storyboard Layer 3 (Foreground)
//Storyboard Sound Samples

[TimingPoints]
2105,428.571428571429,4,1,0,30,1,0
56962,-100,4,1,0,30,0,1
86105,-100,4,1,0,30,0,0

[HitObjects]
64,192,2105,5,0,2:2:0:0:
192,192,2319,1,0,2:2:0:0:
320,192,2533,1,0,2:2:0:0:
192,192,2747,1,0,2:2:0:0:
448,192,2962,1,0,2:2:0:0:
320,192,3283,1,0,2:2:0:0:
192,192,3605,1,0,2:2:0:0:
320,192,4462,1,0,2:2:0:0:
192,192,4676,1,0,2:2:0:0:
64,192,4997,1,0,2:2:0:0:
320,192,5319,1,0,2:2:0:0:
192,192,6176,1,0,2:2:0:0:
448,192,6390,1,0,2:2:0:0:
192,192,6712,1,0,2:2:0:0:
320,192,7033,1,0,2:2:0:0:
64,192,7247,1,0,2:2:0:0:
64,192,7569,1,0,2:2:0:0:
64,192,7890,1,0,2:2:0:0:
320,192,8105,1,0,2:2:0:0:
320,192,8426,1,0,2:2:0:0:
320,192,8747,1,0,2:2:0:0:
192,192,8962,128,8,10247:2:2:0:0:
64,192,10247,1,0,2:2:0:0:
192,192,10462,1,0,2:2:0:0:
320,192,10676,128,0,11533:2:2:0:0:
192,192,11533,128,0,12390:2:2:0:0:
448,192,12390,128,0,14105:2:2:0:0:
192,192,14105,1,0,2:2:0:0:
64,192,14319,128,0,14533:2:2:0:0:
192,192,14533,128,0,14747:2:2:0:0:
320,192,14747,128,0,14962:2:2:0:0:
448,192,14962,1,4,2:2:0:0:
64,192,14962,1,4,2:2:0:0:
192,192,15819,1,2,2:2:0:0:
192,192,16462,1,2,2:2:0:0:
64,192,17105,1,4,2:2:0:0:
448,192,17319,1,0,2:2:0:0:
320,192,17533,1,2,2:2:0:0:
320,192,18176,1,2,2:2:0:0:
192,192,18605,1,0,2:2:0:0:
320,192,18819,1,4,2:2:0:0:
64,192,19033,1,0,2:2:0:0:
192,192,19247,1,2,2:2:0:0:
192,192,19890,1,2,2:2:0:0:
320,192,20533,1,4,2:2:0:0:
448,192,20747,1,0,2:2:0:0:
64,192,20962,1,2,2:2:0:0:
64,192,21605,1,2,2:2:0:0:
448,192,22033,1,0,2:2:0:0:
192,192,22247,1,4,2:2:0:0:
448,192,22462,1,0,2:2:0:0:
320,192,22676,1,2,2:2:0:0:
320,192,23319,1,2,2:2:0:0:
192,192,23962,1,4,2:2:0:0:
448,192,24176,1,0,2:2:0:0:
64,192,24390,1,2,2:2:0:0:
64,192,25033,1,2,2:2:0:0:
192,192,25462,1,0,2:2:0:0:
448,192,25676,1,4,2:2:0:0:
320,192,25890,1,0,2:2:0:0:
192,192,26105,1,2,2:2:0:0:
192,192,26747,1,2,2:2:0:0:
192,192,27390,1,4,2:2:0:0:
320,192,27605,1,0,2:2:0:0:
448,192,27819,1,2,2:2:0:0:
64,192,29105,1,0,2:2:0:0:
192,192,29319,1,0,2:2:0:0:
448,192,29533,1,8,2:2:0:0:
320,192,29533,1,0,0:0:0:0:
192,192,29962,1,4,2:2:0:0:
64,192,30176,1,0,2:2:0:0:
448,192,30605,128,0,31033:2:2:0:0:
192,192,30819,1,0,2:2:0:0:
320,192,31033,1,0,2:2:0:0:
64,192,31247,1,8,2:2:0:0:
192,192,31247,1,0,0:0:0:0:
320,192,31676,1,4,2:2:0:0:
448,192,31890,1,0,2:2:0:0:
64,192,32319,1,0,2:2:0:0:
192,192,32533,1,0,2:2:0:0:
448,192,32747,1,0,2:2:0:0:
320,192,32962,128,8,33390:2:2:0:0:
192,192,32962,1,0,0:0:0:0:
64,192,33390,1,4,2:2:0:0:
320,192,33605,128,8,34033:2:2:0:0:
64,192,33819,1,0,2:2:0:0:
448,192,34033,1,0,2:2:0:0:
192,192,34247,1,8,2:2:0:0:
320,192,34462,1,0,2:2:0:0:
192,192,34676,128,8,35105:2:2:0:0:
64,192,34676,1,0,0:0:0:0:
448,192,35105,128,4,35533:2:2:0:0:
320,192,35533,128,8,35962:2:2:0:0:
192,192,35533,1,0,0:0:0:0:
192,192,35962,128,4,36390:2:2:0:0:
64,192,36390,128,8,36819:2:2:0:0:
448,192,36390,1,0,0:0:0:0:
320,192,36819,1,4,2:2:0:0:
192,192,37033,1,0,2:2:0:0:
448,192,37676,128,0,38105:2:2:0:0:
192,192,38105,128,8,38533:2:2:0:0:
64,192,38105,1,0,0:0:0:0:
320,192,38533,1,4,2:2:0:0:
448,192,38747,1,0,2:2:0:0:
192,192,39390,1,0,2:2:0:0:
320,192,39605,1,0,2:2:0:0:
448,192,39819,128,8,40247:2:2:0:0:
64,192,39819,1,0,0:0:0:0:
192,192,40247,1,4,2:2:0:0:
320,192,40462,1,8,2:2:0:0:
64,192,40676,128,0,41105:2:2:0:0:
320,192,41105,128,8,41533:2:2:0:0:
448,192,41533,128,8,42819:2:2:0:0:
64,192,41533,128,0,42819:0:0:0:0:
320,192,43247,128,0,43890:2:2:0:0:
64,192,43247,1,0,0:0:0:0:
192,192,43890,1,0,2:2:0:0:
192,192,44105,128,0,44533:2:2:0:0:
64,192,44962,128,0,45390:2:2:0:0:
320,192,45390,128,0,45819:2:2:0:0:
192,192,45819,128,0,46247:2:2:0:0:
320,192,46247,128,0,46676:2:2:0:0:
448,192,46676,128,0,49247:2:2:0:0:
64,192,49247,1,0,2:2:0:0:
64,192,49890,1,0,2:2:0:0:
64,192,50105,128,8,50533:2:2:0:0:
320,192,50533,128,8,50962:2:2:0:0:
192,192,50962,128,8,51390:2:2:0:0:
448,192,51390,128,8,51819:2:2:0:0:
64,192,51819,128,8,52247:2:2:0:0:
320,192,52247,128,8,52676:2:2:0:0:
448,192,52676,128,8,53105:2:2:0:0:
192,192,53105,128,8,53533:2:2:0:0:
320,192,53533,1,8,2:2:0:0:
448,192,53747,1,8,2:2:0:0:
192,192,53962,1,8,2:2:0:0:
320,192,54176,1,8,2:2:0:0:
64,192,54390,128,8,54819:2:2:0:0:
192,192,54605,128,8,54819:2:2:0:0:
448,192,54819,128,8,55247:2:2:0:0:
320,192,55033,128,8,55247:2:2:0:0:
64,192,55247,1,8,2:2:0:0:
192,192,55247,1,0,2:2:0:0:
192,192,55676,1,8,2:2:0:0:
320,192,55676,1,0,2:2:0:0:
320,192,56105,1,8,2:2:0:0:
448,192,56105,1,0,2:2:0:0:
64,192,56533,1,12,2:2:0:0:
448,192,56533,1,12,2:2:0:0:
64,192,56962,128,4,57390:2:2:0:0:
192,192,57390,1,4,2:2:0:0:
320,192,57390,1,8,2:2:0:0:
448,192,57605,1,0,2:2:0:0:
192,192,57819,128,4,58247:2:2:0:0:
320,192,58247,1,4,2:2:0:0:
448,192,58247,1,8,2:2:0:0:
64,192,58462,1,0,2:2:0:0:
448,192,58676,128,4,59105:2:2:0:0:
64,192,59105,1,4,2:2:0:0:
320,192,59105,1,8,2:2:0:0:
192,192,59533,128,4,59962:2:2:0:0:
448,192,59962,1,8,2:2:0:0:
320,192,59962,1,4,2:2:0:0:
64,192,60176,1,0,2:2:0:0:
320,192,60390,128,4,60819:2:2:0:0:
64,192,60819,1,4,2:2:0:0:
192,192,60819,1,8,2:2:0:0:
448,192,61033,1,0,2:2:0:0:
192,192,61247,128,4,61676:2:2:0:0:
64,192,61676,1,4,2:2:0:0:
320,192,61676,1,8,2:2:0:0:
192,192,61890,1,0,2:2:0:0:
448,192,62105,128,4,62533:2:2:0:0:
320,192,62533,128,8,62962:2:2:0:0:
192,192,62533,1,4,2:2:0:0:
64,192,62962,128,4,63390:2:2:0:0:
448,192,63390,1,8,2:2:0:0:
192,192,63390,128,4,63819:2:2:0:0:
448,192,63819,128,4,64247:2:2:0:0:
192,192,64247,1,4,2:2:0:0:
320,192,64247,1,8,2:2:0:0:
64,192,64676,128,4,65105:2:2:0:0:
192,192,65105,1,4,2:2:0:0:
448,192,65105,1,8,2:2:0:0:
320,192,65533,128,4,65962:2:2:0:0:
64,192,65962,1,4,2:2:0:0:
448,192,65962,1,8,2:2:0:0:
192,192,66390,128,4,66819:2:2:0:0:
320,192,66819,1,4,2:2:0:0:
448,192,66819,1,8,2:2:0:0:
192,192,67033,1,0,2:2:0:0:
64,192,67247,128,4,68105:2:2:0:0:
192,192,67676,128,4,68105:2:2:0:0:
320,192,67676,1,8,2:2:0:0:
448,192,67890,1,0,2:2:0:0:
320,192,68105,128,4,68962:2:2:0:0:
448,192,68533,128,12,68962:2:2:0:0:
64,192,68533,1,0,2:2:0:0:
192,192,68747,1,0,2:2:0:0:
64,192,68962,1,8,2:2:0:0:
320,192,69176,1,8,2:2:0:0:
192,192,69390,1,8,2:2:0:0:
448,192,69605,1,8,2:2:0:0:
64,192,70033,128,0,70676:2:2:0:0:
448,192,70033,1,4,2:2:0:0:
320,192,70676,128,4,71105:2:2:0:0:
64,192,71105,1,4,2:2:0:0:
192,192,71105,1,8,2:2:0:0:
448,192,71319,1,0,2:2:0:0:
192,192,71533,128,4,71962:2:2:0:0:
64,192,71962,1,4,2:2:0:0:
448,192,71962,1,8,2:2:0:0:
320,192,72176,1,0,2:2:0:0:
64,192,72390,128,4,72819:2:2:0:0:
320,192,72819,1,4,2:2:0:0:
448,192,72819,1,8,2:2:0:0:
192,192,73247,128,4,73676:2:2:0:0:
64,192,73676,1,4,2:2:0:0:
320,192,73676,1,8,2:2:0:0:
448,192,73890,1,0,2:2:0:0:
320,192,74105,128,4,74533:2:2:0:0:
64,192,74533,1,4,2:2:0:0:
192,192,74533,1,8,2:2:0:0:
448,192,74747,1,0,2:2:0:0:
320,192,74962,128,4,75390:2:2:0:0:
192,192,75390,1,4,2:2:0:0:
448,192,75390,1,8,2:2:0:0:
64,192,75605,1,0,2:2:0:0:
320,192,75819,1,8,2:2:0:0:
448,192,75819,1,0,2:2:0:0:
192,192,76247,1,8,2:2:0:0:
320,192,76247,1,0,2:2:0:0:
64,192,76676,1,8,2:2:0:0:
192,192,76676,1,0,2:2:0:0:
192,192,77105,1,8,2:2:0:0:
320,192,77105,1,0,2:2:0:0:
448,192,77533,128,4,77962:2:2:0:0:
64,192,77962,1,4,2:2:0:0:
320,192,77962,1,8,2:2:0:0:
192,192,78390,128,4,78819:2:2:0:0:
320,192,78819,1,4,2:2:0:0:
448,192,78819,1,8,2:2:0:0:
64,192,79247,128,4,79676:2:2:0:0:
192,192,79676,1,4,2:2:0:0:
448,192,79676,1,8,2:2:0:0:
320,192,80105,128,4,80533:2:2:0:0:
64,192,80533,1,4,2:2:0:0:
448,192,80533,1,8,2:2:0:0:
192,192,80747,1,0,2:2:0:0:
448,192,80962,128,4,81819:2:2:0:0:
64,192,81390,1,4,2:2:0:0:
192,192,81390,1,8,2:2:0:0:
320,192,81605,1,0,2:2:0:0:
64,192,81819,128,4,82676:2:2:0:0:
192,192,82247,1,4,2:2:0:0:
320,192,82247,1,8,2:2:0:0:
448,192,82462,1,0,2:2:0:0:
192,192,82676,1,8,2:2:0:0:
320,192,82890,1,8,2:2:0:0:
192,192,83105,1,8,2:2:0:0:
320,192,83319,1,8,2:2:0:0:
448,192,83747,1,8,2:2:0:0:
192,192,83962,1,8,2:2:0:0:
64,192,84176,128,4,86105:2:2:0:0:
