osu file format v14

[General]
AudioFilename: ED.mp3
AudioLeadIn: 0
PreviewTime: 56927
Countdown: 0
SampleSet: Soft
StackLeniency: 0.7
Mode: 3
LetterboxInBreaks: 0
SpecialStyle: 0
WidescreenStoryboard: 0

[Editor]
DistanceSpacing: 0.8
BeatDivisor: 8
GridSize: 32
TimelineZoom: 1.750003

[Metadata]
Title:Anemone -TV MIX-
TitleUnicode:アネモネ -TV MIX-
Artist:ClariS
ArtistUnicode:ClariS
Creator:richardfeder
Version:7K Insane
Source:クラスルーム☆クライシス
Tags:victorica_db Classroom Crisis ed ending tv size
BeatmapID:799473
BeatmapSetID:364159

[Difficulty]
HPDrainRate:8
CircleSize:7
OverallDifficulty:8
ApproachRate:5
SliderMultiplier:1.4
SliderTickRate:1

[Events]
//Background and Video events
0,0,"BG.jpg",0,0
//Break Periods
//Storyboard Layer 0 (Background)
//Storyboard Layer 1 (Fail)
//Storyboard Layer 2 (Pass)
//Storyboard Layer 3 (Foreground)
//Storyboard Sound Samples

[TimingPoints]
2070,428.571428571429,4,2,1,20,1,0
7212,-333.333333333333,4,2,1,20,0,0
7373,-58.8235294117647,4,2,1,20,0,0
7534,-333.333333333333,4,2,1,20,0,0
7694,-58.8235294117647,4,2,1,20,0,0
7855,-333.333333333333,4,2,1,20,0,0
7962,-58.8235294117647,4,2,1,20,0,0
8070,-333.333333333333,4,2,1,20,0,0
8230,-58.8235294117647,4,2,1,20,0,0
8391,-333.333333333333,4,2,1,20,0,0
8551,-58.8235294117647,4,2,1,20,0,0
8712,-333.333333333333,4,2,1,20,0,0
8820,-58.8235294117647,4,2,1,20,0,0
8927,-100,4,2,1,20,0,0
55212,-333.333333333333,4,2,1,20,0,0
55427,-58.8235294117647,4,2,1,20,0,0
55641,-333.333333333333,4,2,1,20,0,0
55855,-58.8235294117647,4,2,1,20,0,0
56070,-100,4,2,1,20,0,0
56927,-100,4,2,1,20,0,1
68927,-58.8235294117647,4,2,1,20,0,0
69034,-333.333333333333,4,2,1,20,0,0
69141,-58.8235294117647,4,2,1,20,0,0
69248,-333.333333333333,4,2,1,20,0,0
69355,-58.8235294117647,4,2,1,20,0,0
69462,-333.333333333333,4,2,1,20,0,0
69570,-200,4,2,1,20,0,0
69784,-66.6666666666667,4,2,1,20,0,0
69998,-100,4,2,1,20,0,0
70641,-100,4,2,1,20,0,1
75784,-333.333333333333,4,2,1,20,0,1
75998,-58.8235294117647,4,2,1,20,0,1
76212,-333.333333333333,4,2,1,20,0,1
76427,-58.8235294117647,4,2,1,20,0,1
76641,-333.333333333333,4,2,1,20,0,1
76855,-58.8235294117647,4,2,1,20,0,1
77070,-100,4,2,1,20,0,1
82641,-58.8235294117647,4,2,1,20,0,1
82748,-333.333333333333,4,2,1,20,0,1
82855,-58.8235294117647,4,2,1,20,0,1
82962,-333.333333333333,4,2,1,20,0,1
83070,-58.8235294117647,4,2,1,20,0,1
83177,-333.333333333333,4,2,1,20,0,1
83284,-333.333333333333,4,2,1,20,0,1
83498,-66.6666666666667,4,2,1,20,0,1
83712,-333.333333333333,4,2,1,20,0,1
83820,-58.8235294117647,4,2,1,20,0,1
83927,-333.333333333333,4,2,1,20,0,1
84034,-58.8235294117647,4,2,1,20,0,1
84141,-100,4,2,1,20,0,0

[HitObjects]
36,192,2070,5,0,0:0:0:50:kick.wav
256,192,2070,1,0,0:0:0:0:
329,192,2284,1,0,0:0:0:35:hihat.wav
182,192,2498,1,0,0:0:0:0:
402,192,2712,1,0,0:0:0:35:hihat.wav
256,192,2927,1,0,0:0:0:0:
329,192,3248,1,0,0:0:0:0:
36,192,3570,1,0,0:0:0:35:hihat.wav
402,192,3570,1,0,0:0:0:50:kick.wav
36,192,3784,1,0,0:0:0:50:kick.wav
182,192,3784,1,0,0:0:0:0:
256,192,3998,1,0,0:0:0:35:hihat.wav
329,192,4212,1,0,0:0:0:0:
36,192,4427,1,0,0:0:0:35:hihat.wav
475,192,4427,1,0,0:0:0:0:
109,192,4534,1,0,0:0:0:0:
182,192,4641,1,0,0:0:0:0:
402,192,4641,1,0,0:0:0:0:
109,192,4748,1,0,0:0:0:0:
329,192,4855,1,0,0:0:0:35:hihat.wav
36,192,4855,1,0,0:0:0:0:
109,192,4962,1,0,0:0:0:0:
182,192,5070,1,0,0:0:0:0:
402,192,5070,1,0,0:0:0:0:
256,192,5177,1,0,0:0:0:0:
36,192,5284,1,0,0:0:0:0:
329,192,5284,1,0,0:0:0:35:hihat.wav
182,192,5284,128,0,6141:0:0:0:0:
475,192,5391,1,0,0:0:0:0:
402,192,5498,1,0,0:0:0:50:kick.wav
36,192,5498,1,0,0:0:0:0:
329,192,5605,1,0,0:0:0:0:
402,192,5712,1,0,0:0:0:35:hihat.wav
475,192,5820,1,0,0:0:0:0:
329,192,5927,1,0,0:0:0:0:
402,192,6034,1,0,0:0:0:0:
475,192,6141,1,0,0:0:0:35:hihat.wav
256,192,6141,1,0,0:0:0:0:
329,192,6248,1,0,0:0:0:0:
109,192,6248,1,0,0:0:0:0:
402,192,6355,128,0,6998:0:0:0:50:kick.wav
182,192,6355,1,0,0:0:0:0:
36,192,6355,1,0,0:0:0:0:
256,192,6462,1,0,0:0:0:0:
109,192,6570,1,0,0:0:0:35:hihat.wav
182,192,6677,1,0,0:0:0:0:
36,192,6784,1,0,0:0:0:0:
109,192,6891,1,0,0:0:0:0:
182,192,6998,1,0,0:0:0:35:hihat.wav
256,192,7105,1,0,0:0:0:0:
109,192,7212,1,0,0:0:0:35:hihat.wav
329,192,7212,1,0,0:0:0:0:
475,192,7212,1,0,0:0:0:0:
475,192,7534,1,0,0:0:0:35:hihat.wav
329,192,7534,1,0,0:0:0:0:
109,192,7534,1,0,0:0:0:0:
109,192,7855,1,0,0:0:0:35:hihat.wav
329,192,7855,1,0,0:0:0:0:
475,192,7855,1,0,0:0:0:0:
36,192,8070,1,0,0:0:0:50:kick.wav
182,192,8070,1,0,0:0:0:0:
329,192,8070,1,0,0:0:0:0:
475,192,8070,1,0,0:0:0:0:
36,192,8391,1,0,0:0:0:50:kick.wav
182,192,8391,1,0,0:0:0:0:
329,192,8391,1,0,0:0:0:0:
475,192,8391,1,0,0:0:0:0:
36,192,8712,1,0,0:0:0:50:kick.wav
182,192,8712,1,0,0:0:0:0:
329,192,8712,1,0,0:0:0:0:
475,192,8712,1,0,0:0:0:0:
36,192,8927,1,0,0:0:0:60:cymbol.wav
475,192,8927,1,0,0:0:0:50:kick.wav
182,192,8927,128,0,10212:0:0:0:0:
256,192,8927,1,0,0:0:0:0:
329,192,8927,1,0,0:0:0:0:
402,192,9141,1,0,0:0:0:35:hihat.wav
36,192,9248,1,0,0:0:0:0:
475,192,9355,1,0,0:0:0:50:kick.wav
329,192,9355,1,0,0:0:0:0:
402,192,9570,1,0,0:0:0:35:hihat.wav
36,192,9570,1,0,0:0:0:0:
329,192,9784,1,0,0:0:0:50:kick.wav
475,192,9784,1,0,0:0:0:0:
36,192,9891,1,0,0:0:0:0:
402,192,9998,1,0,0:0:0:35:hihat.wav
329,192,10212,1,0,0:0:0:50:kick.wav
475,192,10212,1,0,0:0:0:0:
109,192,10212,128,0,10284:0:0:0:0:
182,192,10284,128,0,10355:0:0:0:0:
256,192,10355,128,0,10427:0:0:0:0:
36,192,10427,1,0,0:0:0:35:hihat.wav
182,192,10427,128,0,10498:0:0:0:0:
256,192,10498,128,0,10570:0:0:0:0:
329,192,10570,128,0,10641:0:0:0:0:
36,192,10641,1,0,0:0:0:0:
182,192,10641,1,0,0:0:0:0:
475,192,10641,1,0,0:0:0:50:kick.wav
402,192,10641,128,0,11498:0:0:0:0:
109,192,10855,1,0,0:0:0:35:hihat.wav
256,192,10962,1,0,0:0:0:0:
36,192,11070,1,0,0:0:0:50:kick.wav
475,192,11070,1,0,0:0:0:0:
109,192,11284,1,0,0:0:0:35:hihat.wav
475,192,11498,1,0,0:0:0:0:
36,192,11498,1,0,0:0:0:50:kick.wav
256,192,11498,128,0,12141:0:0:0:0:
182,192,11712,1,0,0:0:0:35:hihat.wav
36,192,11927,1,0,0:0:0:50:kick.wav
475,192,11927,1,0,0:0:0:0:
182,192,12034,1,0,0:0:0:0:
329,192,12141,1,0,0:0:0:35:hihat.wav
109,192,12141,128,0,12212:0:0:0:0:
182,192,12212,128,0,12284:0:0:0:0:
256,192,12284,128,0,12355:0:0:0:0:
475,192,12355,1,0,0:0:0:0:
36,192,12355,1,0,0:0:0:70:kick.wav
329,192,12355,128,0,14070:0:0:0:0:
402,192,12355,1,0,0:0:0:0:
256,192,12570,1,0,0:0:0:35:hihat.wav
475,192,12677,1,0,0:0:0:0:
182,192,12784,1,0,0:0:0:50:kick.wav
36,192,12784,1,0,0:0:0:0:
256,192,12998,1,0,0:0:0:35:hihat.wav
182,192,13212,1,0,0:0:0:50:kick.wav
36,192,13212,1,0,0:0:0:0:
256,192,13427,1,0,0:0:0:35:hihat.wav
182,192,13641,1,0,0:0:0:50:kick.wav
36,192,13641,1,0,0:0:0:0:
256,192,13855,1,0,0:0:0:35:hihat.wav
36,192,14070,1,0,0:0:0:50:kick.wav
475,192,14070,1,0,0:0:0:0:
182,192,14070,1,0,0:0:0:0:
402,192,14070,1,0,0:0:0:0:
109,192,14284,1,0,0:0:0:50:snaredrum.wav
329,192,14284,128,0,14391:0:0:0:0:
182,192,14391,1,0,0:0:0:50:snaredrum.wav
402,192,14391,128,0,14498:0:0:0:0:
36,192,14498,1,0,0:0:0:50:snaredrum.wav
256,192,14498,128,0,14605:0:0:0:0:
109,192,14605,1,0,0:0:0:50:snaredrum.wav
329,192,14605,128,0,14712:0:0:0:0:
182,192,14712,1,0,0:0:0:50:snaredrum.wav
402,192,14712,128,0,14820:0:0:0:0:
256,192,14820,1,0,0:0:0:50:snaredrum.wav
475,192,14820,128,0,14927:0:0:0:0:
329,192,14927,1,0,0:0:0:50:snaredrum.wav
36,192,14927,1,0,0:0:0:60:cymbol.wav
182,192,14927,1,0,0:0:0:0:
36,192,15784,1,0,0:0:0:60:cymbol.wav
475,192,15784,1,0,0:0:0:50:kick.wav
329,192,15784,128,0,16320:0:0:0:0:
182,192,15998,1,0,0:0:0:35:hihat.wav
402,192,15998,1,0,0:0:0:0:
256,192,16105,1,0,0:0:0:0:
36,192,16212,1,0,0:0:0:50:kick.wav
402,192,16320,1,0,0:0:0:0:
475,192,16427,1,0,0:0:0:0:
182,192,16427,1,0,0:0:0:35:hihat.wav
329,192,16427,128,0,16962:0:0:0:0:
36,192,16641,1,0,0:0:0:50:kick.wav
256,192,16748,1,0,0:0:0:0:
182,192,16855,1,0,0:0:0:35:hihat.wav
402,192,16855,1,0,0:0:0:0:
256,192,16962,1,0,0:0:0:0:
36,192,17070,1,0,0:0:0:0:
475,192,17070,1,0,0:0:0:50:kick.wav
329,192,17070,128,0,17498:0:0:0:0:
182,192,17284,1,0,0:0:0:35:hihat.wav
36,192,17498,1,0,0:0:0:50:kick.wav
475,192,17498,1,0,0:0:0:0:
182,192,17498,128,0,18034:0:0:0:0:
402,192,17712,1,0,0:0:0:35:hihat.wav
109,192,17712,1,0,0:0:0:0:
256,192,17820,1,0,0:0:0:0:
475,192,17927,1,0,0:0:0:50:kick.wav
329,192,18034,1,0,0:0:0:0:
36,192,18141,1,0,0:0:0:0:
182,192,18141,128,0,18677:0:0:0:0:
402,192,18141,1,0,0:0:0:70:hihat.wav
256,192,18248,1,0,0:0:0:0:
475,192,18355,1,0,0:0:0:50:kick.wav
109,192,18462,1,0,0:0:0:0:
329,192,18570,1,0,0:0:0:35:hihat.wav
256,192,18677,1,0,0:0:0:0:
475,192,18784,1,0,0:0:0:50:kick.wav
182,192,18784,128,0,19212:0:0:0:0:
329,192,18998,1,0,0:0:0:35:hihat.wav
109,192,18998,1,0,0:0:0:0:
36,192,19212,1,0,0:0:0:50:kick.wav
402,192,19212,128,0,19748:0:0:0:0:
109,192,19427,1,0,0:0:0:35:hihat.wav
256,192,19427,1,0,0:0:0:0:
182,192,19534,1,0,0:0:0:0:
36,192,19641,1,0,0:0:0:50:kick.wav
182,192,19748,1,0,0:0:0:0:
109,192,19855,1,0,0:0:0:0:
256,192,19855,1,0,0:0:0:35:hihat.wav
402,192,19855,128,0,20391:0:0:0:0:
36,192,20070,1,0,0:0:0:50:kick.wav
109,192,20284,1,0,0:0:0:35:hihat.wav
256,192,20284,1,0,0:0:0:0:
182,192,20391,1,0,0:0:0:0:
36,192,20498,1,0,0:0:0:50:kick.wav
402,192,20498,128,0,20927:0:0:0:0:
109,192,20712,1,0,0:0:0:35:hihat.wav
256,192,20712,1,0,0:0:0:0:
36,192,20927,1,0,0:0:0:50:kick.wav
182,192,20927,128,0,21462:0:0:0:0:
402,192,21141,1,0,0:0:0:35:hihat.wav
109,192,21141,1,0,0:0:0:0:
475,192,21248,1,0,0:0:0:0:
402,192,21355,1,0,0:0:0:50:kick.wav
36,192,21355,1,0,0:0:0:0:
329,192,21462,1,0,0:0:0:0:
475,192,21570,1,0,0:0:0:0:
109,192,21570,1,0,0:0:0:35:hihat.wav
182,192,21570,128,0,22105:0:0:0:0:
402,192,21677,1,0,0:0:0:0:
329,192,21784,1,0,0:0:0:50:kick.wav
36,192,21784,1,0,0:0:0:0:
402,192,21891,1,0,0:0:0:0:
329,192,21998,1,0,0:0:0:35:hihat.wav
109,192,21998,1,0,0:0:0:0:
402,192,22070,1,0,0:0:0:0:
475,192,22141,1,0,0:0:0:0:
402,192,22212,1,0,0:0:0:0:
36,192,22212,1,0,0:0:0:50:kick.wav
182,192,22212,128,0,22641:0:0:0:0:
329,192,22284,1,0,0:0:0:0:
402,192,22355,1,0,0:0:0:0:
475,192,22427,1,0,0:0:0:35:hihat.wav
109,192,22427,1,0,0:0:0:0:
402,192,22498,1,0,0:0:0:0:
329,192,22570,1,0,0:0:0:0:
256,192,22641,1,0,0:0:0:50:kick.wav
36,192,22641,128,0,23177:0:0:0:0:
402,192,22855,1,0,0:0:0:35:hihat.wav
182,192,22962,1,0,0:0:0:0:
256,192,23070,1,0,0:0:0:50:kick.wav
475,192,23177,1,0,0:0:0:0:
402,192,23284,1,0,0:0:0:35:hihat.wav
36,192,23284,128,0,23820:0:0:0:0:
256,192,23498,1,0,0:0:0:50:kick.wav
475,192,23605,1,0,0:0:0:0:
402,192,23712,1,0,0:0:0:35:hihat.wav
182,192,23712,1,0,0:0:0:0:
329,192,23820,1,0,0:0:0:0:
256,192,23927,1,0,0:0:0:50:kick.wav
36,192,23927,128,0,24355:0:0:0:0:
402,192,24141,1,0,0:0:0:35:hihat.wav
182,192,24141,1,0,0:0:0:0:
256,192,24355,1,0,0:0:0:50:kick.wav
475,192,24355,128,0,24891:0:0:0:0:
109,192,24570,1,0,0:0:0:35:hihat.wav
329,192,24570,1,0,0:0:0:0:
182,192,24677,1,0,0:0:0:0:
256,192,24784,1,0,0:0:0:50:kick.wav
36,192,24891,1,0,0:0:0:0:
109,192,24998,1,0,0:0:0:0:
329,192,24998,1,0,0:0:0:35:hihat.wav
475,192,24998,128,0,25534:0:0:0:0:
256,192,25212,1,0,0:0:0:50:kick.wav
36,192,25320,1,0,0:0:0:0:
109,192,25427,1,0,0:0:0:35:hihat.wav
329,192,25427,1,0,0:0:0:0:
182,192,25534,1,0,0:0:0:0:
256,192,25641,1,0,0:0:0:70:kick.wav
475,192,25641,128,0,26070:0:0:0:0:
109,192,25855,1,0,0:0:0:35:hihat.wav
329,192,25855,1,0,0:0:0:0:
36,192,26070,1,0,0:0:0:50:kick.wav
256,192,26070,128,0,26605:0:0:0:0:
475,192,26284,1,0,0:0:0:35:hihat.wav
109,192,26284,1,0,0:0:0:0:
329,192,26391,1,0,0:0:0:0:
36,192,26498,1,0,0:0:0:50:kick.wav
109,192,26605,1,0,0:0:0:0:
475,192,26712,1,0,0:0:0:0:
329,192,26712,1,0,0:0:0:35:hihat.wav
256,192,26712,128,0,27248:0:0:0:0:
109,192,26820,1,0,0:0:0:0:
36,192,26927,1,0,0:0:0:50:kick.wav
475,192,27141,1,0,0:0:0:35:hihat.wav
182,192,27141,1,0,0:0:0:0:
329,192,27248,1,0,0:0:0:0:
36,192,27355,1,0,0:0:0:50:kick.wav
256,192,27355,128,0,27784:0:0:0:0:
475,192,27570,1,0,0:0:0:35:hihat.wav
182,192,27570,1,0,0:0:0:0:
329,192,27677,1,0,0:0:0:0:
36,192,27784,1,0,0:0:0:0:
182,192,27784,128,0,29391:0:0:0:0:
256,192,28641,128,0,29391:0:0:0:0:
182,192,29498,1,0,0:0:0:60:cymbol.wav
256,192,29498,1,0,0:0:0:50:kick.wav
36,192,29498,1,0,0:0:0:0:
475,192,29498,1,0,0:0:0:0:
329,192,29712,1,0,0:0:0:35:hihat.wav
109,192,29712,1,0,0:0:0:0:
256,192,29820,1,0,0:0:0:0:
36,192,29927,1,0,0:0:0:50:snaredrum.wav
256,192,30034,1,0,0:0:0:0:
182,192,30141,1,0,0:0:0:35:hihat.wav
475,192,30141,1,0,0:0:0:0:
109,192,30141,1,0,0:0:0:0:
329,192,30141,1,0,0:0:0:0:
36,192,30355,1,0,0:0:0:50:kick.wav
402,192,30462,1,0,0:0:0:0:
109,192,30570,1,0,0:0:0:35:hihat.wav
256,192,30570,1,0,0:0:0:0:
402,192,30677,1,0,0:0:0:0:
36,192,30784,1,0,0:0:0:50:snaredrum.wav
475,192,30784,1,0,0:0:0:0:
182,192,30784,1,0,0:0:0:0:
329,192,30784,1,0,0:0:0:0:
109,192,30998,1,0,0:0:0:35:hihat.wav
256,192,30998,1,0,0:0:0:0:
36,192,31212,1,0,0:0:0:50:kick.wav
402,192,31212,1,0,0:0:0:0:
329,192,31212,1,0,0:0:0:0:
182,192,31212,1,0,0:0:0:0:
109,192,31427,1,0,0:0:0:35:hihat.wav
329,192,31427,1,0,0:0:0:0:
256,192,31534,1,0,0:0:0:0:
36,192,31641,1,0,0:0:0:50:snaredrum.wav
256,192,31748,1,0,0:0:0:0:
329,192,31855,1,0,0:0:0:35:hihat.wav
402,192,31855,1,0,0:0:0:0:
109,192,31855,1,0,0:0:0:0:
182,192,31855,1,0,0:0:0:0:
36,192,32070,1,0,0:0:0:50:kick.wav
256,192,32177,1,0,0:0:0:0:
109,192,32284,1,0,0:0:0:35:hihat.wav
475,192,32284,1,0,0:0:0:0:
329,192,32391,1,0,0:0:0:0:
36,192,32498,1,0,0:0:0:50:snaredrum.wav
256,192,32498,1,0,0:0:0:0:
182,192,32498,1,0,0:0:0:0:
402,192,32498,1,0,0:0:0:0:
109,192,32712,1,0,0:0:0:35:hihat.wav
329,192,32712,1,0,0:0:0:0:
36,192,32927,1,0,0:0:0:50:kick.wav
475,192,32927,1,0,0:0:0:0:
402,192,32927,1,0,0:0:0:0:
256,192,32927,1,0,0:0:0:0:
109,192,33141,1,0,0:0:0:35:hihat.wav
182,192,33141,1,0,0:0:0:0:
329,192,33248,1,0,0:0:0:0:
36,192,33355,1,0,0:0:0:50:snaredrum.wav
182,192,33462,1,0,0:0:0:0:
475,192,33570,1,0,0:0:0:35:hihat.wav
402,192,33570,1,0,0:0:0:0:
109,192,33570,1,0,0:0:0:0:
256,192,33570,1,0,0:0:0:0:
36,192,33784,1,0,0:0:0:50:kick.wav
182,192,33891,1,0,0:0:0:0:
109,192,33998,1,0,0:0:0:35:hihat.wav
329,192,33998,1,0,0:0:0:0:
182,192,34105,1,0,0:0:0:0:
36,192,34212,1,0,0:0:0:50:snaredrum.wav
402,192,34212,1,0,0:0:0:0:
475,192,34212,1,0,0:0:0:0:
256,192,34212,1,0,0:0:0:0:
182,192,34320,1,0,0:0:0:0:
109,192,34427,1,0,0:0:0:35:hihat.wav
329,192,34427,1,0,0:0:0:0:
36,192,34641,1,0,0:0:0:50:kick.wav
329,192,34641,1,0,0:0:0:0:
475,192,34641,1,0,0:0:0:0:
182,192,34641,1,0,0:0:0:0:
109,192,34855,1,0,0:0:0:35:hihat.wav
36,192,35070,1,0,0:0:0:0:
182,192,35070,1,0,0:0:0:50:snaredrum.wav
475,192,35070,128,0,35498:0:0:0:0:
109,192,35284,1,0,0:0:0:35:hihat.wav
36,192,35498,1,0,0:0:0:0:
182,192,35498,1,0,0:0:0:50:kick.wav
329,192,35498,128,0,35927:0:0:0:0:
109,192,35712,1,0,0:0:0:35:hihat.wav
475,192,35927,1,0,0:0:0:0:
36,192,35927,1,0,0:0:0:50:snaredrum.wav
182,192,35927,128,0,36355:0:0:0:0:
402,192,36141,1,0,0:0:0:35:hihat.wav
475,192,36355,1,0,0:0:0:50:kick.wav
36,192,36355,1,0,0:0:0:0:
329,192,36355,1,0,0:0:0:0:
256,192,36355,1,0,0:0:0:0:
402,192,36570,1,0,0:0:0:35:hihat.wav
109,192,36570,1,0,0:0:0:0:
256,192,36677,1,0,0:0:0:0:
475,192,36784,1,0,0:0:0:50:snaredrum.wav
329,192,36784,1,0,0:0:0:0:
109,192,36891,1,0,0:0:0:0:
402,192,36998,1,0,0:0:0:35:hihat.wav
256,192,36998,1,0,0:0:0:0:
475,192,37212,1,0,0:0:0:50:kick.wav
256,192,37320,1,0,0:0:0:0:
402,192,37427,1,0,0:0:0:35:hihat.wav
109,192,37427,1,0,0:0:0:0:
256,192,37534,1,0,0:0:0:0:
475,192,37641,1,0,0:0:0:50:snaredrum.wav
329,192,37641,1,0,0:0:0:0:
36,192,37641,1,0,0:0:0:0:
402,192,37855,1,0,0:0:0:35:hihat.wav
182,192,37855,1,0,0:0:0:0:
475,192,38070,1,0,0:0:0:50:kick.wav
329,192,38070,1,0,0:0:0:0:
256,192,38070,1,0,0:0:0:0:
36,192,38070,1,0,0:0:0:0:
402,192,38284,1,0,0:0:0:35:hihat.wav
109,192,38284,1,0,0:0:0:0:
256,192,38391,1,0,0:0:0:0:
475,192,38498,1,0,0:0:0:50:snaredrum.wav
182,192,38498,1,0,0:0:0:0:
329,192,38605,1,0,0:0:0:0:
402,192,38712,1,0,0:0:0:35:hihat.wav
109,192,38712,1,0,0:0:0:0:
36,192,38712,1,0,0:0:0:0:
256,192,38712,1,0,0:0:0:0:
475,192,38927,1,0,0:0:0:50:kick.wav
256,192,39034,1,0,0:0:0:0:
402,192,39141,1,0,0:0:0:35:hihat.wav
109,192,39141,1,0,0:0:0:0:
256,192,39248,1,0,0:0:0:0:
475,192,39355,1,0,0:0:0:50:snaredrum.wav
36,192,39355,1,0,0:0:0:0:
402,192,39570,1,0,0:0:0:35:hihat.wav
109,192,39570,1,0,0:0:0:0:
475,192,39784,1,0,0:0:0:50:kick.wav
36,192,39784,1,0,0:0:0:0:
329,192,39784,1,0,0:0:0:0:
256,192,39784,1,0,0:0:0:0:
402,192,39998,1,0,0:0:0:35:hihat.wav
182,192,39998,1,0,0:0:0:0:
256,192,40105,1,0,0:0:0:0:
475,192,40212,1,0,0:0:0:50:snaredrum.wav
182,192,40320,1,0,0:0:0:0:
402,192,40427,1,0,0:0:0:35:hihat.wav
256,192,40427,1,0,0:0:0:0:
36,192,40427,1,0,0:0:0:0:
329,192,40427,1,0,0:0:0:0:
475,192,40641,1,0,0:0:0:50:kick.wav
109,192,40641,1,0,0:0:0:0:
256,192,40748,1,0,0:0:0:0:
182,192,40855,1,0,0:0:0:35:hihat.wav
402,192,40855,1,0,0:0:0:0:
256,192,40962,1,0,0:0:0:0:
475,192,41070,1,0,0:0:0:50:snaredrum.wav
36,192,41070,1,0,0:0:0:0:
182,192,41070,1,0,0:0:0:0:
329,192,41070,1,0,0:0:0:0:
402,192,41284,1,0,0:0:0:35:hihat.wav
109,192,41284,1,0,0:0:0:0:
475,192,41498,1,0,0:0:0:50:kick.wav
36,192,41498,1,0,0:0:0:0:
256,192,41498,1,0,0:0:0:0:
182,192,41498,1,0,0:0:0:0:
329,192,41712,1,0,0:0:0:35:hihat.wav
256,192,41927,128,0,42034:0:0:0:50:snaredrum.wav
475,192,41927,1,0,0:0:0:0:
109,192,42034,128,0,42141:0:0:0:0:
182,192,42141,128,0,42248:0:0:0:35:hihat.wav
329,192,42141,1,0,0:0:0:0:
36,192,42248,128,0,42355:0:0:0:0:
256,192,42355,128,0,42462:0:0:0:50:kick.wav
475,192,42355,1,0,0:0:0:0:
109,192,42462,128,0,42570:0:0:0:0:
329,192,42570,128,0,42677:0:0:0:35:hihat.wav
402,192,42570,1,0,0:0:0:0:
182,192,42677,128,0,42784:0:0:0:0:
475,192,42784,128,0,42891:0:0:0:50:snaredrum.wav
36,192,42784,1,0,0:0:0:0:
402,192,42891,128,0,42998:0:0:0:0:
329,192,42998,128,0,43105:0:0:0:35:hihat.wav
109,192,42998,1,0,0:0:0:0:
256,192,43105,128,0,43212:0:0:0:0:
475,192,43212,1,0,0:0:0:60:cymbol.wav
36,192,43212,1,0,0:0:0:50:kick.wav
109,192,44284,1,0,0:0:0:0:
329,192,44284,1,0,0:0:0:0:
256,192,44784,1,0,0:0:0:0:
402,192,44855,1,0,0:0:0:0:
475,192,44927,1,0,0:0:0:0:
109,192,45570,1,0,0:0:0:0:
36,192,45623,1,0,0:0:0:0:
182,192,45677,1,0,0:0:0:0:
256,192,45730,1,0,0:0:0:0:
329,192,45784,1,0,0:0:0:0:
475,192,45784,1,0,0:0:0:0:
182,192,46498,1,0,0:0:0:0:
329,192,46570,1,0,0:0:0:0:
109,192,46641,1,0,0:0:0:0:
475,192,46641,1,0,0:0:0:0:
182,192,48141,1,0,0:0:0:0:
402,192,48355,1,0,0:0:0:0:
182,192,48784,1,0,0:0:0:25:clap.wav
475,192,49212,128,0,49284:0:0:0:60:cymbol.wav
182,192,49284,128,0,49355:0:0:0:0:
402,192,49355,128,0,49427:0:0:0:0:
109,192,49427,128,0,49498:0:0:0:0:
329,192,49498,128,0,49570:0:0:0:0:
36,192,49570,128,0,49641:0:0:0:0:
475,192,49641,128,0,49712:0:0:0:0:
182,192,49712,128,0,49784:0:0:0:0:
402,192,49784,128,0,49855:0:0:0:0:
109,192,49855,128,0,49927:0:0:0:0:
329,192,49927,128,0,49998:0:0:0:0:
36,192,49998,128,0,50070:0:0:0:0:
182,192,50070,1,0,0:0:0:60:cymbol.wav
475,192,50070,1,0,0:0:0:45:clap.wav
329,192,50177,1,0,0:0:0:50:kick.wav
109,192,50284,1,0,0:0:0:50:kick.wav
256,192,50391,1,0,0:0:0:50:kick.wav
36,192,50498,1,0,0:0:0:45:clap.wav
182,192,50498,1,0,0:0:0:50:kick.wav
475,192,50498,1,0,0:0:0:0:
329,192,50605,1,0,0:0:0:50:kick.wav
109,192,50712,1,0,0:0:0:50:kick.wav
256,192,50820,1,0,0:0:0:50:kick.wav
329,192,50927,1,0,0:0:0:45:clap.wav
475,192,50927,1,0,0:0:0:50:kick.wav
36,192,50927,1,0,0:0:0:0:
182,192,51034,1,0,0:0:0:50:kick.wav
402,192,51141,1,0,0:0:0:50:kick.wav
256,192,51248,1,0,0:0:0:50:kick.wav
329,192,51355,1,0,0:0:0:45:clap.wav
475,192,51355,1,0,0:0:0:50:kick.wav
36,192,51355,1,0,0:0:0:0:
182,192,51462,1,0,0:0:0:50:kick.wav
402,192,51570,1,0,0:0:0:50:kick.wav
256,192,51677,1,0,0:0:0:50:kick.wav
36,192,51784,1,0,0:0:0:45:clap.wav
182,192,51784,1,0,0:0:0:50:kick.wav
475,192,51784,1,0,0:0:0:0:
256,192,51891,1,0,0:0:0:50:kick.wav
109,192,51998,1,0,0:0:0:50:kick.wav
329,192,52105,1,0,0:0:0:50:kick.wav
36,192,52212,1,0,0:0:0:45:clap.wav
475,192,52212,1,0,0:0:0:50:kick.wav
182,192,52212,1,0,0:0:0:0:
256,192,52320,1,0,0:0:0:50:kick.wav
109,192,52427,1,0,0:0:0:50:kick.wav
329,192,52534,1,0,0:0:0:50:kick.wav
475,192,52641,1,0,0:0:0:45:clap.wav
36,192,52641,1,0,0:0:0:50:kick.wav
182,192,52641,1,0,0:0:0:0:
256,192,52748,1,0,0:0:0:50:kick.wav
402,192,52855,1,0,0:0:0:50:kick.wav
329,192,52962,1,0,0:0:0:50:kick.wav
475,192,53070,1,0,0:0:0:45:clap.wav
36,192,53070,1,0,0:0:0:50:kick.wav
182,192,53070,1,0,0:0:0:0:
256,192,53177,1,0,0:0:0:50:kick.wav
402,192,53284,1,0,0:0:0:50:kick.wav
329,192,53391,1,0,0:0:0:50:kick.wav
182,192,53498,1,0,0:0:0:45:clap.wav
36,192,53498,1,0,0:0:0:50:kick.wav
475,192,53498,1,0,0:0:0:0:
256,192,53605,1,0,0:0:0:50:kick.wav
329,192,53712,1,0,0:0:0:45:clap.wav
475,192,53712,1,0,0:0:0:50:kick.wav
36,192,53712,1,0,0:0:0:0:
256,192,53820,1,0,0:0:0:50:kick.wav
475,192,53927,1,0,0:0:0:45:clap.wav
182,192,53927,1,0,0:0:0:50:kick.wav
402,192,54034,1,0,0:0:0:50:kick.wav
109,192,54034,1,0,0:0:0:0:
329,192,54141,1,0,0:0:0:45:clap.wav
36,192,54141,1,0,0:0:0:50:kick.wav
402,192,54248,1,0,0:0:0:50:kick.wav
109,192,54248,1,0,0:0:0:0:
475,192,54355,1,0,0:0:0:45:clap.wav
182,192,54355,1,0,0:0:0:50:kick.wav
402,192,54462,1,0,0:0:0:45:clap.wav
109,192,54462,1,0,0:0:0:50:kick.wav
329,192,54570,1,0,0:0:0:45:clap.wav
36,192,54570,1,0,0:0:0:50:kick.wav
256,192,54677,1,0,0:0:0:45:clap.wav
475,192,54677,1,0,0:0:0:50:kick.wav
182,192,54784,1,0,0:0:0:45:clap.wav
402,192,54784,1,0,0:0:0:50:kick.wav
36,192,54891,1,0,0:0:0:45:clap.wav
256,192,54891,1,0,0:0:0:50:kick.wav
109,192,54998,1,0,0:0:0:45:clap.wav
402,192,54998,1,0,0:0:0:50:kick.wav
182,192,55105,1,0,0:0:0:45:clap.wav
329,192,55105,1,0,0:0:0:50:kick.wav
256,192,55212,1,0,0:0:0:60:cymbol.wav
36,192,55212,1,0,0:0:0:45:clap.wav
475,192,55212,1,0,0:0:0:50:kick.wav
109,192,55641,1,0,0:0:0:60:cymbol.wav
256,192,55641,1,0,0:0:0:50:kick.wav
402,192,55641,1,0,0:0:0:0:
36,192,56070,128,0,56391:0:0:0:60:cymbol.wav
182,192,56070,128,0,56391:0:0:0:50:kick.wav
329,192,56070,128,0,56391:0:0:0:0:
475,192,56070,128,0,56391:0:0:0:0:
36,192,56498,1,0,0:0:0:60:cymbol.wav
182,192,56498,1,0,0:0:0:50:kick.wav
329,192,56498,1,0,0:0:0:45:clap.wav
475,192,56498,1,0,0:0:0:0:
36,192,56927,1,0,0:0:0:60:cymbol.wav
475,192,56927,1,0,0:0:0:50:kick.wav
256,192,56927,128,0,58641:0:0:0:0:
329,192,57034,1,0,0:0:0:0:
109,192,57141,1,0,0:0:0:35:hihat.wav
402,192,57141,1,0,0:0:0:0:
182,192,57248,1,0,0:0:0:0:
475,192,57355,1,0,0:0:0:50:snaredrum.wav
329,192,57355,1,0,0:0:0:0:
36,192,57355,1,0,0:0:0:0:
182,192,57462,1,0,0:0:0:0:
402,192,57570,1,0,0:0:0:35:hihat.wav
109,192,57570,1,0,0:0:0:0:
329,192,57677,1,0,0:0:0:0:
36,192,57784,1,0,0:0:0:50:kick.wav
475,192,57784,1,0,0:0:0:0:
182,192,57891,1,0,0:0:0:0:
402,192,57998,1,0,0:0:0:35:hihat.wav
109,192,57998,1,0,0:0:0:0:
329,192,58105,1,0,0:0:0:0:
36,192,58212,1,0,0:0:0:50:snaredrum.wav
182,192,58212,1,0,0:0:0:0:
475,192,58212,1,0,0:0:0:0:
329,192,58320,1,0,0:0:0:0:
109,192,58427,1,0,0:0:0:35:hihat.wav
402,192,58534,1,0,0:0:0:0:
475,192,58641,1,0,0:0:0:0:
36,192,58641,1,0,0:0:0:50:kick.wav
109,192,58641,128,0,60355:0:0:0:0:
402,192,58748,1,0,0:0:0:0:
329,192,58855,1,0,0:0:0:35:hihat.wav
182,192,58855,1,0,0:0:0:0:
402,192,58962,1,0,0:0:0:0:
256,192,59070,1,0,0:0:0:50:snaredrum.wav
36,192,59070,1,0,0:0:0:0:
475,192,59070,1,0,0:0:0:0:
402,192,59177,1,0,0:0:0:0:
182,192,59284,1,0,0:0:0:35:hihat.wav
329,192,59284,1,0,0:0:0:0:
256,192,59391,1,0,0:0:0:0:
475,192,59498,1,0,0:0:0:50:kick.wav
36,192,59498,1,0,0:0:0:0:
402,192,59605,1,0,0:0:0:0:
329,192,59712,1,0,0:0:0:35:hihat.wav
182,192,59712,1,0,0:0:0:0:
256,192,59820,1,0,0:0:0:0:
36,192,59927,1,0,0:0:0:50:snaredrum.wav
329,192,59927,1,0,0:0:0:0:
475,192,59927,1,0,0:0:0:0:
256,192,60034,1,0,0:0:0:0:
182,192,60141,1,0,0:0:0:35:hihat.wav
402,192,60141,1,0,0:0:0:0:
256,192,60248,1,0,0:0:0:0:
36,192,60355,1,0,0:0:0:0:
475,192,60355,1,0,0:0:0:50:kick.wav
329,192,60355,128,0,62070:0:0:0:0:
182,192,60462,1,0,0:0:0:0:
109,192,60570,1,0,0:0:0:35:hihat.wav
402,192,60570,1,0,0:0:0:0:
256,192,60677,1,0,0:0:0:0:
36,192,60784,1,0,0:0:0:50:snaredrum.wav
182,192,60784,1,0,0:0:0:0:
475,192,60784,1,0,0:0:0:0:
109,192,60891,1,0,0:0:0:0:
402,192,60998,1,0,0:0:0:35:hihat.wav
256,192,60998,1,0,0:0:0:0:
182,192,61105,1,0,0:0:0:0:
475,192,61212,1,0,0:0:0:50:kick.wav
36,192,61212,1,0,0:0:0:0:
109,192,61320,1,0,0:0:0:0:
182,192,61427,1,0,0:0:0:35:hihat.wav
402,192,61427,1,0,0:0:0:0:
256,192,61534,1,0,0:0:0:0:
182,192,61641,1,0,0:0:0:50:snaredrum.wav
475,192,61641,1,0,0:0:0:0:
36,192,61641,1,0,0:0:0:0:
109,192,61748,1,0,0:0:0:0:
256,192,61855,1,0,0:0:0:35:hihat.wav
402,192,61855,1,0,0:0:0:0:
109,192,61962,1,0,0:0:0:0:
36,192,62070,1,0,0:0:0:0:
182,192,62070,1,0,0:0:0:50:kick.wav
475,192,62070,128,0,62498:0:0:0:0:
256,192,62177,1,0,0:0:0:0:
109,192,62284,1,0,0:0:0:35:hihat.wav
329,192,62284,1,0,0:0:0:0:
182,192,62391,1,0,0:0:0:0:
36,192,62498,1,0,0:0:0:0:
256,192,62498,1,0,0:0:0:0:
402,192,62498,1,0,0:0:0:50:snaredrum.wav
329,192,62498,128,0,62927:0:0:0:0:
182,192,62605,1,0,0:0:0:0:
109,192,62712,1,0,0:0:0:35:hihat.wav
475,192,62712,1,0,0:0:0:0:
402,192,62820,1,0,0:0:0:0:
475,192,62927,1,0,0:0:0:0:
36,192,62927,1,0,0:0:0:50:kick.wav
182,192,62927,128,0,63355:0:0:0:0:
256,192,63034,1,0,0:0:0:0:
475,192,63141,1,0,0:0:0:35:hihat.wav
329,192,63141,1,0,0:0:0:0:
402,192,63248,1,0,0:0:0:0:
475,192,63355,1,0,0:0:0:0:
329,192,63355,1,0,0:0:0:0:
109,192,63355,1,0,0:0:0:50:snaredrum.wav
36,192,63355,128,0,63784:0:0:0:0:
256,192,63462,1,0,0:0:0:0:
182,192,63570,1,0,0:0:0:35:hihat.wav
402,192,63570,1,0,0:0:0:0:
329,192,63677,1,0,0:0:0:0:
109,192,63784,1,0,0:0:0:0:
475,192,63784,1,0,0:0:0:50:kick.wav
256,192,63784,128,0,65498:0:0:0:0:
182,192,63891,1,0,0:0:0:0:
402,192,63998,1,0,0:0:0:35:hihat.wav
36,192,63998,1,0,0:0:0:0:
182,192,64105,1,0,0:0:0:0:
329,192,64212,1,0,0:0:0:50:snaredrum.wav
475,192,64212,1,0,0:0:0:0:
109,192,64212,1,0,0:0:0:0:
402,192,64320,1,0,0:0:0:0:
182,192,64427,1,0,0:0:0:35:hihat.wav
36,192,64427,1,0,0:0:0:0:
402,192,64534,1,0,0:0:0:0:
475,192,64641,1,0,0:0:0:50:kick.wav
109,192,64641,1,0,0:0:0:0:
329,192,64748,1,0,0:0:0:0:
402,192,64855,1,0,0:0:0:35:hihat.wav
36,192,64855,1,0,0:0:0:0:
182,192,64962,1,0,0:0:0:0:
329,192,65070,1,0,0:0:0:50:snaredrum.wav
475,192,65070,1,0,0:0:0:0:
109,192,65070,1,0,0:0:0:0:
402,192,65177,1,0,0:0:0:0:
182,192,65284,1,0,0:0:0:35:hihat.wav
36,192,65284,1,0,0:0:0:0:
329,192,65391,1,0,0:0:0:0:
109,192,65498,1,0,0:0:0:0:
402,192,65498,1,0,0:0:0:50:kick.wav
475,192,65498,128,0,67212:0:0:0:0:
329,192,65605,1,0,0:0:0:0:
256,192,65712,1,0,0:0:0:35:hihat.wav
36,192,65712,1,0,0:0:0:0:
182,192,65820,1,0,0:0:0:0:
402,192,65927,1,0,0:0:0:50:snaredrum.wav
256,192,65927,1,0,0:0:0:0:
109,192,65927,1,0,0:0:0:0:
182,192,66034,1,0,0:0:0:0:
329,192,66141,1,0,0:0:0:35:hihat.wav
36,192,66141,1,0,0:0:0:0:
182,192,66248,1,0,0:0:0:0:
402,192,66355,1,0,0:0:0:50:kick.wav
109,192,66355,1,0,0:0:0:0:
182,192,66462,1,0,0:0:0:0:
256,192,66570,1,0,0:0:0:35:hihat.wav
36,192,66570,1,0,0:0:0:0:
182,192,66677,1,0,0:0:0:0:
109,192,66784,1,0,0:0:0:50:snaredrum.wav
256,192,66784,1,0,0:0:0:0:
402,192,66784,1,0,0:0:0:0:
329,192,66891,1,0,0:0:0:0:
182,192,66998,1,0,0:0:0:35:hihat.wav
36,192,66998,1,0,0:0:0:0:
109,192,67105,1,0,0:0:0:0:
36,192,67212,1,0,0:0:0:0:
182,192,67212,1,0,0:0:0:50:kick.wav
329,192,67212,128,0,68498:0:0:0:0:
256,192,67320,1,0,0:0:0:0:
109,192,67427,1,0,0:0:0:35:hihat.wav
402,192,67427,1,0,0:0:0:0:
182,192,67534,1,0,0:0:0:0:
36,192,67641,1,0,0:0:0:50:snaredrum.wav
256,192,67641,1,0,0:0:0:0:
475,192,67641,1,0,0:0:0:0:
182,192,67748,1,0,0:0:0:0:
109,192,67855,1,0,0:0:0:35:hihat.wav
402,192,67855,1,0,0:0:0:0:
182,192,67962,1,0,0:0:0:0:
36,192,68070,1,0,0:0:0:0:
475,192,68070,1,0,0:0:0:50:kick.wav
256,192,68070,128,0,68712:0:0:0:0:
109,192,68177,1,0,0:0:0:0:
402,192,68284,1,0,0:0:0:35:hihat.wav
109,192,68391,1,0,0:0:0:0:
36,192,68498,1,0,0:0:0:50:snaredrum.wav
475,192,68498,1,0,0:0:0:0:
182,192,68498,1,0,0:0:0:0:
402,192,68712,1,0,0:0:0:35:hihat.wav
329,192,68784,1,0,0:0:0:0:
256,192,68855,1,0,0:0:0:0:
36,192,68927,1,0,0:0:0:60:cymbol.wav
182,192,68927,1,0,0:0:0:50:kick.wav
329,192,68927,1,0,0:0:0:0:
475,192,68927,1,0,0:0:0:0:
182,192,69141,1,0,0:0:0:60:cymbol.wav
109,192,69141,1,0,0:0:0:50:kick.wav
329,192,69141,1,0,0:0:0:0:
402,192,69141,1,0,0:0:0:0:
36,192,69355,1,0,0:0:0:60:cymbol.wav
109,192,69355,1,0,0:0:0:50:kick.wav
402,192,69355,1,0,0:0:0:0:
475,192,69355,1,0,0:0:0:0:
182,192,69570,1,0,0:0:0:60:cymbol.wav
109,192,69570,1,0,0:0:0:50:kick.wav
329,192,69570,1,0,0:0:0:0:
402,192,69570,1,0,0:0:0:0:
36,192,69998,128,0,70320:0:0:0:60:cymbol.wav
182,192,69998,128,0,70320:0:0:0:45:clap.wav
329,192,69998,128,0,70320:0:0:0:50:kick.wav
475,192,69998,128,0,70320:0:0:0:0:
109,192,70427,1,0,0:0:0:50:kick.wav
182,192,70498,1,0,0:0:0:50:kick.wav
256,192,70570,1,0,0:0:0:50:kick.wav
475,192,70641,1,0,0:0:0:50:kick.wav
36,192,70641,1,0,0:0:0:0:
329,192,70641,1,0,0:0:0:60:cymbol.wav
402,192,70641,128,0,72355:0:0:0:0:
109,192,70748,1,0,0:0:0:0:
182,192,70855,1,0,0:0:0:35:hihat.wav
329,192,70855,1,0,0:0:0:0:
109,192,70962,1,0,0:0:0:0:
475,192,71070,1,0,0:0:0:50:snaredrum.wav
256,192,71070,1,0,0:0:0:0:
36,192,71070,1,0,0:0:0:0:
109,192,71177,1,0,0:0:0:0:
182,192,71284,1,0,0:0:0:35:hihat.wav
329,192,71284,1,0,0:0:0:0:
256,192,71391,1,0,0:0:0:0:
475,192,71498,1,0,0:0:0:50:kick.wav
36,192,71498,1,0,0:0:0:0:
109,192,71605,1,0,0:0:0:0:
329,192,71712,1,0,0:0:0:35:hihat.wav
182,192,71712,1,0,0:0:0:0:
256,192,71820,1,0,0:0:0:0:
182,192,71927,1,0,0:0:0:50:snaredrum.wav
36,192,71927,1,0,0:0:0:0:
475,192,71927,1,0,0:0:0:0:
256,192,72034,1,0,0:0:0:0:
109,192,72141,1,0,0:0:0:35:hihat.wav
329,192,72141,1,0,0:0:0:0:
256,192,72248,1,0,0:0:0:0:
475,192,72355,1,0,0:0:0:0:
36,192,72355,1,0,0:0:0:50:kick.wav
182,192,72355,128,0,74070:0:0:0:0:
329,192,72462,1,0,0:0:0:0:
109,192,72570,1,0,0:0:0:35:hihat.wav
402,192,72570,1,0,0:0:0:0:
256,192,72677,1,0,0:0:0:0:
475,192,72784,1,0,0:0:0:50:snaredrum.wav
329,192,72784,1,0,0:0:0:0:
36,192,72784,1,0,0:0:0:0:
402,192,72891,1,0,0:0:0:0:
256,192,72998,1,0,0:0:0:35:hihat.wav
109,192,72998,1,0,0:0:0:0:
329,192,73105,1,0,0:0:0:0:
475,192,73212,1,0,0:0:0:50:kick.wav
36,192,73212,1,0,0:0:0:0:
402,192,73320,1,0,0:0:0:0:
109,192,73427,1,0,0:0:0:35:hihat.wav
329,192,73427,1,0,0:0:0:0:
256,192,73534,1,0,0:0:0:0:
36,192,73641,1,0,0:0:0:50:snaredrum.wav
475,192,73641,1,0,0:0:0:0:
329,192,73641,1,0,0:0:0:0:
402,192,73748,1,0,0:0:0:0:
329,192,73855,1,0,0:0:0:35:hihat.wav
109,192,73855,1,0,0:0:0:0:
402,192,73962,1,0,0:0:0:0:
36,192,74070,1,0,0:0:0:50:kick.wav
256,192,74070,128,0,75784:0:0:0:0:
475,192,74070,1,0,0:0:0:0:
329,192,74177,1,0,0:0:0:0:
402,192,74284,1,0,0:0:0:35:hihat.wav
109,192,74284,1,0,0:0:0:0:
182,192,74391,1,0,0:0:0:0:
36,192,74498,1,0,0:0:0:50:snaredrum.wav
329,192,74498,1,0,0:0:0:0:
475,192,74498,1,0,0:0:0:0:
182,192,74605,1,0,0:0:0:0:
109,192,74712,1,0,0:0:0:35:hihat.wav
402,192,74712,1,0,0:0:0:0:
329,192,74820,1,0,0:0:0:0:
475,192,74927,1,0,0:0:0:50:kick.wav
36,192,74927,1,0,0:0:0:0:
182,192,75034,1,0,0:0:0:0:
402,192,75141,1,0,0:0:0:35:hihat.wav
109,192,75141,1,0,0:0:0:0:
329,192,75248,1,0,0:0:0:0:
36,192,75355,1,0,0:0:0:50:snaredrum.wav
182,192,75355,1,0,0:0:0:0:
475,192,75355,1,0,0:0:0:0:
329,192,75462,1,0,0:0:0:0:
109,192,75570,1,0,0:0:0:35:hihat.wav
329,192,75641,1,0,0:0:0:0:
182,192,75712,1,0,0:0:0:0:
36,192,75784,1,0,0:0:0:60:cymbol.wav
109,192,75784,1,0,0:0:0:50:kick.wav
402,192,75784,1,0,0:0:0:0:
475,192,75784,1,0,0:0:0:0:
182,192,76212,1,0,0:0:0:60:cymbol.wav
329,192,76212,1,0,0:0:0:50:kick.wav
109,192,76212,1,0,0:0:0:0:
402,192,76212,1,0,0:0:0:0:
36,192,76641,1,0,0:0:0:60:cymbol.wav
475,192,76641,1,0,0:0:0:50:kick.wav
109,192,76641,1,0,0:0:0:0:
402,192,76641,1,0,0:0:0:0:
109,192,77070,1,0,0:0:0:60:cymbol.wav
182,192,77070,1,0,0:0:0:45:clap.wav
329,192,77070,1,0,0:0:0:50:kick.wav
402,192,77070,1,0,0:0:0:0:
475,192,77498,1,0,0:0:0:50:kick.wav
36,192,77498,1,0,0:0:0:60:cymbol.wav
256,192,77498,128,0,79212:0:0:0:0:
182,192,77605,1,0,0:0:0:0:
36,192,77712,1,0,0:0:0:35:hihat.wav
402,192,77712,1,0,0:0:0:0:
182,192,77820,1,0,0:0:0:0:
109,192,77927,1,0,0:0:0:50:snaredrum.wav
475,192,77927,1,0,0:0:0:0:
329,192,77927,1,0,0:0:0:0:
402,192,78034,1,0,0:0:0:0:
182,192,78141,1,0,0:0:0:35:hihat.wav
36,192,78141,1,0,0:0:0:0:
402,192,78248,1,0,0:0:0:0:
475,192,78355,1,0,0:0:0:50:kick.wav
109,192,78355,1,0,0:0:0:0:
329,192,78462,1,0,0:0:0:0:
36,192,78570,1,0,0:0:0:35:hihat.wav
402,192,78570,1,0,0:0:0:0:
182,192,78677,1,0,0:0:0:0:
475,192,78784,1,0,0:0:0:50:snaredrum.wav
109,192,78784,1,0,0:0:0:0:
329,192,78784,1,0,0:0:0:0:
402,192,78891,1,0,0:0:0:0:
182,192,78998,1,0,0:0:0:35:hihat.wav
36,192,78998,1,0,0:0:0:0:
329,192,79105,1,0,0:0:0:0:
109,192,79212,1,0,0:0:0:0:
402,192,79212,1,0,0:0:0:50:kick.wav
475,192,79212,128,0,80927:0:0:0:0:
329,192,79320,1,0,0:0:0:0:
256,192,79427,1,0,0:0:0:35:hihat.wav
36,192,79427,1,0,0:0:0:0:
182,192,79534,1,0,0:0:0:0:
256,192,79641,1,0,0:0:0:50:snaredrum.wav
109,192,79641,1,0,0:0:0:0:
402,192,79641,1,0,0:0:0:0:
182,192,79748,1,0,0:0:0:0:
329,192,79855,1,0,0:0:0:35:hihat.wav
36,192,79855,1,0,0:0:0:0:
182,192,79962,1,0,0:0:0:0:
402,192,80070,1,0,0:0:0:50:kick.wav
109,192,80070,1,0,0:0:0:0:
182,192,80177,1,0,0:0:0:0:
256,192,80284,1,0,0:0:0:35:hihat.wav
36,192,80284,1,0,0:0:0:0:
182,192,80391,1,0,0:0:0:0:
109,192,80498,1,0,0:0:0:50:snaredrum.wav
402,192,80498,1,0,0:0:0:0:
256,192,80498,1,0,0:0:0:0:
329,192,80605,1,0,0:0:0:0:
182,192,80712,1,0,0:0:0:35:hihat.wav
36,192,80712,1,0,0:0:0:0:
256,192,80820,1,0,0:0:0:0:
109,192,80927,1,0,0:0:0:50:kick.wav
402,192,80927,1,0,0:0:0:0:
256,192,81034,1,0,0:0:0:0:
182,192,81141,1,0,0:0:0:50:kick.wav
36,192,81141,1,0,0:0:0:0:
329,192,81248,1,0,0:0:0:0:
256,192,81355,1,0,0:0:0:50:kick.wav
475,192,81355,1,0,0:0:0:0:
109,192,81355,1,0,0:0:0:0:
329,192,81462,1,0,0:0:0:0:
182,192,81570,1,0,0:0:0:50:kick.wav
402,192,81570,1,0,0:0:0:0:
256,192,81677,1,0,0:0:0:0:
36,192,81784,1,0,0:0:0:50:kick.wav
475,192,81784,1,0,0:0:0:0:
402,192,81891,1,0,0:0:0:50:kick.wav
109,192,81891,1,0,0:0:0:0:
182,192,81998,1,0,0:0:0:50:kick.wav
329,192,81998,1,0,0:0:0:0:
109,192,82105,1,0,0:0:0:50:kick.wav
402,192,82105,1,0,0:0:0:0:
36,192,82212,1,0,0:0:0:50:kick.wav
475,192,82212,1,0,0:0:0:0:
256,192,82212,1,0,0:0:0:0:
182,192,82320,1,0,0:0:0:50:kick.wav
329,192,82320,1,0,0:0:0:0:
109,192,82427,1,0,0:0:0:50:kick.wav
402,192,82427,1,0,0:0:0:0:
36,192,82534,1,0,0:0:0:50:kick.wav
475,192,82534,1,0,0:0:0:0:
109,192,82641,1,0,0:0:0:60:cymbol.wav
182,192,82641,1,0,0:0:0:50:kick.wav
402,192,82641,1,0,0:0:0:0:
329,192,82641,1,0,0:0:0:0:
36,192,82855,1,0,0:0:0:60:cymbol.wav
109,192,82855,1,0,0:0:0:50:kick.wav
402,192,82855,1,0,0:0:0:0:
475,192,82855,1,0,0:0:0:0:
182,192,83070,1,0,0:0:0:60:cymbol.wav
109,192,83070,1,0,0:0:0:50:kick.wav
329,192,83070,1,0,0:0:0:0:
402,192,83070,1,0,0:0:0:0:
109,192,83284,1,0,0:0:0:60:cymbol.wav
36,192,83284,1,0,0:0:0:50:kick.wav
402,192,83284,1,0,0:0:0:0:
475,192,83284,1,0,0:0:0:0:
182,192,83712,1,0,0:0:0:50:kick.wav
36,192,83712,1,0,0:0:0:0:
329,192,83712,1,0,0:0:0:0:
475,192,83712,1,0,0:0:0:0:
402,192,83927,1,0,0:0:0:50:kick.wav
256,192,83927,1,0,0:0:0:0:
109,192,83927,1,0,0:0:0:0:
36,192,84141,128,0,86070:0:0:0:60:cymbol.wav
182,192,84141,128,0,86070:0:0:0:45:clap.wav
329,192,84141,128,0,86070:0:0:0:50:kick.wav
475,192,84141,128,0,86070:0:0:0:0:
