osu file format v14

[General]
AudioFilename: audio.mp3
AudioLeadIn: 0
PreviewTime: 56558
Countdown: 0
SampleSet: Soft
StackLeniency: 0.7
Mode: 0
LetterboxInBreaks: 0
WidescreenStoryboard: 1

[Editor]
Bookmarks: 15522,29236,42950,56665,70379,72736
DistanceSpacing: 0.8
BeatDivisor: 4
GridSize: 8
TimelineZoom: 1.3

[Metadata]
Title:Anemone -TV MIX-
TitleUnicode:アネモネ -TV MIX-
Artist:ClariS
ArtistUnicode:ClariS
Creator:_IxApplePie_
Version:Normal
Source:Classroom☆Crisis
Tags:Classroom Crisis ending tv size ed クラスルーム☆クライシス
BeatmapID:1023253
BeatmapSetID:479175

[Difficulty]
HPDrainRate:4
CircleSize:3.5
OverallDifficulty:5
ApproachRate:5
SliderMultiplier:1.4
SliderTickRate:1

[Events]
//Background and Video events
0,0,"CC 1.2.jpg",0,0
Video,0,"video.avi"
//Break Periods
//Storyboard Layer 0 (Background)
//Storyboard Layer 1 (Fail)
//Storyboard Layer 2 (Pass)
//Storyboard Layer 3 (Foreground)
//Storyboard Sound Samples

[TimingPoints]
1808,428.571428571429,4,2,1,30,1,0
6950,-100,4,2,1,40,0,0
8665,-100,4,2,1,45,0,0
15522,-100,4,2,1,55,0,0
27522,-100,4,2,1,45,0,0
29236,-100,4,2,1,55,0,0
42950,-133.333333333333,4,2,1,40,0,0
49808,-133.333333333333,4,2,1,55,0,0
51522,-133.333333333333,4,2,1,60,0,0
54950,-133.333333333333,4,2,1,65,0,0
56558,-133.333333333333,4,2,1,45,0,0
56665,-100,4,2,1,65,0,1
68665,-100,4,2,1,70,0,0
70379,-100,4,2,1,65,0,1
82379,-100,4,2,1,70,0,0

[Colours]
Combo1 : 125,125,250
Combo2 : 250,100,100
Combo3 : 109,226,239

[HitObjects]
0,38,1808,6,0,L|10:194,1,140
120,164,2665,2,0,P|170:151|231:173,2,105,0|2|2,0:0|0:0|0:0,0:0:0:0:
105,218,3522,6,0,L|110:312,1,70,0|2,0:0|0:0,0:0:0:0:
200,352,4165,1,2,0:0:0:0:
200,352,4379,2,0,P|254:355|301:343,1,70,0|2,0:0|0:0,0:0:0:0:
310,314,4808,2,0,P|344:310|379:314,1,70
426,285,5236,5,0,0:0:0:0:
346,205,5665,2,0,L|186:197,1,140,0|2,0:0|0:0,0:0:0:0:
267,101,6522,2,0,L|365:106,1,70,0|2,0:0|0:0,0:0:0:0:
392,109,6950,1,2,0:0:0:0:
456,163,7272,6,0,P|452:222|469:263,1,105,2|2,0:0|0:0,0:0:0:0:
508,294,7808,1,0,0:0:0:0:
468,361,8129,2,0,L|346:362,1,105,2|2,0:0|0:0,0:0:0:0:
327,329,8665,6,0,P|275:271|194:285,1,140,4|0,0:0|0:0,0:0:0:0:
174,308,9308,2,0,P|108:329|49:217,1,210,2|0,0:0|0:0,0:0:0:0:
104,129,10379,2,0,B|160:89|160:89|257:90,1,140,4|0,0:0|0:0,0:0:0:0:
277,121,11022,1,0,0:0:0:0:
277,121,11236,2,0,P|257:191|291:262,1,140,2|0,0:0|0:0,0:0:0:0:
371,184,12093,6,0,P|390:109|303:8,2,210,4|2|0,0:0|0:0|0:0,0:0:0:0:
304,275,13808,1,4,0:0:0:0:
200,320,14236,1,0,0:0:0:0:
105,259,14665,1,2,0:0:0:0:
256,72,15522,5,4,0:0:0:0:
256,72,15736,2,0,P|333:54|391:85,1,140,0|2,0:0|0:0,0:0:0:0:
435,179,16593,2,0,L|436:266,1,70,0|8,0:0|0:0,0:0:0:0:
404,295,17022,1,0,0:0:0:0:
404,295,17236,2,0,P|336:321|253:282,1,140,2|8,0:0|0:0,0:0:0:0:
234,262,17879,2,0,P|170:220|70:300,1,210,0|8,0:0|0:0,0:0:0:0:
16,190,18950,6,0,P|33:140|-5:60,1,140,2|8,0:0|0:0,0:0:0:0:
25,15,19593,2,0,L|169:15,1,140,2|2,0:0|0:0,0:0:0:0:
218,112,20450,1,2,0:0:0:0:
328,129,20879,2,0,L|409:129,2,70,2|8|2,0:0|0:0|0:0,0:0:0:0:
304,180,21522,2,0,B|299:235|299:235|309:258|309:258|302:332,1,140,4|8,0:0|0:0,0:0:0:0:
208,371,22379,6,0,P|182:343|181:297,1,70,4|0,0:0|0:0,0:0:0:0:
164,257,22808,2,0,P|90:235|28:267,2,140,8|0|8,0:0|0:0|0:0,0:0:0:0:
267,214,24093,2,0,P|294:167|292:132,1,70,2|0,0:0|0:0,0:0:0:0:
260,108,24522,2,0,L|414:98,2,140,8|0|8,0:0|0:0|0:0,0:0:0:0:
164,54,25808,6,0,B|93:22|28:80|28:80|28:14,2,210,2|2|8,0:0|0:0|0:0,0:0:0:0:
112,153,27522,2,0,P|79:237|153:329,2,210,4|2|8,0:0|0:0|0:0,0:0:0:0:
213,104,29236,5,0,0:0:0:0:
213,104,29450,2,0,L|356:104,1,140,0|2,0:0|0:0,0:0:0:0:
343,215,30308,2,0,P|322:260|333:300,1,70,0|8,0:0|0:0,0:0:0:0:
364,317,30736,1,0,0:0:0:0:
364,317,30950,2,0,L|224:317,1,140,2|8,0:0|0:0,0:0:0:0:
178,283,31593,2,0,B|154:251|154:251|154:123|154:123|130:83,1,210,0|8,0:0|0:0,0:0:0:0:
43,155,32665,6,0,L|41:302,1,140,2|8,0:0|0:0,0:0:0:0:
90,322,33308,2,0,P|167:300|228:324,1,140,2|2,0:0|0:0,0:0:0:0:
319,264,34165,1,2,0:0:0:0:
319,264,34379,2,0,P|385:251|414:170,1,140,2|8,0:0|0:0,0:0:0:0:
353,97,35236,2,0,P|287:110|258:191,1,140,2|8,0:0|0:0,0:0:0:0:
274,281,36093,6,0,P|283:317|270:373,2,70,2|0|8,0:0|0:0|0:0,0:0:0:0:
219,266,36736,2,0,B|153:320|59:282|59:282|110:256,1,210,2|8,0:0|0:0,0:0:0:0:
115,153,37808,2,0,P|66:155|32:171,2,70,2|0|8,0:0|0:0|0:0,0:0:0:0:
160,185,38450,2,0,B|211:212|262:179|260:112|260:112|313:134,1,210,2|8,0:0|0:0,0:0:0:0:
403,68,39522,6,0,B|287:20|287:20|186:20,1,210,2|0,0:0|0:0,0:0:0:0:
146,20,40379,1,2,0:0:0:0:
107,125,40808,1,8,0:0:0:0:
3,111,41236,1,4,0:0:0:0:
3,111,41665,2,0,L|11:260,1,140,8|2,0:0|0:0,0:0:0:0:
43,296,42308,2,0,P|83:305|132:288,1,70,2|8,0:0|0:0,0:0:0:0:
169,239,42950,6,0,B|220:223|266:266|266:266|316:223|364:247,2,210.000008010865,4|2|2,0:0|0:0|0:0,0:0:0:0:
88,213,45093,1,0,0:0:0:0:
88,213,45522,2,0,P|81:142|97:94,1,105.000004005432,2|0,0:0|0:0,0:0:0:0:
148,50,46379,6,0,B|200:67|251:49|251:49|306:72|369:51,1,210.000008010865,2|2,0:0|0:0,0:0:0:0:
426,98,47665,1,0,0:0:0:0:
426,98,47879,2,0,P|427:134|424:170,1,52.5000020027161,0|2,0:0|0:0,0:0:0:0:
391,225,48522,1,0,0:0:0:0:
391,225,48950,2,0,P|312:225|242:284,1,157.500006008148,4|8,0:0|0:0,0:0:0:0:
227,305,49808,6,0,P|187:314|113:283,1,105.000004005432,4|8,0:0|0:0,0:0:0:0:
102,261,50450,2,0,L|97:99,1,157.500006008148,0|8,0:0|0:0,0:0:0:0:
173,67,51522,2,0,B|277:27|277:107|381:67,2,210.000008010865,2|2|2,0:0|0:0|0:0,0:0:0:0:
98,105,53665,6,0,P|144:148|199:150,1,105.000004005432,8|2,0:0|0:0,0:0:0:0:
226,152,54308,2,0,L|231:266,1,105.000004005432
264,281,54950,1,8,0:0:0:0:
342,312,55379,1,8,0:0:0:0:
423,290,55808,1,8,0:0:0:0:
439,207,56236,1,8,0:0:0:0:
362,126,56665,6,0,L|270:126,1,70,4|0,0:0|0:0,0:0:0:0:
255,83,57093,2,0,L|163:83,1,70,8|0,0:0|0:0,0:0:0:0:
140,117,57522,2,0,P|62:132|3:94,1,140,2|8,0:0|0:0,0:0:0:0:
13,216,58379,2,0,B|13:271|13:271|23:291|23:291|23:367,1,140,2|8,0:0|0:0,0:0:0:0:
126,311,59236,2,0,B|126:256|126:256|116:236|116:236|116:160,1,140,2|8,0:0|0:0,0:0:0:0:
145,125,59879,1,0,0:0:0:0:
189,90,60093,6,0,P|227:79|281:93,1,70,2|0,0:0|0:0,0:0:0:0:
307,105,60522,2,0,P|397:126|464:93,2,140,8|2|8,0:0|0:0|0:0,0:0:0:0:
253,203,61808,1,8,0:0:0:0:
350,257,62236,1,8,0:0:0:0:
267,332,62665,2,0,L|171:332,1,70,8|0,0:0|0:0,0:0:0:0:
146,311,63093,2,0,L|50:311,1,70,8|0,0:0|0:0,0:0:0:0:
23,291,63522,6,0,P|5:235|46:137,1,140,4|8,0:0|0:0,0:0:0:0:
76,133,64165,2,0,B|149:133|149:133|174:122|174:122|231:122,1,140
269,122,64808,1,8,0:0:0:0:
319,222,65236,2,0,P|377:156|373:87,1,140,2|8,0:0|0:0,0:0:0:0:
416,149,65879,2,0,L|428:288,1,140
433,344,66522,1,8,0:0:0:0:
322,326,66950,6,0,B|289:300|289:300|253:320|253:320|196:287|122:315,1,210,4|0,0:0|0:0,0:0:0:0:
74,318,67808,2,0,P|18:223|98:138,1,210,2|0,0:0|0:0,0:0:0:0:
121,136,68665,6,0,L|199:136,1,70,8|8,0:0|0:0,0:0:0:0:
233,100,69093,2,0,L|311:100,1,70,8|8,0:0|0:0,0:0:0:0:
385,176,69736,1,8,0:0:0:0:
474,318,70379,6,0,L|506:245,1,70,4|0,0:0|0:0,0:0:0:0:
475,204,70808,2,0,L|476:127,1,70,8|0,0:0|0:0,0:0:0:0:
446,86,71236,2,0,P|390:62|292:91,1,140,2|8,0:0|0:0,0:0:0:0:
205,101,72093,2,0,B|178:88|178:88|149:105|149:105|107:88|74:100,1,140,2|8,0:0|0:0,0:0:0:0:
75,211,72950,2,0,B|107:224|149:207|149:207|178:224|178:224|205:211,1,140,2|8,0:0|0:0,0:0:0:0:
258,191,73593,1,0,0:0:0:0:
303,157,73808,6,0,P|354:150|399:164,1,70,2|0,0:0|0:0,0:0:0:0:
415,187,74236,2,0,L|420:338,2,140,8|2|8,0:0|0:0|0:0,0:0:0:0:
410,74,75522,1,8,0:0:0:0:
305,113,75950,1,8,0:0:0:0:
225,32,76379,2,0,L|129:32,1,70,8|0,0:0|0:0,0:0:0:0:
108,62,76807,2,0,L|12:62,1,70,8|0,0:0|0:0,0:0:0:0:
0,78,77236,6,0,B|0:130|0:130|14:155|14:155|14:221,1,140,2|8,0:0|0:0,0:0:0:0:
58,248,77879,2,0,B|110:281|156:249|156:249|200:249,1,140,2|0,0:0|0:0,0:0:0:0:
247,249,78522,1,8,0:0:0:0:
334,179,78950,2,0,P|358:238|339:312,1,140,2|8,0:0|0:0,0:0:0:0:
295,344,79593,2,0,L|448:346,1,140,2|0,0:0|0:0,0:0:0:0:
491,345,80236,1,8,0:0:0:0:
477,233,80665,6,0,B|442:197|449:145|449:145|427:120|427:120|426:68|386:55,1,210,2|0,0:0|0:0,0:0:0:0:
336,78,81522,2,0,P|315:130|181:113,1,210,2|0,0:0|0:0,0:0:0:0:
129,103,82379,6,0,P|80:134|71:155,1,70,8|8,0:3|0:0,0:0:0:0:
77,199,82808,2,0,P|55:225|23:238,1,70,8|8,0:3|0:0,0:0:0:0:
112,306,83450,2,0,L|184:305,2,70,8|8|4,0:0|0:0|0:0,0:0:0:0:
256,192,84093,12,0,85808,0:0:0:0:
