osu file format v14

[General]
AudioFilename: audio.mp3
AudioLeadIn: 0
PreviewTime: 56558
Countdown: 0
SampleSet: Soft
StackLeniency: 0.7
Mode: 0
LetterboxInBreaks: 0
WidescreenStoryboard: 0

[Editor]
Bookmarks: 15522,29236,42950,56665,70379
DistanceSpacing: 1.6
BeatDivisor: 4
GridSize: 8
TimelineZoom: 1.4

[Metadata]
Title:Anemone -TV MIX-
TitleUnicode:アネモネ -TV MIX-
Artist:ClariS
ArtistUnicode:ClariS
Creator:_IxApplePie_
Version:Insane
Source:Classroom☆Crisis
Tags:Classroom Crisis ending tv size ed クラスルーム☆クライシス
BeatmapID:1023252
BeatmapSetID:479175

[Difficulty]
HPDrainRate:7
CircleSize:4
OverallDifficulty:8
ApproachRate:8.5
SliderMultiplier:1.8
SliderTickRate:1

[Events]
//Background and Video events
0,0,"CC 1.2.jpg",0,0
Video,0,"video.avi"
//Break Periods
//Storyboard Layer 0 (Background)
//Storyboard Layer 1 (Fail)
//Storyboard Layer 2 (Pass)
//Storyboard Layer 3 (Foreground)
//Storyboard Sound Samples

[TimingPoints]
1808,428.571428571429,4,2,1,30,1,0
6950,-100,4,2,1,40,0,0
8665,-100,4,2,1,45,0,0
15522,-100,4,2,1,55,0,0
27522,-100,4,2,1,45,0,0
29236,-100,4,2,1,55,0,0
42950,-133.333333333333,4,2,1,40,0,0
49808,-117.647058823529,4,2,1,55,0,0
51522,-100,4,2,1,60,0,0
54950,-100,4,2,1,65,0,0
56236,-66.6666666666667,4,2,1,65,0,0
56558,-66.6666666666667,4,2,1,45,0,0
56665,-100,4,2,1,65,0,1
68665,-100,4,2,1,70,0,0
69736,-66.6666666666667,4,2,1,70,0,0
70379,-100,4,2,1,65,0,1
77236,-100,4,2,1,65,0,1
82379,-100,4,2,1,70,0,0

[Colours]
Combo1 : 255,128,64
Combo2 : 250,100,100
Combo3 : 109,226,239
Combo4 : 125,125,250

[HitObjects]
232,95,1808,6,0,P|186:103|129:93,1,90,0|2,0:0|0:0,0:0:0:0:
68,146,2236,2,0,L|57:243,1,90,0|2,0:0|0:0,0:0:0:0:
126,293,2665,2,0,P|191:282|265:325,2,135,0|2|2,0:0|0:0|0:0,0:0:0:0:
62,356,3522,1,0,0:0:0:0:
62,356,3736,1,0,0:0:0:0:
62,356,4165,5,2,0:0:0:0:
15,279,4379,1,0,0:0:0:0:
64,203,4593,1,2,0:0:0:0:
154,203,4808,1,0,0:0:0:0:
184,287,5022,1,2,0:0:0:0:
249,348,5236,6,0,P|321:370|407:287,1,180
310,268,5879,1,0,0:0:0:0:
310,268,5986,1,0,0:0:0:0:
310,268,6093,2,0,B|292:137|292:137|313:70,1,180
376,21,6736,1,2,0:0:0:0:
471,44,6950,22,0,B|490:88|490:88|481:120|481:120|497:161|487:197,2,135,0|2|2,0:0|0:0|0:0,0:0:0:0:
376,21,7808,1,0,0:0:0:0:
258,111,8129,1,0,0:0:0:0:
136,21,8450,1,2,0:0:0:0:
258,111,8665,6,0,B|258:177|258:177|240:206,1,90,4|2,0:0|0:0,0:0:0:0:
211,220,8986,1,0,0:0:0:0:
170,215,9093,1,0,0:0:0:0:
178,81,9308,2,0,P|241:29|334:73,1,180,2|2,0:0|0:0,0:0:0:0:
336,187,9950,21,0,0:0:0:0:
326,202,10021,1,0,0:0:0:0:
320,219,10092,1,0,0:0:0:0:
316,236,10164,1,2,0:0:0:0:
316,254,10235,1,0,0:0:0:0:
318,272,10307,1,0,0:0:0:0:
323,289,10379,6,0,P|406:335|480:276,1,180,4|0,0:0|0:0,0:0:0:0:
506,178,11022,1,2,0:0:0:0:
380,140,11236,2,0,B|385:180|385:180|395:193|395:193|399:227,1,90,2|0,0:0|0:0,0:0:0:0:
276,195,11665,2,0,B|272:161|272:161|262:148|262:148|257:108,1,90,0|2,0:0|0:0,0:0:0:0:
156,38,12093,6,0,P|115:33|59:68,1,90,4|0,0:0|0:0,0:0:0:0:
50,204,12522,1,0,0:0:0:0:
174,295,12736,2,0,B|204:311|204:311|165:239|196:170,1,180,2|2,0:0|0:0,0:0:0:0:
309,98,13379,1,0,0:0:0:0:
391,199,13593,1,2,0:0:0:0:
303,295,13808,6,0,P|259:315|207:306,1,90,4|2,0:0|0:0,0:0:0:0:
174,295,14129,1,0,0:0:0:0:
136,272,14236,1,0,0:0:0:0:
111,235,14343,1,0,0:0:0:0:
102,191,14450,1,2,0:0:0:0:
112,148,14557,1,0,0:0:0:0:
138,112,14664,1,2,0:0:0:0:
138,112,15093,21,0,0:0:0:0:
254,125,15308,1,2,0:0:0:0:
353,64,15522,6,0,P|398:58|454:65,1,90,4|0,0:0|0:0,0:0:0:0:
482,81,15843,1,0,0:0:0:0:
482,81,15950,2,0,L|493:193,1,90,8|2,0:0|0:0,0:0:0:0:
401,297,16379,2,0,L|390:207,1,90
319,69,16808,1,8,0:0:0:0:
290,192,17022,1,0,0:0:0:0:
200,276,17236,6,0,P|151:278|111:262,1,90,2|0,0:0|0:0,0:0:0:0:
38,189,17665,1,8,0:0:0:0:
5,338,17879,2,0,L|199:372,1,180,2|0,0:0|0:0,0:0:0:0:
333,320,18522,1,8,0:0:0:0:
361,190,18736,1,0,0:0:0:0:
265,113,18950,22,0,P|179:125|145:204,1,180,2|8,0:0|0:0,0:0:0:0:
219,312,19593,2,0,P|303:299|336:220,2,180,2|2|2,0:0|0:0|0:0,0:0:0:0:
130,368,20665,5,4,0:0:0:0:
64,298,20879,1,2,0:0:0:0:
64,298,20986,1,0,0:0:0:0:
64,298,21093,2,0,L|64:228,3,45,8|0|2|0,0:0|0:0|0:0|0:0,0:0:0:0:
137,200,21522,6,0,L|146:135,1,45,8|0,0:0|0:0,0:0:0:0:
34,137,21736,2,0,L|25:72,1,45,8|0,0:0|0:0,0:0:0:0:
111,22,21950,1,8,0:0:0:0:
222,129,22164,1,4,0:0:0:0:
331,21,22379,21,4,0:0:0:0:
386,144,22593,1,0,0:0:0:0:
389,184,22700,1,0,0:0:0:0:
392,224,22807,1,8,0:0:0:0:
299,307,23022,1,2,0:0:0:0:
414,361,23236,2,0,L|512:358,1,90,0|2,0:0|0:0,0:0:0:0:
299,307,23665,2,0,L|201:310,1,90,8|0,0:0|0:0,0:0:0:0:
65,229,24093,5,2,0:0:0:0:
136,107,24308,1,0,0:0:0:0:
174,97,24415,1,0,0:0:0:0:
214,100,24522,1,8,0:0:0:0:
301,193,24736,1,2,0:0:0:0:
212,281,24950,2,0,L|219:378,1,90,0|2,0:0|0:0,0:0:0:0:
354,295,25379,1,8,0:0:0:0:
354,127,25593,1,0,0:0:0:0:
230,44,25808,6,0,P|146:17|65:51,1,180,2|8,0:0|0:0,0:0:0:0:
62,210,26450,2,0,P|146:237|228:204,1,180,2|2,0:0|0:0,0:0:0:0:
144,105,27093,1,8,0:0:0:0:
109,324,27308,1,0,0:0:0:0:
109,324,27415,1,0,0:0:0:0:
109,324,27522,22,0,B|184:324|184:324|212:308|212:308|296:308,1,180,4|0,0:0|0:0,0:0:0:0:
351,175,28165,2,0,B|351:223|351:223|374:249|374:249|354:319|397:364,1,180,2|0,0:0|0:0,0:0:0:0:
466,173,28808,1,2,0:0:0:0:
492,286,29022,1,0,0:0:0:0:
381,343,29236,6,0,P|339:357|293:352,1,90,4|0,0:0|0:0,0:0:0:0:
208,189,29665,1,8,0:0:0:0:
300,262,29879,2,0,L|294:352,1,90
170,337,30308,1,0,0:0:0:0:
119,231,30522,1,8,0:0:0:0:
0,201,30736,2,0,B|0:200|2:207|-20:252,1,45
0,201,30950,6,0,P|11:136|50:96,1,90,2|0,0:0|0:0,0:0:0:0:
155,57,31379,1,8,0:0:0:0:
285,175,31593,2,0,B|215:175|215:175|187:187|187:187|107:187,1,180
155,57,32236,1,8,0:0:0:0:
242,265,32450,1,0,0:0:0:0:
242,265,32558,1,0,0:0:0:0:
242,265,32665,22,0,P|342:262|383:162,1,180,2|8,0:0|0:0,0:0:0:0:
278,91,33308,2,0,B|278:151|278:151|288:180,1,90,2|0,0:0|0:0,0:0:0:0:
378,334,33736,1,2,0:0:0:0:
256,272,33950,1,8,0:0:0:0:
134,334,34165,1,0,0:0:0:0:
89,179,34379,6,0,P|45:185|-8:181,1,90,2|0,0:0|0:0,0:0:0:0:
126,34,34808,2,0,P|170:28|223:32,1,90,2|0,0:0|0:0,0:0:0:0:
293,200,35236,2,0,L|300:320,1,90,2|0,0:0|0:0,0:0:0:0:
437,178,35665,2,0,L|430:58,1,90,2|0,0:0|0:0,0:0:0:0:
247,335,36093,5,2,0:0:0:0:
160,177,36308,1,0,0:0:0:0:
67,331,36522,1,8,0:0:0:0:
247,335,36736,2,0,B|284:335|284:335|304:327|304:327|343:327,1,90,2|0,0:0|0:0,0:0:0:0:
432,328,37165,1,0,0:0:0:0:
495,249,37379,2,0,P|502:194|488:145,1,90,8|0,0:0|0:0,0:0:0:0:
371,82,37808,21,2,0:0:0:0:
220,82,38022,1,0,0:0:0:0:
295,178,38236,1,8,0:0:0:0:
371,82,38450,2,0,P|437:72|484:104,1,90,2|0,0:0|0:0,0:0:0:0:
507,166,38879,1,0,0:0:0:0:
404,251,39093,2,0,L|417:162,1,90,8|0,0:0|0:0,0:0:0:0:
352,72,39522,6,0,P|266:50|178:81,1,180,2|8,0:0|0:0,0:0:0:0:
290,292,40165,1,0,0:0:0:0:
329,212,40379,2,0,P|281:203|243:216,1,90,2|0,0:0|0:0,0:0:0:0:
159,286,40808,2,0,P|112:303|48:292,1,90,8|0,0:0|0:0,0:0:0:0:
5,231,41236,6,0,L|-10:111,1,90,4|0,0:0|0:0,0:0:0:0:
60,67,41665,2,0,L|110:45,1,45,8|0,0:0|0:0,0:0:0:0:
163,125,41879,2,0,L|224:120,1,45,2|0,0:0|0:0,0:0:0:0:
254,208,42093,2,0,L|318:213,1,45,2|0,0:0|0:0,0:0:0:0:
346,296,42308,1,2,0:0:0:0:
378,326,42415,1,0,0:0:0:0:
421,339,42522,1,8,0:0:0:0:
465,332,42629,1,0,0:0:0:0:
501,306,42736,2,0,L|515:249,1,45
467,203,42950,22,0,P|444:137|472:60,1,135.000005149842,4|0,0:0|0:0,0:0:0:0:
383,27,43593,1,0,0:0:0:0:
327,182,43808,2,0,P|343:246|320:308,1,135.000005149842,2|0,0:0|0:0,0:0:0:0:
319,308,44665,6,0,L|251:308,1,67.5000025749208,2|0,0:0|0:0,0:0:0:0:
141,341,45093,1,0,0:0:0:0:
54,269,45308,1,0,0:0:0:0:
54,269,45415,1,0,0:0:0:0:
54,269,45522,2,0,P|40:194|69:117,1,135.000005149842,2|0,0:0|0:0,0:0:0:0:
242,50,46165,1,0,0:0:0:0:
242,50,46272,1,0,0:0:0:0:
242,50,46379,6,0,P|182:69|101:35,2,135.000005149842,2|0|2,0:0|0:0|0:0,0:0:0:0:
333,50,47450,1,0,0:0:0:0:
362,136,47665,1,0,0:0:0:0:
291,191,47879,1,0,0:0:0:0:
214,138,48093,21,2,0:0:0:0:
112,295,48522,1,0,0:0:0:0:
7,116,48950,2,0,B|-5:141|-5:141|4:177|4:177|-17:210|-13:264,1,135.000005149842,4|0,0:0|0:0,0:0:0:0:
79,291,49593,2,0,L|127:314,1,33.7500012874604,2|0,0:0|0:0,0:0:0:0:
189,333,49808,6,0,P|228:306|246:274,1,76.5000014591217,4|0,0:0|0:0,0:0:0:0:
301,124,50236,1,8,0:0:0:0:
399,256,50450,2,0,L|409:357,1,76.5000014591217
256,320,50879,1,0,0:0:0:0:
176,192,51094,1,8,0:0:0:0:
256,64,51308,1,0,0:0:0:0:
89,140,51522,6,0,L|-7:148,1,90,2|0,0:0|0:0,0:0:0:0:
96,291,51950,2,0,L|192:283,1,90,8|0,0:0|0:0,0:0:0:0:
328,192,52379,1,0,0:0:0:0:
160,144,52593,1,0,0:0:0:0:
344,96,52808,1,8,0:0:0:0:
152,48,53022,1,0,0:0:0:0:
184,249,53236,22,0,P|241:279|287:280,1,90,2|0,0:0|0:0,0:0:0:0:
446,225,53665,1,8,0:0:0:0:
468,186,53772,1,0,0:0:0:0:
472,141,53879,1,2,0:0:0:0:
457,99,53986,1,0,0:0:0:0:
430,68,54093,2,0,L|360:68,1,45,2|0,0:0|0:0,0:0:0:0:
306,125,54308,6,0,L|236:125,1,45,2|0,0:0|0:0,0:0:0:0:
186,63,54522,1,8,0:0:0:0:
146,54,54629,1,0,0:0:0:0:
107,61,54736,1,2,0:0:0:0:
72,82,54843,1,0,0:0:0:0:
50,116,54950,5,8,0:0:0:0:
204,343,55379,1,8,0:0:0:0:
372,72,55808,2,0,P|318:84|257:72,1,90,8|0,0:0|0:0,0:0:0:0:
100,84,56236,22,0,B|99:158|46:220|46:220|118:200,1,202.500007724762,8|0,0:0|0:0,0:0:0:0:
130,202,56665,6,0,P|194:196|236:216,1,90,4|0,0:0|0:0,0:0:0:0:
299,310,57093,1,8,0:0:0:0:
174,333,57308,1,0,0:0:0:0:
174,333,57415,1,0,0:0:0:0:
174,333,57522,1,2,0:0:0:0:
217,204,57736,1,0,0:0:0:0:
352,178,57950,2,0,L|441:141,1,90,8|0,0:0|0:0,0:0:0:0:
330,40,58379,6,0,P|257:73|165:28,1,180,2|8,0:0|0:0,0:0:0:0:
91,128,59022,2,0,L|94:246,1,90,0|2,0:0|0:0,0:0:0:0:
326,193,59450,21,0,0:0:0:0:
216,338,59665,1,8,0:0:0:0:
93,217,59879,1,0,0:0:0:0:
297,102,60093,5,2,0:0:0:0:
184,51,60308,1,0,0:0:0:0:
56,224,60522,1,8,0:0:0:0:
72,104,60736,1,0,0:0:0:0:
184,51,60950,5,2,0:0:0:0:
339,99,61165,1,0,0:0:0:0:
248,248,61379,1,8,0:0:0:0:
358,76,61593,1,0,0:0:0:0:
414,234,61808,21,8,0:0:0:0:
59,291,62236,1,8,0:0:0:0:
197,29,62665,1,8,0:0:0:0:
282,357,63093,1,8,0:0:0:0:
412,314,63308,1,0,0:0:0:0:
447,294,63415,1,0,0:0:0:0:
470,260,63522,6,0,P|483:202|471:157,1,90,4|0,0:0|0:0,0:0:0:0:
347,144,63950,1,8,0:0:0:0:
234,177,64165,1,2,0:0:0:0:
54,121,64379,1,0,0:0:0:0:
164,82,64593,1,0,0:0:0:0:
234,177,64808,2,0,L|235:285,1,90,8|0,0:0|0:0,0:0:0:0:
148,342,65236,6,0,P|90:350|43:317,1,90,2|0,0:0|0:0,0:0:0:0:
8,225,65665,1,8,0:0:0:0:
110,91,65879,2,0,B|124:135|124:135|106:170|106:170|127:219|110:263,1,180,2|0,0:0|0:0,0:0:0:0:
176,350,66522,1,8,0:0:0:0:
206,358,66629,1,0,0:0:0:0:
237,359,66736,1,0,0:0:0:0:
267,353,66843,1,0,0:0:0:0:
296,342,66950,21,4,0:0:0:0:
368,270,67165,1,0,0:0:0:0:
343,168,67379,1,8,0:0:0:0:
400,77,67593,2,0,L|456:68,2,45,0|0|2,0:0|0:0|0:0,0:0:0:0:
285,14,68022,1,0,0:0:0:0:
195,101,68236,2,0,P|151:115|91:94,1,90,8|0,0:0|0:0,0:0:0:0:
109,105,68665,5,8,0:0:0:0:
181,230,68879,1,8,0:0:0:0:
294,33,69093,1,8,0:0:0:0:
370,259,69308,21,8,0:0:0:0:
385,240,69379,1,0,0:0:0:0:
396,219,69450,1,0,0:0:0:0:
403,196,69522,1,12,0:0:0:0:
294,33,69736,38,0,B|261:60|261:60|254:104|254:104|219:116|219:116|173:198|83:172,1,270.000010299683,8|2,0:0|0:0,0:0:0:0:
89,131,70236,5,0,0:0:0:0:
89,131,70308,1,0,0:0:0:0:
89,131,70379,6,0,L|89:34,1,90,4|0,0:0|0:0,0:0:0:0:
0,181,70808,1,8,0:0:0:0:
72,291,71023,1,0,0:0:0:0:
72,291,71129,1,0,0:0:0:0:
72,291,71236,2,0,L|186:289,1,90,2|0,0:0|0:0,0:0:0:0:
190,138,71665,1,8,0:0:0:0:
273,231,71879,1,0,0:0:0:0:
332,62,72093,6,0,B|412:62|412:62|441:75|441:75|516:75,1,180,2|8,0:0|0:0,0:0:0:0:
450,244,72736,2,0,B|370:244|370:244|341:231|341:231|266:231,1,180,2|0,0:0|0:0,0:0:0:0:
165,79,73380,1,8,0:0:0:0:
161,230,73593,1,0,0:0:0:0:
250,155,73808,5,2,0:0:0:0:
29,170,74022,1,0,0:0:0:0:
142,332,74236,1,8,0:0:0:0:
165,79,74450,1,0,0:0:0:0:
272,231,74665,21,2,0:0:0:0:
430,94,74879,1,0,0:0:0:0:
359,247,75093,1,8,0:0:0:0:
320,36,75307,1,0,0:0:0:0:
293,313,75522,5,8,0:0:0:0:
157,79,75950,1,8,0:0:0:0:
62,337,76380,1,8,0:0:0:0:
339,173,76593,22,0,P|325:178|310:180,2,30,8|0|0,0:0|0:0|0:0,0:0:0:0:
358,154,76808,6,0,P|396:115|437:113,1,90,8|0,0:0|0:0,0:0:0:0:
278,315,77236,5,2,0:0:0:0:
174,260,77450,1,0,0:0:0:0:
174,260,77558,1,0,0:0:0:0:
174,260,77665,2,0,P|98:250|53:266,1,90,8|0,0:0|0:0,0:0:0:0:
238,151,78093,2,0,L|364:149,1,90,2|0,0:0|0:0,0:0:0:0:
425,306,78522,2,0,L|299:308,1,90,8|0,0:0|0:0,0:0:0:0:
238,151,78950,5,2,0:0:0:0:
323,70,79165,1,0,0:0:0:0:
323,70,79272,1,0,0:0:0:0:
323,70,79379,2,0,P|381:78|414:107,1,90,8|0,0:0|0:0,0:0:0:0:
335,307,79808,2,0,L|328:217,1,90,2|0,0:0|0:0,0:0:0:0:
215,153,80236,21,8,0:0:0:0:
60,62,80450,1,0,0:0:0:0:
60,243,80665,1,2,0:0:0:0:
215,153,80879,5,0,0:0:0:0:
44,89,81093,1,8,0:0:0:0:
76,268,81308,1,0,0:0:0:0:
219,157,81522,5,2,0:0:0:0:
256,133,81629,1,0,0:0:0:0:
301,125,81736,1,0,0:0:0:0:
344,135,81843,1,0,0:0:0:0:
381,160,81950,1,8,0:0:0:0:
303,290,82165,1,0,0:0:0:0:
80,344,82379,21,8,0:3:0:0:
290,52,82593,1,8,0:0:0:0:
89,116,82808,1,8,0:3:0:0:
368,320,83022,1,8,0:0:0:0:
290,52,83450,5,8,0:0:0:0:
243,296,83665,1,8,0:0:0:0:
87,116,83879,1,4,0:0:0:0:
256,192,83986,12,0,85808,0:0:0:0:
