osu file format v14

[General]
AudioFilename: anemone.mp3
AudioLeadIn: 0
PreviewTime: 56236
Countdown: 0
SampleSet: Soft
StackLeniency: 0.7
Mode: 0
LetterboxInBreaks: 0
WidescreenStoryboard: 0

[Editor]
Bookmarks: 15522,22379,29236
DistanceSpacing: 1.1
BeatDivisor: 2
GridSize: 4
TimelineZoom: 0.8999999

[Metadata]
Title:Anemone -TV MIX-
TitleUnicode:アネモネ -TV MIX-
Artist:ClariS
ArtistUnicode:ClariS
Creator:Neoskylove
Version:Normal
Source:Classroom☆Crisis
Tags:classroom Crisis ED TVsize Doyak
BeatmapID:856921
BeatmapSetID:393754

[Difficulty]
HPDrainRate:3.5
CircleSize:3.5
OverallDifficulty:4
ApproachRate:5
SliderMultiplier:1.2
SliderTickRate:1

[Events]
//Background and Video events
0,0,"BG.jpg",0,0
Video,141,"video.avi"
//Break Periods
//Storyboard Layer 0 (Background)
//Storyboard Layer 1 (Fail)
//Storyboard Layer 2 (Pass)
//Storyboard Layer 3 (Foreground)
//Storyboard Sound Samples

[TimingPoints]
1808,428.571428571429,4,2,0,30,1,0
6950,-100,4,2,0,20,0,0
8665,-100,4,2,0,50,0,0
15522,-100,4,2,0,40,0,0
29236,-100,4,2,0,50,0,0
42950,-100,4,2,0,35,0,0
49808,-100,4,2,0,50,0,0
56665,-100,4,2,0,50,0,1
70165,-100,4,2,0,50,0,0
70379,-100,4,2,0,50,0,1
81629,-100,4,2,0,30,0,1
81950,-100,4,2,0,50,0,1
82058,-100,4,2,0,30,0,1
82379,-100,4,2,0,50,0,1
83879,-100,4,2,0,50,0,0

[Colours]
Combo1 : 155,128,255
Combo2 : 235,192,0
Combo3 : 66,151,255
Combo4 : 255,102,102

[HitObjects]
99,152,1808,5,4,0:3:0:0:
201,68,2236,1,0,0:0:0:0:
299,156,2665,2,0,L|273:269,2,90,0|0|4,0:0|0:0|0:3,0:0:0:0:
342,106,3522,1,4,0:3:0:0:
418,289,4165,2,0,L|476:277,2,60
363,326,4808,2,0,L|304:314,1,60
238,321,5236,6,0,P|248:263|239:204,1,120,4|0,0:3|0:0,0:0:0:0:
194,155,5879,1,0,0:0:0:0:
194,155,6093,2,0,L|313:149,1,120,4|0,0:3|0:0,0:0:0:0:
371,268,6950,2,0,L|367:357,2,90,0|0|0,0:0|0:0|0:0,0:0:0:0:
418,221,7808,2,0,L|459:300,2,90,0|0|0,1:0|1:0|1:0,0:0:0:0:
383,164,8665,6,0,P|398:106|378:51,1,120,4|8,1:2|0:0,0:0:0:0:
317,24,9308,2,0,L|191:29,1,120,0|0,0:0|0:0,0:0:0:0:
133,47,9950,1,8,0:0:0:0:
84,169,10379,2,0,L|84:289,1,120,0|8,1:0|0:0,0:0:0:0:
203,346,11236,2,0,L|323:346,1,120,0|8,1:0|0:0,0:0:0:0:
438,280,12093,6,0,L|438:160,1,120,0|8,1:0|0:0,0:0:0:0:
429,94,12736,2,0,P|379:125|320:128,1,120,0|0,0:0|0:0,0:0:0:0:
260,102,13379,1,8,0:0:0:0:
152,179,13808,2,0,L|153:238,1,60,0|0,1:0|0:0,0:0:0:0:
180,299,14236,2,0,L|239:301,1,60,0|0,0:0|0:0,0:0:0:0:
300,327,14665,1,0,1:0:0:0:
381,77,15522,6,0,P|323:66|266:81,1,120,4|2,0:0|0:0,0:0:0:0:
216,125,16165,1,2,0:0:0:0:
277,241,16593,2,0,P|219:256|161:244,1,120,2|0,0:0|0:0,0:0:0:0:
117,195,17236,2,0,L|116:314,1,120,2|2,0:0|0:0,0:0:0:0:
65,358,17879,1,2,0:0:0:0:
19,234,18308,2,0,L|19:114,1,120,2|0,0:0|0:0,0:0:0:0:
63,63,18950,6,0,P|119:47|176:66,1,120,2|2,0:0|0:0,0:0:0:0:
229,105,19593,1,2,0:0:0:0:
322,198,20022,2,0,L|318:325,1,120,0|2,0:0|0:0,0:0:0:0:
279,371,20665,2,0,L|219:364,1,60,2|0,0:0|0:0,0:0:0:0:
154,373,21093,2,0,P|169:316|159:257,1,120,2|2,0:0|0:0,0:0:0:0:
148,126,21950,2,0,L|208:127,1,60,2|0,0:0|0:0,0:0:0:0:
254,79,22379,6,0,P|308:101|365:85,1,120,2|2,0:0|0:0,0:0:0:0:
413,39,23022,2,0,L|406:158,1,120,2|2,0:0|0:0,0:0:0:0:
409,225,23665,1,2,0:0:0:0:
320,322,24093,2,0,P|264:341|206:332,1,120,2|2,0:0|0:0,0:0:0:0:
150,296,24736,1,2,0:0:0:0:
81,183,25165,2,0,L|21:183,2,60,2|2|0,0:0|0:0|0:0,0:0:0:0:
131,140,25808,6,0,P|187:123|241:146,1,120,2|2,0:0|0:0,0:0:0:0:
288,193,26450,1,2,0:0:0:0:
411,242,26879,2,0,L|415:301,2,60,2|2|0,0:0|0:0|0:0,0:0:0:0:
429,178,27522,1,4,1:3:0:0:
429,178,29236,6,0,L|436:58,1,120,4|8,1:2|0:0,0:0:0:0:
379,23,29879,2,0,P|319:19|268:49,1,120,0|0,1:0|0:0,0:0:0:0:
257,113,30522,2,0,P|228:121|198:118,1,60,8|0,0:0|0:0,0:0:0:0:
133,121,30950,2,0,L|133:241,1,120,0|8,1:0|0:0,0:0:0:0:
142,307,31593,1,0,1:0:0:0:
272,286,32022,2,0,L|272:226,2,60,0|8|0,0:0|0:0|0:0,0:0:0:0:
274,353,32665,6,0,P|325:323|384:326,1,120,0|8,1:0|0:0,0:0:0:0:
443,356,33308,1,0,1:0:0:0:
460,225,33736,2,0,P|408:195|349:198,1,120,0|0,0:0|0:0,0:0:0:0:
286,219,34379,1,0,1:0:0:0:
161,262,34808,1,8,0:0:0:0:
118,137,35236,1,0,1:0:0:0:
243,94,35665,1,8,0:0:0:0:
286,219,36093,6,0,P|295:285|277:341,1,120,0|8,1:0|0:0,0:0:0:0:
231,379,36736,2,0,L|349:362,1,120,0|0,1:0|0:0,0:0:0:0:
416,356,37379,1,8,0:0:0:0:
452,229,37808,2,0,L|452:104,1,120,0|8,1:0|0:0,0:0:0:0:
429,47,38450,1,0,1:0:0:0:
298,32,38879,1,0,0:0:0:0:
298,32,39093,2,0,P|290:61|290:91,1,60,8|0,0:0|0:0,0:0:0:0:
307,155,39522,6,0,L|187:169,1,120,0|8,1:0|0:0,0:0:0:0:
125,145,40165,1,0,0:0:0:0:
125,145,40379,2,0,P|140:201|121:257,1,120,0|8,1:0|0:0,0:0:0:0:
51,369,41236,1,0,1:0:0:0:
179,338,41665,2,0,L|243:334,1,60,0|0,0:0|0:0,0:0:0:0:
291,373,42093,2,0,L|344:337,1,60,0|0,0:0|0:0,0:0:0:0:
402,364,42522,2,0,L|430:306,1,60,0|0,0:0|0:0,0:0:0:0:
445,246,42950,6,0,P|360:234|329:154,1,180,4|0,0:3|0:0,0:0:0:0:
294,97,43808,2,0,L|320:43,2,60,0|0|2,0:0|0:0|0:0,0:0:0:0:
162,112,44665,6,0,P|159:171|161:231,1,120,0|2,0:0|0:0,0:0:0:0:
293,216,45522,2,0,P|295:156|293:96,1,120,0|2,0:0|0:0,0:0:0:0:
162,112,46379,1,0,0:0:0:0:
256,192,46593,12,0,48950,0:0:0:0:
110,122,49808,6,0,P|165:103|222:119,1,120,12|8,0:0|0:0,0:0:0:0:
275,158,50450,1,0,0:0:0:0:
364,255,50879,2,0,L|360:314,2,60,0|8|0,0:0|0:0|0:0,0:0:0:0:
411,208,51522,2,0,L|403:88,1,120,8|8,0:0|0:0,0:0:0:0:
282,38,52379,2,0,L|274:157,1,120,8|8,0:0|0:0,0:0:0:0:
219,278,53236,5,8,0:0:0:0:
86,281,53665,2,0,L|92:221,1,60,8|8,0:0|0:0,0:0:0:0:
155,203,54093,2,0,L|148:143,1,60,8|8,0:2|0:2,0:0:0:0:
86,125,54522,2,0,L|92:65,1,60,8|0,0:2|0:0,0:0:0:0:
147,30,54950,1,8,1:2:0:0:
265,89,55379,1,0,1:0:0:0:
383,148,55808,1,0,1:0:0:0:
376,17,56236,1,4,1:2:0:0:
265,89,56665,6,0,L|260:148,2,60,4|0|8,1:2|0:0|0:0,0:0:0:0:
133,80,57522,2,0,L|137:20,2,60,0|0|8,1:0|0:0|0:0,0:0:0:0:
111,210,58379,2,0,P|152:252|210:258,1,120,0|8,1:0|0:0,0:0:0:0:
272,233,59022,1,0,0:0:0:0:
403,212,59450,2,0,L|410:271,2,60,0|8|0,0:0|0:0|0:0,0:0:0:0:
375,151,60093,6,0,L|382:91,2,60,0|0|8,1:0|0:0|0:0,0:0:0:0:
272,233,60950,2,0,L|279:293,2,60,0|0|8,1:0|0:0|0:0,0:0:0:0:
167,313,61808,1,0,1:0:0:0:
39,346,62236,1,8,0:2:0:0:
6,218,62665,1,0,1:0:0:0:
134,185,63093,1,8,0:2:0:0:
167,313,63522,6,0,L|301:314,1,120,0|8,1:0|0:0,0:0:0:0:
348,338,64165,2,0,P|322:286|333:228,1,120,0|0,1:0|0:0,0:0:0:0:
372,174,64808,1,8,0:0:0:0:
353,43,65236,2,0,P|294:32|242:58,1,120,0|8,1:0|0:0,0:0:0:0:
225,122,65879,2,0,P|172:95|114:106,1,120,0|0,1:0|0:0,0:0:0:0:
92,168,66522,2,0,L|95:242,1,60,8|0,0:0|0:0,0:0:0:0:
124,288,66950,6,0,P|67:272|12:294,2,120,0|8|0,1:0|0:0|1:0,0:0:0:0:
238,353,68236,1,8,0:0:0:0:
367,325,68665,2,0,L|363:265,1,60,0|0,1:0|1:0,0:0:0:0:
425,242,69093,2,0,L|429:182,1,60,0|0,1:0|1:0,0:0:0:0:
380,59,69736,2,0,P|321:55|265:75,1,120,4|0,1:2|0:0,0:0:0:0:
253,140,70379,6,0,L|256:207,2,60,4|0|8,1:2|0:0|0:0,0:0:0:0:
128,94,71236,2,0,L|131:27,2,60,0|0|8,1:0|0:0|0:0,0:0:0:0:
90,220,72093,2,0,L|87:346,1,120,0|8,1:0|0:0,0:0:0:0:
140,379,72736,1,0,0:0:0:0:
258,319,73165,2,0,L|316:337,2,60,0|8|0,0:0|0:0|0:0,0:0:0:0:
235,257,73808,6,0,L|177:275,2,60,0|0|8,1:0|0:0|0:0,0:0:0:0:
279,132,74665,2,0,L|337:114,2,60,0|0|8,1:0|0:0|0:0,0:0:0:0:
150,164,75522,1,0,1:0:0:0:
22,131,75950,1,8,1:2:0:0:
55,3,76379,1,0,1:0:0:0:
183,36,76807,1,12,0:0:0:0:
150,164,77236,6,0,L|150:284,1,120,4|8,1:2|0:0,0:0:0:0:
147,349,77879,2,0,P|197:319|256:320,1,120,0|0,1:0|0:0,0:0:0:0:
314,352,78522,1,8,0:0:0:0:
400,252,78950,2,0,L|399:122,1,120,0|8,1:0|0:0,0:0:0:0:
404,66,79593,2,0,P|347:83|290:68,1,120,0|0,1:0|0:0,0:0:0:0:
237,28,80236,2,0,L|174:35,1,60,8|0,0:0|0:0,0:0:0:0:
159,98,80665,6,0,L|39:84,2,120,0|8|0,1:0|0:0|1:0,0:0:0:0:
279,150,81950,1,0,1:0:0:0:
327,272,82379,2,0,L|268:284,1,60,0|0,1:0|1:0,0:0:0:0:
236,342,82808,2,0,L|177:329,1,60,0|0,1:0|1:0,0:0:0:0:
85,234,83450,2,0,L|89:165,1,60,0|0,1:0|1:0,0:0:0:0:
136,128,83879,1,4,0:0:0:0:
256,192,84093,12,0,85808,0:0:0:0:
