osu file format v14

[General]
AudioFilename: anemone.mp3
AudioLeadIn: 0
PreviewTime: 56236
Countdown: 0
SampleSet: Soft
StackLeniency: 0.7
Mode: 0
LetterboxInBreaks: 0
WidescreenStoryboard: 0

[Editor]
Bookmarks: 15522,22379,29236
DistanceSpacing: 1.2
BeatDivisor: 4
GridSize: 4
TimelineZoom: 1.7

[Metadata]
Title:Anemone -TV MIX-
TitleUnicode:アネモネ -TV MIX-
Artist:ClariS
ArtistUnicode:ClariS
Creator:Neoskylove
Version:Insane
Source:Classroom☆Crisis
Tags:classroom Crisis ED TVsize Doyak
BeatmapID:1072808
BeatmapSetID:393754

[Difficulty]
HPDrainRate:6
CircleSize:4
OverallDifficulty:7
ApproachRate:8
SliderMultiplier:1.6
SliderTickRate:1

[Events]
//Background and Video events
0,0,"BG.jpg",0,0
Video,141,"video.avi"
//Break Periods
//Storyboard Layer 0 (Background)
//Storyboard Layer 1 (Fail)
//Storyboard Layer 2 (Pass)
//Storyboard Layer 3 (Foreground)
//Storyboard Sound Samples

[TimingPoints]
1808,428.571428571429,4,2,0,30,1,0
1808,-117.647058823529,4,2,0,30,0,0
6950,-117.647058823529,4,2,0,20,0,0
8665,-100,4,2,0,50,0,0
15522,-111.111111111111,4,2,0,40,0,0
29236,-100,4,2,0,50,0,0
42950,-117.647058823529,4,2,0,35,0,0
49808,-100,4,2,0,50,0,0
56236,-83.3333333333333,4,2,0,50,0,0
56665,-100,4,2,0,50,0,1
69736,-83.3333333333333,4,2,0,50,0,1
70165,-100,4,2,0,50,0,0
70379,-100,4,2,0,50,0,1
76808,-83.3333333333333,4,2,0,50,0,1
77236,-100,4,2,0,50,0,1
81629,-100,4,2,0,30,0,1
81950,-100,4,2,0,50,0,1
82058,-100,4,2,0,30,0,1
82379,-100,4,2,0,50,0,1
83879,-100,4,2,0,50,0,0

[Colours]
Combo1 : 155,128,255
Combo2 : 235,192,0
Combo3 : 66,151,255
Combo4 : 255,102,102

[HitObjects]
164,140,1808,5,4,0:3:0:0:
197,215,2022,1,0,0:0:0:0:
271,181,2236,1,0,0:0:0:0:
239,107,2450,1,0,0:0:0:0:
197,215,2665,2,0,L|95:216,2,102.000001945496,0|0|4,0:0|0:0|0:3,0:0:0:0:
299,155,3522,5,4,0:3:0:0:
332,230,3736,1,0,0:0:0:0:
406,196,3950,1,0,0:0:0:0:
374,121,4164,1,0,0:0:0:0:
332,230,4379,2,0,L|328:297,1,68.0000012969971
249,357,4808,2,0,L|246:290,1,68.0000012969971
164,290,5236,6,0,L|170:247,3,34.0000006484985,4|0|0|0,0:3|0:0|0:0|0:0,0:0:0:0:
90,259,5665,2,0,L|96:216,3,34.0000006484985
104,148,6093,5,4,0:3:0:0:
129,145,6200,1,0,0:0:0:0:
155,142,6307,1,0,0:0:0:0:
180,138,6414,1,0,0:0:0:0:
205,135,6521,1,0,0:0:0:0:
231,132,6628,1,0,0:0:0:0:
256,129,6735,1,0,0:0:0:0:
281,126,6842,1,0,0:0:0:0:
307,123,6950,6,0,L|408:125,2,102.000001945496
232,157,7808,1,0,1:0:0:0:
186,317,8129,1,0,1:0:0:0:
232,157,8450,1,0,1:0:0:0:
295,230,8665,6,0,L|414:226,1,120,4|0,1:2|0:0,0:0:0:0:
453,197,9093,2,0,P|455:157|449:117,1,80,8|0,0:0|0:0,0:0:0:0:
349,37,9522,2,0,P|347:77|353:117,1,80,0|0,1:0|0:0,0:0:0:0:
400,244,9950,2,0,L|391:284,5,26.6666666666667,8|0|0|0|0|0,0:0|0:0|0:0|0:0|0:0|0:0,0:0:0:0:
414,226,10379,6,0,L|295:230,1,120,0|0,1:0|0:0,0:0:0:0:
267,270,10808,2,0,L|187:272,1,80,8|0,0:0|0:0,0:0:0:0:
151,160,11236,2,0,L|231:158,1,80,0|0,1:0|0:0,0:0:0:0:
294,230,11665,1,8,0:0:0:0:
195,292,11879,2,0,L|187:317,2,26.6666666666667
187,272,12093,6,0,P|129:261|72:275,1,120,0|0,1:0|0:0,0:0:0:0:
28,298,12522,2,0,L|31:218,1,80,8|0,0:0|0:0,0:0:0:0:
82,57,12950,1,0,1:0:0:0:
101,152,13165,1,0,0:0:0:0:
246,29,13379,1,8,0:0:0:0:
166,82,13594,1,0,0:0:0:0:
251,125,13808,5,0,1:0:0:0:
306,204,14022,1,0,0:0:0:0:
292,226,14129,1,0,0:0:0:0:
273,245,14236,1,0,0:0:0:0:
249,257,14343,1,0,0:0:0:0:
223,262,14450,1,0,0:0:0:0:
197,260,14557,1,0,0:0:0:0:
172,252,14664,1,0,1:0:0:0:
172,252,15522,6,0,P|166:198|170:144,1,107.999996704102,4|0,0:0|0:0,0:0:0:0:
170,144,15950,1,2,0:0:0:0:
220,74,16165,2,0,L|363:67,1,143.999995605469,2|2,0:0|0:0,0:0:0:0:
411,153,16808,2,0,L|340:150,1,71.9999978027344,2|0,0:0|0:0,0:0:0:0:
224,240,17236,6,0,L|332:235,1,107.999996704102,2|0,0:0|0:0,0:0:0:0:
332,234,17665,1,2,0:0:0:0:
186,317,17879,2,0,P|140:265|148:196,1,143.999995605469,2|2,0:0|0:0,0:0:0:0:
210,67,18522,2,0,P|218:101|213:137,1,71.9999978027344,2|0,0:0|0:0,0:0:0:0:
70,154,18950,6,0,P|51:105|61:53,1,107.999996704102,2|0,0:0|0:0,0:0:0:0:
61,53,19379,1,2,0:0:0:0:
148,196,19593,2,0,L|159:267,1,71.9999978027344,2|0,0:0|0:0,0:0:0:0:
245,270,20022,2,0,L|256:198,1,71.9999978027344,0|2,0:0|0:0,0:0:0:0:
276,114,20450,1,2,0:0:0:0:
353,154,20665,5,2,0:0:0:0:
420,260,20879,1,0,0:0:0:0:
420,260,20986,1,0,0:0:0:0:
420,259,21093,2,0,L|409:294,1,35.9999989013672,2|0,0:0|0:0,0:0:0:0:
336,260,21308,2,0,L|325:225,1,35.9999989013672
353,154,21522,2,0,L|397:158,3,35.9999989013672,2|0|0|0,0:0|0:0|0:0|0:0,0:0:0:0:
449,118,21950,1,2,0:0:0:0:
276,114,22165,1,0,0:0:0:0:
147,195,22379,6,0,L|152:303,1,107.999996704102,2|0,0:0|0:0,0:0:0:0:
152,303,22808,1,2,0:0:0:0:
270,257,23022,2,0,L|275:113,1,143.999995605469,2|2,0:0|0:0,0:0:0:0:
189,126,23665,2,0,P|158:142|122:145,1,71.9999978027344,2|0,0:0|0:0,0:0:0:0:
275,113,24093,6,0,L|382:108,1,107.999996704102,2|0,0:0|0:0,0:0:0:0:
383,108,24522,1,2,0:0:0:0:
413,262,24736,2,0,L|269:256,1,143.999995605469,2|2,0:0|0:0,0:0:0:0:
198,206,25379,1,2,0:0:0:0:
129,257,25593,1,0,0:0:0:0:
198,206,25808,6,0,L|211:98,1,107.999996704102,2|0,0:0|0:0,0:0:0:0:
210,98,26236,1,2,0:0:0:0:
120,185,26450,2,0,L|128:256,1,71.9999978027344,2|0,0:0|0:0,0:0:0:0:
199,306,26879,1,2,0:0:0:0:
269,256,27093,1,2,0:0:0:0:
306,334,27308,1,0,0:0:0:0:
447,312,27522,5,4,1:3:0:0:
447,312,29236,6,0,L|438:191,1,120,4|0,1:2|0:0,0:0:0:0:
438,192,29665,1,8,0:0:0:0:
361,64,29879,2,0,L|356:144,1,80,0|0,1:0|0:0,0:0:0:0:
259,145,30308,2,0,L|253:65,1,80,0|8,0:0|0:0,0:0:0:0:
162,32,30736,1,0,0:0:0:0:
109,168,30950,6,0,P|92:224|106:282,1,120,0|0,1:0|0:0,0:0:0:0:
106,282,31379,1,8,0:0:0:0:
191,328,31593,2,0,L|270:324,1,80,0|0,1:0|0:0,0:0:0:0:
362,292,32022,1,0,0:0:0:0:
336,199,32236,1,8,0:0:0:0:
311,106,32450,1,0,0:0:0:0:
242,175,32665,6,0,P|188:196|131:182,1,120,0|0,1:0|0:0,0:0:0:0:
129,181,33093,1,8,0:0:0:0:
62,114,33308,2,0,L|70:34,1,80,0|0,1:0|0:0,0:0:0:0:
129,181,33736,2,0,L|120:260,1,80,0|8,0:0|0:0,0:0:0:0:
163,347,34165,1,0,0:0:0:0:
325,287,34379,6,0,P|333:248|328:208,1,80,0|0,1:0|0:0,0:0:0:0:
212,61,34808,2,0,P|203:99|208:139,1,80,8|0,0:0|0:0,0:0:0:0:
381,118,35236,2,0,P|342:110|303:115,1,80,0|0,1:0|0:0,0:0:0:0:
155,230,35665,2,0,P|193:238|233:233,1,80,8|0,0:0|0:0,0:0:0:0:
323,201,36093,6,0,L|447:197,1,120,0|0,1:0|0:0,0:0:0:0:
442,197,36522,1,8,0:0:0:0:
303,115,36736,2,0,L|223:117,1,80,0|0,1:0|0:0,0:0:0:0:
304,299,37165,1,0,0:0:0:0:
304,299,37379,2,0,L|383:296,1,80,8|0,0:0|0:0,0:0:0:0:
232,232,37808,6,0,P|176:218|124:246,1,120,0|0,1:0|0:0,0:0:0:0:
124,246,38236,1,8,0:0:0:0:
120,150,38450,2,0,L|103:71,1,80,0|0,1:0|0:0,0:0:0:0:
240,38,38879,1,0,0:0:0:0:
240,38,39093,2,0,L|223:116,1,80,8|0,0:0|0:0,0:0:0:0:
329,218,39522,6,0,L|448:213,1,120,0|0,1:0|0:0,0:0:0:0:
448,213,39950,1,8,0:0:0:0:
293,307,40165,1,0,0:0:0:0:
197,302,40379,2,0,L|180:223,1,80,0|0,1:0|0:0,0:0:0:0:
312,139,40808,2,0,L|328:217,1,80,8|0,0:0|0:0,0:0:0:0:
165,292,41236,6,0,L|148:213,1,80,0|0,1:0|0:0,0:0:0:0:
226,157,41665,1,0,0:0:0:0:
256,160,41772,1,0,0:0:0:0:
286,154,41879,1,0,0:0:0:0:
312,139,41986,1,0,0:0:0:0:
332,118,42093,5,0,0:0:0:0:
322,135,42200,1,0,0:0:0:0:
316,154,42307,1,0,0:0:0:0:
314,174,42414,1,0,0:0:0:0:
317,194,42521,1,0,0:0:0:0:
323,213,42628,1,0,0:0:0:0:
334,230,42735,1,0,0:0:0:0:
347,244,42842,1,0,0:0:0:0:
363,255,42950,6,0,P|297:245|238:276,1,136.000002593994,4|0,0:3|0:0,0:0:0:0:
176,329,43593,1,0,0:0:0:0:
121,268,43808,1,0,0:0:0:0:
132,187,44022,2,0,L|130:119,1,68.0000012969971,0|2,0:0|0:0,0:0:0:0:
293,118,44665,5,0,0:0:0:0:
449,166,45093,1,2,0:0:0:0:
402,322,45522,1,0,0:0:0:0:
246,274,45950,1,2,0:0:0:0:
100,348,46379,6,0,P|75:286|77:219,1,136.000002593994,0|2,0:0|0:0,0:0:0:0:
47,58,47236,2,0,P|109:32|176:34,1,136.000002593994,0|2,0:0|0:0,0:0:0:0:
249,73,47879,1,0,0:0:0:0:
269,152,48093,6,0,P|299:165|333:169,1,68.0000012969971
402,213,48522,2,0,P|388:243|384:277,1,68.0000012969971,2|0,0:0|0:0,0:0:0:0:
427,346,48950,2,0,L|449:350,9,22.666667098999
384,277,49808,6,0,P|326:268|280:304,1,120,12|0,0:0|0:0,0:0:0:0:
280,305,50236,1,8,0:0:0:0:
188,276,50450,2,0,L|176:196,1,80,0|8,0:0|0:0,0:0:0:0:
249,47,50879,1,0,0:0:0:0:
249,143,51093,1,8,0:0:0:0:
166,95,51308,1,0,0:0:0:0:
350,155,51522,6,0,L|338:234,1,80,8|0,0:0|0:0,0:0:0:0:
327,329,51950,1,8,0:0:0:0:
414,291,52165,1,0,0:0:0:0:
274,98,52379,2,0,L|262:177,1,80,8|0,0:0|0:0,0:0:0:0:
251,272,52807,1,8,0:0:0:0:
338,234,53022,1,0,0:0:0:0:
425,194,53236,6,0,L|473:201,1,40,8|0,0:0|0:0,0:0:0:0:
371,115,53450,2,0,L|419:108,1,40,8|0,0:0|0:0,0:0:0:0:
338,234,53665,2,0,L|345:282,1,40,8|0,0:0|0:0,0:0:0:0:
289,345,53879,2,0,L|283:384,1,40,8|0,0:0|0:0,0:0:0:0:
218,301,54093,5,8,0:2:0:0:
189,293,54200,1,8,0:2:0:0:
165,276,54307,1,8,0:2:0:0:
145,253,54414,1,8,0:2:0:0:
134,226,54521,1,8,0:2:0:0:
131,196,54628,1,8,0:2:0:0:
136,167,54735,1,8,0:2:0:0:
150,140,54842,1,8,0:2:0:0:
171,119,54950,5,8,1:2:0:0:
308,253,55379,1,0,1:0:0:0:
356,68,55808,1,0,1:0:0:0:
356,67,56236,6,0,P|423:73|444:137,1,143.999995605469,4|0,1:2|0:0,0:0:0:0:
430,185,56665,6,0,L|427:264,1,80,4|0,1:2|0:0,0:0:0:0:
341,382,57093,2,0,L|339:303,1,80,8|0,0:0|0:0,0:0:0:0:
300,163,57522,1,0,1:0:0:0:
212,201,57736,1,0,0:0:0:0:
268,29,57950,1,8,0:0:0:0:
356,67,58164,1,0,0:0:0:0:
212,201,58379,6,0,P|159:226|103:208,1,120,0|0,1:0|0:0,0:0:0:0:
103,208,58808,1,8,0:0:0:0:
72,116,59022,2,0,L|147:88,1,80,0|0,0:0|1:0,0:0:0:0:
264,75,59450,1,0,0:0:0:0:
302,163,59665,1,8,0:0:0:0:
340,251,59879,1,0,0:0:0:0:
398,175,60093,6,0,L|477:177,1,80,0|0,1:0|0:0,0:0:0:0:
340,251,60522,2,0,L|260:253,1,80,8|0,0:0|0:0,0:0:0:0:
173,294,60950,1,0,1:0:0:0:
192,199,61165,1,0,0:0:0:0:
87,61,61379,1,8,0:0:0:0:
106,156,61594,1,0,0:0:0:0:
202,69,61808,6,0,L|281:59,1,80,0|0,1:0|0:0,0:0:0:0:
446,110,62236,2,0,L|367:101,1,80,8|0,0:2|0:0,0:0:0:0:
237,192,62665,2,0,L|317:183,1,80,0|0,1:0|0:0,0:0:0:0:
482,234,63093,2,0,L|402:224,1,80,8|0,0:2|0:0,0:0:0:0:
326,284,63522,6,0,P|279:318|221:314,1,120,0|0,1:0|0:0,0:0:0:0:
221,314,63950,1,8,0:0:0:0:
118,243,64165,2,0,L|131:83,1,160,0|0,1:0|0:0,0:0:0:0:
253,26,64808,2,0,L|247:106,1,80,8|0,0:0|0:0,0:0:0:0:
326,284,65236,6,0,L|336:164,1,120,0|0,1:0|0:0,0:0:0:0:
336,164,65665,1,8,0:0:0:0:
150,107,65879,2,0,L|137:267,1,160,0|0,1:0|0:0,0:0:0:0:
221,314,66522,1,8,0:0:0:0:
92,363,66736,1,0,0:0:0:0:
221,313,66950,6,0,P|259:305|298:312,1,80,0|0,1:0|0:0,0:0:0:0:
392,364,67379,2,0,P|383:326|391:287,1,80,8|0,0:0|0:0,0:0:0:0:
442,192,67808,2,0,P|403:200|364:193,1,80,0|0,1:0|0:0,0:0:0:0:
273,161,68236,1,8,0:0:0:0:
365,85,68450,1,0,0:0:0:0:
273,161,68665,5,0,1:0:0:0:
124,93,68879,1,0,1:0:0:0:
269,184,69093,1,0,1:0:0:0:
103,236,69308,2,0,L|76:236,3,26.6666666666667,0|0|0|0,1:0|1:0|1:0|1:0,0:0:0:0:
154,338,69736,6,0,P|241:305|324:347,1,191.999994140625,4|0,1:2|0:0,0:0:0:0:
440,291,70379,6,0,L|436:211,1,80,4|0,1:2|0:0,0:0:0:0:
359,77,70808,2,0,L|355:157,1,80,8|0,0:0|0:0,0:0:0:0:
289,227,71236,1,0,1:0:0:0:
271,133,71450,1,0,0:0:0:0:
135,208,71665,1,8,0:0:0:0:
205,273,71879,1,0,0:0:0:0:
174,120,72093,6,0,P|116:113|65:142,1,120,0|0,1:0|0:0,0:0:0:0:
65,142,72522,1,8,0:0:0:0:
126,286,72736,2,0,L|204:272,1,80,0|0,0:0|1:0,0:0:0:0:
315,144,73165,1,0,0:0:0:0:
314,240,73379,1,8,0:0:0:0:
231,191,73593,1,0,0:0:0:0:
284,325,73808,6,0,L|363:339,1,80,0|0,1:0|0:0,0:0:0:0:
393,157,74236,2,0,L|314:143,1,80,8|0,0:0|0:0,0:0:0:0:
225,107,74665,1,0,1:0:0:0:
301,48,74879,1,0,0:0:0:0:
182,183,75093,1,8,0:0:0:0:
106,124,75307,1,0,0:0:0:0:
48,237,75522,6,0,L|128:240,1,80,0|0,1:0|0:0,0:0:0:0:
266,317,75950,2,0,L|187:315,1,80,8|0,1:2|0:0,0:0:0:0:
231,191,76379,1,0,1:0:0:0:
384,179,76593,2,0,L|406:140,2,26.6666666666667,0|0|0,1:0|1:0|1:0,0:0:0:0:
374,195,76808,6,0,L|230:190,1,143.999995605469,12|0,0:0|0:0,0:0:0:0:
182,183,77236,6,0,P|190:125|169:69,1,120,4|0,1:2|0:0,0:0:0:0:
169,69,77665,1,8,0:0:0:0:
45,105,77879,2,0,L|40:264,1,160,0|0,1:0|0:0,0:0:0:0:
116,323,78522,2,8,P|155:317|188:295,1,80,8|0,0:0|0:0,0:0:0:0:
287,200,78950,6,0,L|284:320,1,120,0|0,1:0|0:0,0:0:0:0:
284,319,79379,1,8,0:0:0:0:
368,149,79593,2,0,P|305:105|229:123,1,160,0|0,1:0|0:0,0:0:0:0:
166,196,80236,1,8,0:0:0:0:
140,75,80450,1,0,0:0:0:0:
70,198,80665,6,0,P|65:237|71:277,1,80,0|0,1:0|0:0,0:0:0:0:
284,320,81093,2,0,P|288:280|282:240,1,80,8|0,0:0|0:0,0:0:0:0:
229,123,81522,1,0,1:0:0:0:
257,133,81629,1,0,1:0:0:0:
287,136,81736,1,0,1:0:0:0:
317,133,81843,1,0,1:0:0:0:
345,123,81950,1,0,1:0:0:0:
370,106,82057,1,0,1:0:0:0:
390,85,82164,1,0,1:0:0:0:
405,59,82271,1,0,1:0:0:0:
414,30,82379,5,0,1:0:0:0:
384,226,82593,1,0,1:0:0:0:
477,140,82808,1,0,1:0:0:0:
287,136,83022,2,0,L|261:129,3,26.6666666666667,0|0|0|0,1:0|1:0|1:0|1:0,0:0:0:0:
151,158,83450,5,0,1:0:0:0:
261,38,83665,1,0,1:0:0:0:
298,247,83879,1,4,0:0:0:0:
256,192,84093,12,0,85808,0:0:0:0:
