osu file format v14

[General]
AudioFilename: audio.mp3
AudioLeadIn: 0
PreviewTime: 58414
Countdown: 0
SampleSet: Soft
StackLeniency: 0.3
Mode: 0
LetterboxInBreaks: 0
WidescreenStoryboard: 0

[Editor]
Bookmarks: 616,6463,12140,18176,24030,29884,35737,41591,47445,53298,58969,65006,70676,76713,82384,88603
DistanceSpacing: 1.1
BeatDivisor: 2
GridSize: 4
TimelineZoom: 1.6

[Metadata]
Title:Alicia (TV Size)
TitleUnicode:アリシア (TV Size)
Artist:ClariS
ArtistUnicode:ClariS
Creator:Andrea
Version:Normal
Source:マギアレコード 魔法少女まどか☆マギカ外伝
Tags:Ending Puella Magi Madoka Magica Side Story: Magia Record Mahou Shoujo Madoka☆Magica Gaiden Anime Japanese osuplayer111 Sekai Sekaii Sekai-nyan Collaboration Clara Karen
BeatmapID:2286340
BeatmapSetID:1093989

[Difficulty]
HPDrainRate:4
CircleSize:4
OverallDifficulty:4
ApproachRate:5
SliderMultiplier:1
SliderTickRate:1

[Events]
//Background and Video events
0,0,"BG.jpg",0,0
Video,250,"Video.mp4"
//Break Periods
//Storyboard Layer 0 (Background)
//Storyboard Layer 1 (Fail)
//Storyboard Layer 2 (Pass)
//Storyboard Layer 3 (Foreground)
//Storyboard Layer 4 (Overlay)
//Storyboard Sound Samples

[TimingPoints]
610,365.853658536585,4,2,1,40,1,0
610,-100,4,2,1,40,0,0
2805,-100,4,2,1,30,0,0
3536,-100,4,2,1,40,0,0
12134,-100,4,2,2,60,0,0
12317,-100,4,2,1,60,0,0
16799,-100,4,2,1,5,0,0
16890,-100,4,2,1,60,0,0
18170,-100,4,2,2,60,0,0
18353,-100,4,2,1,60,0,0
23475,-100,4,2,1,50,0,0
24024,-100,4,2,1,50,0,0
32805,-100,4,2,1,60,0,0
46707,-100,4,2,1,50,0,0
47439,-100,4,2,2,60,0,0
47622,-100,4,2,1,60,0,0
53292,-100,4,2,1,70,0,0
56219,-100,4,2,1,60,0,0
57500,-100,4,2,1,60,0,0
58414,-100,4,2,1,50,0,0
58963,-100,4,2,2,70,0,1
59146,-100,4,2,1,70,0,1
70579,-100,4,2,1,70,0,0
70670,-100,4,2,2,70,0,1
70853,-100,4,2,1,70,0,1
76341,-100,4,2,1,50,0,1
76707,-100,4,2,1,70,0,1
83841,-100,4,2,1,70,0,0
84390,-100,4,2,1,60,0,0
85305,-100,4,2,1,70,0,0
85396,-100,4,2,1,60,0,0
86219,-100,4,2,1,50,0,0
86951,-100,4,2,1,40,0,0
87683,-100,4,2,1,30,0,0
88049,-100,4,2,1,20,0,0
88414,-100,4,2,1,10,0,0
88597,-100,4,2,1,5,0,0

[Colours]
Combo1 : 164,225,255
Combo2 : 0,124,185
SliderBorder : 0,124,185
SliderTrackOverride : 200,222,234

[HitObjects]
112,104,610,6,0,P|164:104|204:72,1,100,2|2,0:0|0:0,0:0:0:0:
310,76,1341,2,0,P|350:104|400:104,1,100,2|2,0:0|0:0,0:0:0:0:
468,192,2073,1,2,0:0:0:0:
400,281,2439,1,2,0:0:0:0:
332,368,2805,5,2,0:0:0:0:
332,368,2988,2,0,P|280:368|248:336,1,100,0|0,0:0|0:0,0:0:0:0:
220,288,3536,6,0,L|120:288,1,100,2|0,0:0|0:0,0:0:0:0:
64,192,4268,1,2,0:0:0:0:
120,96,4634,2,0,L|180:96,1,50,2|0,0:0|0:0,0:0:0:0:
224,96,5000,1,2,0:0:0:0:
420,192,5731,6,0,P|440:236|420:280,1,100,2|0,0:0|0:0,0:0:0:0:
384,320,6280,1,0,0:0:0:0:
384,320,6463,2,0,P|339:340|295:320,1,100,2|0,0:0|0:0,0:0:0:0:
232,232,7195,2,0,P|187:212|143:232,1,100,2|0,0:0|0:0,0:0:0:0:
88,236,7744,1,0,0:0:0:0:
88,236,7927,2,0,P|68:191|88:147,1,100,2|0,0:0|0:0,0:0:0:0:
168,72,8658,6,0,L|216:48,1,50,2|0,0:0|0:0,0:0:0:0:
248,84,9024,2,0,L|296:60,1,50,0|0,0:0|0:0,0:0:0:0:
344,80,9390,2,0,P|389:60|433:80,1,100,2|0,0:0|0:0,0:0:0:0:
436,188,10122,2,0,P|391:208|347:188,1,100,2|2,0:0|0:0,0:0:0:0:
324,140,10670,2,0,L|264:140,1,50,0|0,0:0|1:0,0:0:0:0:
220,236,11219,6,0,L|164:236,1,50,2|0,0:0|0:0,0:0:0:0:
116,236,11585,2,0,P|96:280|116:324,1,100,2|8,0:0|0:0,0:0:0:0:
164,352,12134,6,0,B|216:352|216:352|252:336|252:336|312:336,1,150,12|8,0:0|0:0,0:0:0:0:
420,336,13049,2,0,P|440:291|420:247,1,100,2|8,0:0|0:0,0:0:0:0:
376,216,13597,2,0,P|355:171|375:127,1,100,4|0,0:0|0:0,0:0:0:0:
420,96,14146,1,8,0:0:0:0:
420,96,14329,6,0,B|384:52|340:52|340:52|284:52,1,150,2|8,0:0|0:0,0:0:0:0:
228,52,15061,2,0,B|172:52|172:52|128:52|92:96,1,150,4|8,0:0|0:0,0:0:0:0:
100,148,15792,2,0,L|183:280,1,150,2|8,0:0|0:0,0:0:0:0:
212,320,16524,5,4,0:0:0:0:
364,260,17073,2,0,P|416:260|448:228,1,100,10|8,0:0|0:0,0:0:0:0:
388,136,17805,2,0,L|356:92,1,50,2|2,0:0|0:0,0:0:0:0:
324,52,18170,6,0,P|272:52|240:84,1,100,12|8,0:0|0:0,0:0:0:0:
132,64,18902,2,0,L|128:168,1,100,10|10,0:0|0:0,0:0:0:0:
128,220,19451,1,2,0:0:0:0:
128,220,19634,2,0,P|163:253|212:252,1,100,10|8,0:0|0:0,0:0:0:0:
304,312,20366,2,0,L|404:296,1,100,10|8,0:0|0:0,0:0:0:0:
456,280,20914,1,8,0:0:0:0:
456,280,21097,6,0,P|476:236|457:191,1,100,4|8,0:0|0:0,0:0:0:0:
408,168,21646,2,0,P|387:123|407:78,1,100,4|2,0:0|0:0,0:0:0:0:
292,64,22378,2,0,B|256:20|212:20|212:20|156:20,1,150,4|8,0:0|0:0,0:0:0:0:
100,20,23109,1,4,0:0:0:0:
100,132,23475,2,0,L|204:132,1,100,2|0,0:0|0:0,0:0:0:0:
256,132,24024,6,0,P|308:132|344:160,1,100,0|2,1:0|1:2,0:0:0:0:
312,264,24756,2,0,P|260:264|224:236,1,100,0|2,1:0|1:2,0:0:0:0:
176,208,25305,1,0,0:0:0:0:
176,208,25488,2,0,L|104:288,1,100,0|2,1:0|1:2,0:0:0:0:
76,176,26219,1,0,1:0:0:0:
148,92,26585,1,2,1:2:0:0:
256,68,26951,6,0,P|301:47|346:67,1,100,0|2,1:0|1:2,0:0:0:0:
376,112,27500,1,0,0:0:0:0:
420,212,27866,2,0,P|441:257|421:302,1,100,2|0,0:0|0:0,0:0:0:0:
392,348,28414,1,0,1:0:0:0:
280,348,28780,1,2,1:2:0:0:
280,348,28963,1,0,0:0:0:0:
168,348,29329,2,0,P|123:369|78:349,1,100,2|0,0:0|0:0,0:0:0:0:
40,312,29878,6,0,P|19:267|39:222,1,100,4|2,1:2|1:2,0:0:0:0:
80,124,30609,2,0,B|136:124|136:124|172:152,1,100,0|2,1:0|1:2,0:0:0:0:
212,188,31158,1,0,0:0:0:0:
212,188,31341,2,0,P|257:209|302:189,1,100,0|2,1:0|1:2,0:0:0:0:
340,152,31890,2,0,B|374:124|374:124|430:124,1,100,0|0,0:0|0:0,0:0:0:0:
484,124,32439,1,2,1:2:0:0:
456,232,32805,6,0,L|416:292,2,50,4|0|10,0:0|0:0|0:0,0:0:0:0:
404,244,33353,2,0,L|340:336,1,100,0|2,1:0|1:2,0:0:0:0:
236,320,34085,2,0,L|293:237,1,100,4|0,0:0|0:0,0:0:0:0:
324,192,34634,1,8,0:0:0:0:
256,104,35000,2,0,L|256:48,2,50,2|0|8,0:0|0:0|0:0,0:0:0:0:
188,192,35731,6,0,P|136:192|104:224,1,100,0|2,1:0|1:2,0:0:0:0:
104,280,36280,1,0,1:0:0:0:
104,280,36463,2,0,P|139:313|188:312,1,100,0|2,0:0|0:0,0:0:0:0:
292,276,37195,1,0,0:0:0:0:
396,240,37561,1,2,0:0:0:0:
396,240,37744,6,0,B|412:192|412:192|396:144,1,100,12|2,0:0|0:0,0:0:0:0:
303,85,38475,1,0,0:0:0:0:
303,85,38658,2,0,B|256:69|256:69|208:85,1,100,0|2,1:0|1:2,0:0:0:0:
156,104,39207,1,0,1:0:0:0:
156,104,39390,6,0,B|108:120|108:120|61:104,2,100,0|2|0,0:0|0:0|0:0,0:0:0:0:
208,200,40488,1,2,0:0:0:0:
256,300,40853,2,0,L|308:300,1,50,2|0,0:0|0:0,0:0:0:0:
360,300,41219,1,2,0:0:0:0:
450,237,41585,6,0,P|471:192|451:147,1,100,0|2,1:0|1:2,0:0:0:0:
408,116,42134,2,0,L|432:72,1,50,0|0,1:0|0:0,0:0:0:0:
320,76,42683,2,0,L|296:120,1,50,2|8,0:0|0:0,0:0:0:0:
264,168,43049,6,0,B|217:184|217:184|169:168,1,100,2|0,0:0|0:0,0:0:0:0:
114,170,43597,2,0,P|93:215|113:260,1,100,0|2,0:0|0:0,0:0:0:0:
156,292,44146,1,0,0:0:0:0:
264,300,44512,6,0,L|264:356,2,50,0|0|2,1:0|1:0|1:2,0:0:0:0:
288,252,45061,2,0,P|333:231|378:251,1,100,0|0,1:0|0:0,0:0:0:0:
424,272,45609,1,2,0:0:0:0:
424,272,45792,2,0,L|472:172,1,100,4|0,1:2|0:0,0:0:0:0:
492,132,46341,1,8,0:0:0:0:
424,44,46707,6,0,P|457:41|485:49,2,50,10|8|8,0:0|0:0|0:0,0:0:0:0:
381,77,47256,1,8,0:0:0:0:
381,77,47439,6,0,P|336:95|292:74,1,100,12|8,0:0|0:0,0:0:0:0:
241,57,47988,1,2,0:0:0:0:
132,72,48353,1,0,0:0:0:0:
132,72,48536,2,0,L|152:180,1,100,8|2,0:0|0:0,0:0:0:0:
259,155,49268,1,8,0:0:0:0:
259,155,49451,2,0,L|239:47,1,100,2|0,0:0|0:0,0:0:0:0:
344,20,50183,1,0,0:0:0:0:
344,20,50366,6,0,B|384:20|384:20|388:16|388:16|388:24|388:24|392:20|392:20|436:20,1,100,4|8,0:0|0:0,0:0:0:0:
508,100,51097,1,2,0:0:0:0:
468,204,51463,2,0,L|440:248,1,50,8|0,0:0|0:0,0:0:0:0:
412,292,51829,2,0,P|433:337|413:382,1,100,2|8,0:0|0:0,0:0:0:0:
312,340,52561,1,2,0:0:0:0:
200,340,52927,2,0,L|156:304,1,50,4|0,1:2|0:0,0:0:0:0:
118,274,53292,6,0,P|99:229|120:185,2,100,12|10|8,0:0|0:0|0:0,0:0:0:0:
216,228,54390,2,0,L|260:192,1,50,10|0,0:0|0:0,0:0:0:0:
298,162,54756,2,0,P|318:118|300:73,2,100,8|10|8,0:0|0:0|0:0,0:0:0:0:
196,120,55853,1,10,0:0:0:0:
100,176,56219,6,0,P|92:296|208:232,1,300,4|0,0:0|0:0,0:0:0:0:
228,192,57500,1,4,1:2:0:0:
304,112,57866,1,4,1:2:0:0:
304,112,58049,1,4,1:2:0:0:
380,192,58414,2,0,P|400:235|382:280,1,100,2|0,0:0|0:0,0:0:0:0:
338,316,58963,6,0,B|290:316|290:316|242:340|242:340|190:340,1,150,12|8,0:0|0:0,0:0:0:0:
144,316,59695,2,0,P|125:271|146:227,1,100,2|0,0:0|0:0,0:0:0:0:
211,138,60427,2,0,P|255:119|299:140,1,100,2|0,0:0|0:0,0:0:0:0:
344,176,60975,2,0,L|404:88,1,100,8|2,0:0|0:0,0:0:0:0:
472,176,61707,2,0,L|444:220,1,50,8|0,0:0|0:0,0:0:0:0:
416,264,62073,6,0,P|364:264|328:292,1,100,2|8,0:0|0:0,0:0:0:0:
284,328,62622,2,0,P|208:328|148:280,1,150,2|8,0:0|0:0,0:0:0:0:
116,244,63353,1,2,0:0:0:0:
64,148,63719,1,2,0:0:0:0:
164,104,64085,1,0,0:0:0:0:
164,104,64268,2,0,B|216:104|216:104|256:72,1,100,2|8,0:0|0:0,0:0:0:0:
344,8,65000,6,0,P|363:52|342:96,1,100,2|8,0:0|0:0,0:0:0:0:
300,132,65549,1,0,0:0:0:0:
300,132,65731,2,0,P|281:176|302:220,1,100,2|8,0:0|0:0,0:0:0:0:
348,252,66280,1,2,0:0:0:0:
276,336,66646,1,0,0:0:0:0:
276,336,66829,2,0,L|168:320,1,100,8|2,0:0|0:0,0:0:0:0:
120,228,67561,5,8,0:0:0:0:
120,228,67744,2,0,L|218:242,1,100,4|2,0:0|0:0,0:0:0:0:
188,136,68475,2,0,L|89:121,1,100,2|0,0:0|0:0,0:0:0:0:
48,20,69207,2,0,L|146:34,1,100,2|0,0:0|0:0,0:0:0:0:
308,72,70122,2,0,L|308:16,2,50,0|0|2,1:0|1:0|0:0,0:0:0:0:
316,128,70670,6,0,P|359:149|404:130,1,100,12|0,0:0|0:0,0:0:0:0:
444,88,71219,1,8,0:0:0:0:
444,88,71402,2,0,L|444:240,1,150,2|8,0:0|0:0,0:0:0:0:
444,292,72134,2,0,P|376:320|308:292,1,150,2|8,0:0|0:0,0:0:0:0:
256,196,73049,1,2,0:0:0:0:
204,292,73414,2,0,L|180:336,1,50,8|0,0:0|0:0,0:0:0:0:
124,344,73780,6,0,P|72:344|36:312,1,100,2|8,0:0|0:0,0:0:0:0:
32,260,74329,2,0,P|59:192|31:124,1,150,2|8,0:0|0:0,0:0:0:0:
0,80,75061,1,4,0:0:0:0:
100,32,75427,1,0,0:0:0:0:
100,32,75609,2,0,P|152:32|188:60,1,100,8|2,0:0|0:0,0:0:0:0:
256,148,76341,2,0,L|312:148,1,50,8|8,0:0|0:0,0:0:0:0:
360,148,76707,6,0,P|412:148|448:176,2,100,12|10|8,0:0|0:0|0:0,0:0:0:0:
312,248,77805,2,0,L|256:248,1,50,10|0,0:0|0:0,0:0:0:0:
208,248,78170,2,0,P|156:248|120:220,1,100,8|10,0:0|0:0,0:0:0:0:
88,116,78902,2,0,L|36:104,2,50,8|0|10,0:0|0:0|0:0,0:0:0:0:
144,124,79451,6,0,P|196:124|232:152,1,100,4|0,0:0|0:0,0:0:0:0:
336,116,80183,2,0,L|444:104,1,100,4|0,0:0|0:0,0:0:0:0:
444,160,80731,1,10,0:0:0:0:
444,160,80914,2,0,L|344:171,1,100,4|0,0:0|0:0,0:0:0:0:
288,180,81463,1,10,0:0:0:0:
380,244,81829,2,0,L|448:236,2,50,0|0|10,0:0|0:0|0:0,0:0:0:0:
324,252,82378,6,0,P|279:271|235:250,1,100,4|0,0:0|0:0,0:0:0:0:
192,216,82927,1,10,0:0:0:0:
192,216,83109,1,0,0:0:0:0:
120,132,83475,2,0,L|88:92,2,50,2|0|2,0:0|0:0|0:0,0:0:0:0:
256,36,84390,5,2,0:0:0:0:
256,36,84573,2,0,P|328:36|388:84,1,150,0|2,0:0|0:0,0:0:0:0:
416,128,85305,1,4,1:2:0:0:
256,192,85396,12,0,88597,0:0:0:0:
