osu file format v14

[General]
AudioFilename: audio.mp3
AudioLeadIn: 0
PreviewTime: 58414
Countdown: 0
SampleSet: Soft
StackLeniency: 0.3
Mode: 0
LetterboxInBreaks: 0
WidescreenStoryboard: 1

[Editor]
Bookmarks: 616,6469,12140,18176,24030,29884,35737,41591,47445,53298,58969,65006,70676,76713,82384,88603
DistanceSpacing: 1.3
BeatDivisor: 4
GridSize: 4
TimelineZoom: 1.6

[Metadata]
Title:Alicia (TV Size)
TitleUnicode:アリシア (TV Size)
Artist:ClariS
ArtistUnicode:ClariS
Creator:Andrea
Version:Hard
Source:マギアレコード 魔法少女まどか☆マギカ外伝
Tags:Ending Puella Magi Madoka Magica Side Story: Magia Record Mahou Shoujo Madoka☆Magica Gaiden Anime Japanese osuplayer111 Sekai Sekaii Sekai-nyan Collaboration Clara Karen
BeatmapID:2286339
BeatmapSetID:1093989

[Difficulty]
HPDrainRate:6
CircleSize:4.5
OverallDifficulty:7
ApproachRate:8
SliderMultiplier:1.4
SliderTickRate:1

[Events]
//Background and Video events
0,0,"BG.jpg",0,0
Video,250,"Video.mp4"
//Break Periods
//Storyboard Layer 0 (Background)
//Storyboard Layer 1 (Fail)
//Storyboard Layer 2 (Pass)
//Storyboard Layer 3 (Foreground)
//Storyboard Layer 4 (Overlay)
//Storyboard Sound Samples

[TimingPoints]
610,365.853658536585,4,2,1,40,1,0
610,-133.333333333333,4,2,1,40,0,0
2805,-133.333333333333,4,2,1,30,0,0
3536,-133.333333333333,4,2,1,40,0,0
12134,-100,4,2,2,60,0,0
12317,-100,4,2,1,60,0,0
16799,-100,4,2,1,5,0,0
16890,-100,4,2,1,60,0,0
18170,-100,4,2,2,60,0,0
18353,-100,4,2,1,60,0,0
23475,-100,4,2,1,50,0,0
24024,-117.647058823529,4,2,1,50,0,0
32805,-111.111111111111,4,2,1,60,0,0
46707,-111.111111111111,4,2,1,50,0,0
47439,-100,4,2,2,60,0,0
47622,-100,4,2,1,60,0,0
53292,-100,4,2,1,70,0,0
56219,-133.333333333333,4,2,1,60,0,0
57500,-100,4,2,1,60,0,0
58414,-100,4,2,1,50,0,0
58963,-100,4,2,2,70,0,1
59146,-100,4,2,1,70,0,1
70579,-100,4,2,1,70,0,0
70670,-100,4,2,2,70,0,1
70853,-100,4,2,1,70,0,1
76341,-100,4,2,1,50,0,1
76707,-100,4,2,1,70,0,1
83384,-100,4,2,1,60,0,1
83841,-100,4,2,1,60,0,0
84390,-133.333333333333,4,2,1,60,0,0
85305,-133.333333333333,4,2,1,70,0,0
85396,-133.333333333333,4,2,1,60,0,0
86219,-133.333333333333,4,2,1,50,0,0
86951,-133.333333333333,4,2,1,40,0,0
87683,-133.333333333333,4,2,1,30,0,0
88049,-133.333333333333,4,2,1,20,0,0
88414,-133.333333333333,4,2,1,10,0,0
88597,-133.333333333333,4,2,1,5,0,0

[Colours]
Combo1 : 164,225,255
Combo2 : 0,124,185
SliderBorder : 0,124,185
SliderTrackOverride : 200,222,234

[HitObjects]
80,192,610,5,2,0:0:0:0:
80,192,792,1,0,0:0:0:0:
140,140,975,2,0,L|192:140,1,52.5000020027161,2|0,0:0|0:0,0:0:0:0:
256,92,1341,1,2,0:0:0:0:
256,92,1524,1,0,0:0:0:0:
320,140,1707,2,0,L|372:140,1,52.5000020027161,2|0,0:0|0:0,0:0:0:0:
432,192,2073,1,2,0:0:0:0:
432,192,2256,1,0,0:0:0:0:
372,244,2439,2,0,L|320:244,1,52.5000020027161,2|0,0:0|0:0,0:0:0:0:
256,292,2805,6,0,L|200:292,1,52.5000020027161,2|0,0:0|0:0,0:0:0:0:
132,328,3170,2,0,L|80:328,1,52.5000020027161,2|0,0:0|0:0,0:0:0:0:
36,260,3536,6,0,B|36:220|36:220|52:192|52:192|52:160,1,105.000004005432,2|0,0:0|0:0,0:0:0:0:
128,176,4085,2,0,B|128:136|128:136|112:108|112:108|112:76,1,105.000004005432,2|0,0:0|0:0,0:0:0:0:
184,40,4634,1,2,0:0:0:0:
256,76,4817,1,0,0:0:0:0:
328,40,5000,1,2,0:0:0:0:
344,356,5731,6,0,P|316:356|296:344,1,52.5000020027161,2|0,0:0|0:0,0:0:0:0:
216,343,6097,2,0,P|193:356|168:356,1,52.5000020027161,0|0,0:0|0:0,0:0:0:0:
92,328,6463,2,0,P|73:280|93:233,1,105.000004005432,2|0,0:0|0:0,0:0:0:0:
147,176,7012,1,0,0:0:0:0:
147,176,7195,2,0,P|167:128|149:81,1,105.000004005432,2|0,0:0|0:0,0:0:0:0:
208,28,7744,1,0,0:0:0:0:
208,28,7927,2,0,P|255:9|302:29,1,105.000004005432,2|0,0:0|0:0,0:0:0:0:
256,180,8658,6,0,L|256:116,1,52.5000020027161,2|0,0:0|0:0,0:0:0:0:
336,216,9024,2,0,L|336:152,1,52.5000020027161,0|0,0:0|0:0,0:0:0:0:
420,144,9390,2,0,P|439:191|419:238,1,105.000004005432,2|0,0:0|0:0,0:0:0:0:
337,310,9939,2,0,P|316:263|335:215,1,105.000004005432,2|0,0:0|0:0,0:0:0:0:
418,238,10488,1,2,0:0:0:0:
337,310,10670,1,0,0:0:0:0:
432,360,10853,1,0,1:0:0:0:
248,264,11219,5,2,0:0:0:0:
172,244,11402,2,0,L|68:216,1,105.000004005432,0|2,0:0|0:0,0:0:0:0:
16,160,11951,1,8,0:0:0:0:
136,84,12134,6,0,P|196:54|256:84,1,140,12|0,0:0|0:0,0:0:0:0:
268,176,12683,2,0,L|340:44,1,140,8|2,0:0|0:0,0:0:0:0:
420,28,13231,1,0,0:0:0:0:
420,28,13414,1,8,0:0:0:0:
460,108,13597,2,0,L|392:230,1,140,4|0,0:0|0:0,0:0:0:0:
340,308,14146,1,8,0:0:0:0:
316,220,14329,6,0,P|255:189|195:219,1,140,2|0,0:0|0:0,0:0:0:0:
172,308,14878,1,8,0:0:0:0:
256,272,15061,2,0,L|256:128,1,140,4|0,0:0|0:0,0:0:0:0:
256,40,15609,1,8,0:0:0:0:
196,108,15792,6,0,P|256:138|316:108,1,140,2|0,0:0|0:0,0:0:0:0:
356,24,16341,1,8,0:0:0:0:
356,24,16524,2,0,L|428:104,1,105,4|0,0:0|0:0,0:0:0:0:
456,136,16890,2,0,L|484:168,4,35,2|2|10|2|2,0:0|0:0|0:0|0:0|0:0,0:0:0:0:
388,200,17439,1,8,0:0:0:0:
388,200,17622,1,0,0:0:0:0:
324,264,17805,2,0,L|352:296,3,35,2|2|2|2,0:0|0:0|0:0|0:0,0:0:0:0:
376,324,18170,6,0,B|344:338|344:338|312:324,1,70,12|0,0:0|0:0,0:0:0:0:
200,324,18536,2,0,B|168:338|168:338|136:324,1,70,8|0,0:0|0:0,0:0:0:0:
136,224,18902,2,0,B|168:210|168:210|200:224,1,70,10|0,0:0|0:0,0:0:0:0:
256,132,19268,2,0,L|256:84,3,35,10|2|2|2,0:0|0:0|0:0|0:0,0:0:0:0:
224,56,19634,6,0,P|256:44|288:56,1,70,10|0,0:0|0:0,0:0:0:0:
360,100,20000,2,0,P|372:132|359:164,1,70,8|0,0:0|0:0,0:0:0:0:
288,208,20366,2,0,P|255:220|223:208,1,70,10|0,0:0|0:0,0:0:0:0:
152,164,20731,2,0,P|139:132|152:100,1,70,8|8,0:0|0:0,0:0:0:0:
148,56,21006,1,8,0:0:0:0:
148,56,21097,6,0,B|108:56|84:32|84:32|60:56|20:56,1,140,4|8,0:0|0:0,0:0:0:0:
24,164,21646,2,0,B|64:164|88:188|88:188|112:164|152:164,1,140,4|2,0:0|0:0,0:0:0:0:
148,248,22195,1,8,0:0:0:0:
148,248,22378,2,0,P|87:278|27:248,1,140,4|0,0:0|0:0,0:0:0:0:
88,188,22927,1,8,0:0:0:0:
148,248,23109,2,0,L|256:336,1,140,4|0,0:0|0:0,0:0:0:0:
340,296,23658,2,0,L|280:248,1,70,2|0,0:0|0:0,0:0:0:0:
215,195,24024,6,0,P|190:143|215:91,1,119.000002269745,0|2,1:0|1:2,0:0:0:0:
284,32,24573,1,0,0:0:0:0:
284,32,24756,2,0,B|340:12|340:56|400:32,1,119.000002269745,0|2,1:0|1:2,0:0:0:0:
448,108,25305,1,0,0:0:0:0:
448,108,25488,2,0,B|468:164|424:164|448:224,1,119.000002269745,0|2,1:0|1:2,0:0:0:0:
400,300,26036,2,0,B|344:320|344:276|284:300,1,119.000002269745,0|0,0:0|0:0,0:0:0:0:
212,352,26585,1,2,1:2:0:0:
212,352,26768,1,0,0:0:0:0:
132,276,26951,6,0,L|44:184,1,119.000002269745,0|2,1:0|1:2,0:0:0:0:
112,128,27500,2,0,L|200:220,1,119.000002269745,0|0,0:0|0:0,0:0:0:0:
228,132,28049,2,0,P|256:124|284:132,1,59.5000011348725,2|0,1:2|0:0,0:0:0:0:
318,213,28414,2,0,P|346:221|374:213,1,59.5000011348725,0|0,1:0|0:0,0:0:0:0:
412,132,28780,1,2,1:2:0:0:
412,132,28963,2,0,L|488:240,1,119.000002269745,0|2,0:0|0:0,0:0:0:0:
409,261,29512,2,0,L|365:201,1,59.5000011348725,0|0,0:0|0:0,0:0:0:0:
288,104,29878,6,0,P|236:79|184:104,1,119.000002269745,4|2,1:2|1:2,0:0:0:0:
136,180,30427,1,0,0:0:0:0:
136,180,30609,2,0,L|16:136,1,119.000002269745,0|2,1:0|1:2,0:0:0:0:
40,228,31158,1,0,0:0:0:0:
136,180,31341,2,0,P|144:208|136:236,1,59.5000011348725,0|0,1:0|0:0,0:0:0:0:
40,284,31707,2,0,P|31:255|39:227,1,59.5000011348725,2|0,1:2|0:0,0:0:0:0:
112,300,32073,2,0,L|223:340,1,119.000002269745,0|2,1:0|1:2,0:0:0:0:
308,368,32622,1,0,0:0:0:0:
320,236,32805,5,4,0:0:0:0:
256,140,32988,1,0,0:0:0:0:
192,236,33170,1,10,0:0:0:0:
192,236,33353,6,0,P|167:179|191:123,1,125.999996154785,0|2,1:0|1:2,0:0:0:0:
256,56,33902,1,0,0:0:0:0:
321,123,34085,2,0,P|344:180|320:236,1,125.999996154785,4|0,0:0|0:0,0:0:0:0:
256,308,34634,6,0,L|256:376,1,62.9999980773926,8|0,0:0|0:0,0:0:0:0:
172,328,35000,2,0,L|172:265,1,62.9999980773926,2|0,0:0|0:0,0:0:0:0:
88,220,35366,2,0,L|88:288,1,62.9999980773926,8|0,0:0|0:0,0:0:0:0:
88,140,35731,5,0,1:0:0:0:
120,32,35914,1,0,1:0:0:0:
228,64,36097,1,2,1:2:0:0:
196,172,36280,2,0,B|212:216|268:216|268:216|312:216,1,125.999996154785,0|0,1:0|0:0,0:0:0:0:
384,268,36829,2,0,P|396:300|384:332,1,62.9999980773926,2|0,0:0|0:0,0:0:0:0:
312,384,37195,6,0,P|256:359|200:384,1,125.999996154785,0|2,0:0|0:0,0:0:0:0:
125,326,37744,2,0,L|49:226,1,125.999996154785,12|2,0:0|0:0,0:0:0:0:
96,144,38292,2,0,L|136:196,1,62.9999980773926,0|0,0:0|0:0,0:0:0:0:
216,148,38658,5,0,1:0:0:0:
304,77,38841,1,0,1:0:0:0:
374,166,39024,1,2,1:2:0:0:
286,236,39207,1,0,1:0:0:0:
376,260,39390,6,0,L|456:360,2,125.999996154785,0|2|0,0:0|0:0|0:0,0:0:0:0:
308,328,40305,1,0,0:0:0:0:
256,248,40488,1,2,0:0:0:0:
204,328,40670,1,12,0:0:0:0:
152,248,40853,2,0,P|88:248|44:204,1,125.999996154785,0|2,0:0|0:0,0:0:0:0:
100,128,41402,1,0,0:0:0:0:
164,16,41585,5,0,1:0:0:0:
256,84,41768,1,0,1:0:0:0:
348,16,41951,1,2,1:2:0:0:
440,84,42134,2,0,P|464:139|439:195,1,125.999996154785,0|0,1:0|0:0,0:0:0:0:
348,251,42683,2,0,P|340:221|348:189,1,62.9999980773926,2|8,0:0|0:0,0:0:0:0:
312,104,43049,6,0,P|256:79|200:103,1,125.999996154785,2|0,0:0|0:0,0:0:0:0:
164,190,43597,1,0,0:0:0:0:
164,190,43780,2,0,P|172:220|164:251,1,62.9999980773926,2|0,0:0|0:0,0:0:0:0:
84,316,44146,2,0,P|76:285|84:255,1,62.9999980773926
164,368,44512,5,0,1:0:0:0:
256,300,44695,1,0,1:0:0:0:
348,368,44878,1,2,1:2:0:0:
440,300,45061,1,0,1:0:0:0:
348,368,45244,6,0,L|336:232,1,125.999996154785,0|2,0:0|0:0,0:0:0:0:
408,182,45792,2,0,L|420:318,1,125.999996154785,4|0,1:2|0:0,0:0:0:0:
492,240,46341,2,0,L|484:164,1,62.9999980773926,8|0,0:0|0:0,0:0:0:0:
420,108,46707,2,0,P|389:100|359:108,1,62.9999980773926,10|8,0:0|0:0,0:0:0:0:
313,105,46981,1,8,0:0:0:0:
313,105,47073,2,0,P|305:74|312:44,1,62.9999980773926,8|8,0:0|0:0,0:0:0:0:
184,44,47439,6,0,P|123:13|63:43,1,140,12|8,0:0|0:0,0:0:0:0:
123,111,47988,2,0,B|123:167|123:167|119:171|119:171|127:171|127:171|123:175|123:175|123:239,1,140,2|0,0:0|0:0,0:0:0:0:
188,304,48536,1,8,0:0:0:0:
256,364,48719,1,0,0:0:0:0:
324,304,48902,2,0,P|392:296|428:240,1,140,2|8,0:0|0:0,0:0:0:0:
428,144,49451,2,0,P|391:87|324:80,1,140,2|0,0:0|0:0,0:0:0:0:
340,168,50000,1,8,0:0:0:0:
340,168,50183,1,0,0:0:0:0:
244,80,50366,6,0,B|204:80|180:56|180:56|156:80|116:80,1,140,4|8,0:0|0:0,0:0:0:0:
68,160,50914,1,0,0:0:0:0:
68,160,51097,2,0,P|56:192|68:224,1,70,2|0,0:0|0:0,0:0:0:0:
152,312,51463,2,0,P|164:280|152:248,1,70,8|0,0:0|0:0,0:0:0:0:
196,168,51829,6,0,P|256:138|316:168,1,140,2|8,0:0|0:0,0:0:0:0:
360,247,52378,1,0,0:0:0:0:
360,247,52561,2,0,P|348:279|360:312,1,70,2|0,0:0|0:0,0:0:0:0:
223,367,52927,2,0,P|255:355|288:368,1,70,4|0,1:2|0:0,0:0:0:0:
152,312,53292,6,0,L|96:268,1,70,12|0,0:0|0:0,0:0:0:0:
105,169,53658,2,0,L|160:212,1,70,10|0,0:0|0:0,0:0:0:0:
192,132,54024,2,0,B|232:132|256:108|256:108|280:132|320:132,1,140,8|10,0:0|0:0,0:0:0:0:
412,128,54573,1,0,0:0:0:0:
316,64,54756,6,0,B|330:32|330:32|316:0,1,70,8|0,0:0|0:0,0:0:0:0:
196,0,55122,2,0,B|182:32|182:32|196:64,1,70,10|0,0:0|0:0,0:0:0:0:
256,180,55488,2,0,B|256:157|256:157|260:153|260:153|252:153|252:153|256:149|256:149|256:121,1,70,8|0,0:0|0:0,0:0:0:0:
352,192,55853,2,0,B|352:220|352:220|348:224|348:224|356:224|356:224|352:228|352:228|352:250,1,70,10|0,0:0|0:0,0:0:0:0:
344,328,56219,6,0,P|255:376|167:327,1,210.000008010865,4|0,0:0|0:0,0:0:0:0:
104,256,57134,2,0,L|160:244,1,52.5000020027161,2|0,0:0|0:0,0:0:0:0:
244,228,57500,1,4,1:2:0:0:
384,48,57866,5,4,1:2:0:0:
296,60,58049,2,0,L|220:72,1,70,4|0,1:2|0:0,0:0:0:0:
124,84,58414,1,2,0:0:0:0:
192,160,58597,1,0,0:0:0:0:
226,70,58780,1,0,0:0:0:0:
296,144,58963,6,0,L|440:116,1,140,12|0,0:0|0:0,0:0:0:0:
392,208,59512,1,8,0:0:0:0:
392,208,59695,2,0,L|248:236,1,140,2|0,0:0|0:0,0:0:0:0:
164,252,60244,1,8,0:0:0:0:
72,264,60427,2,0,P|41:203|71:143,1,140,2|0,0:0|0:0,0:0:0:0:
164,140,60975,6,0,P|194:79|163:19,1,140,8|2,0:0|0:0,0:0:0:0:
256,20,61524,1,0,0:0:0:0:
256,20,61707,1,8,0:0:0:0:
348,19,61890,2,0,P|317:79|348:140,1,140,2|0,0:0|0:0,0:0:0:0:
428,96,62439,1,8,0:0:0:0:
428,96,62622,2,0,L|320:200,1,140,2|0,0:0|0:0,0:0:0:0:
256,248,63170,1,8,0:0:0:0:
184,193,63353,6,0,L|84:96,1,140,2|0,0:0|0:0,0:0:0:0:
156,40,63902,2,0,L|208:88,1,70,8|0,0:0|0:0,0:0:0:0:
356,40,64268,2,0,L|304:88,1,70,2|0,0:0|0:0,0:0:0:0:
256,164,64634,1,8,0:0:0:0:
208,240,64817,1,0,0:0:0:0:
304,240,65000,6,0,B|332:304|332:304|304:368,1,140,2|8,0:0|0:0,0:0:0:0:
396,332,65549,2,0,B|410:300|410:300|396:268,1,70,0|2,0:0|0:0,0:0:0:0:
303,175,65914,2,0,B|289:207|289:207|303:239,1,70,0|8,0:0|0:0,0:0:0:0:
392,164,66280,2,0,L|472:44,1,140,2|0,0:0|0:0,0:0:0:0:
364,24,66829,1,8,0:0:0:0:
364,24,67012,2,0,L|286:140,1,140,2|0,0:0|0:0,0:0:0:0:
286,140,67561,1,8,0:0:0:0:
192,252,67744,6,0,B|232:252|256:228|256:228|280:252|320:252,1,140,4|0,0:0|0:0,0:0:0:0:
256,332,68292,1,8,0:0:0:0:
192,252,68475,2,0,P|162:192|192:132,1,140,2|0,0:0|0:0,0:0:0:0:
256,68,69024,1,8,0:0:0:0:
319,131,69207,2,0,P|349:191|320:252,1,140,2|0,0:0|0:0,0:0:0:0:
256,360,69756,2,0,B|256:337|256:337|260:333|260:333|252:333|252:333|256:329|256:329|256:301,1,70,10|0,0:0|0:0,0:0:0:0:
256,192,70122,5,0,1:0:0:0:
152,248,70305,1,0,1:0:0:0:
256,301,70488,1,2,0:0:0:0:
256,192,70670,6,0,B|256:128|256:128|260:124|260:124|252:124|252:124|256:120|256:120|256:64,1,140,12|0,0:0|0:0,0:0:0:0:
328,8,71219,1,8,0:0:0:0:
384,80,71402,2,0,P|460:80|508:124,1,140,2|0,0:0|0:0,0:0:0:0:
452,192,71951,1,8,0:0:0:0:
505,263,72134,2,0,P|452:306|384:304,1,140,2|0,0:0|0:0,0:0:0:0:
328,376,72683,6,0,B|276:376|276:376|240:360|240:360|192:360,1,140,8|2,0:0|0:0,0:0:0:0:
124,300,73231,1,0,0:0:0:0:
60,236,73414,1,8,0:0:0:0:
124,172,73597,1,0,0:0:0:0:
188,236,73780,2,0,P|248:206|308:236,1,140,2|8,0:0|0:0,0:0:0:0:
280,324,74329,2,0,L|364:204,1,140,2|0,0:0|0:0,0:0:0:0:
412,132,74878,1,8,0:0:0:0:
320,40,75061,6,0,B|256:12|256:12|192:40,1,140,4|0,0:0|0:0,0:0:0:0:
288,116,75609,2,0,B|256:102|256:102|224:116,1,70,8|0,0:0|0:0,0:0:0:0:
224,208,75975,2,0,B|256:222|256:222|288:208,1,70,2|0,0:0|0:0,0:0:0:0:
372,168,76341,2,0,L|412:168,3,35,8|8|8|8,0:0|0:0|0:0|0:0,0:0:0:0:
452,168,76707,6,0,P|464:135|452:103,1,70,12|0,0:0|0:0,0:0:0:0:
352,32,77073,2,0,P|339:64|352:96,1,70,10|0,0:0|0:0,0:0:0:0:
320,180,77439,2,0,B|280:180|256:156|256:156|232:180|192:180,1,140,8|10,0:0|0:0,0:0:0:0:
100,180,77988,1,0,0:0:0:0:
148,304,78170,6,0,L|192:368,1,70,8|0,0:0|0:0,0:0:0:0:
256,248,78536,2,0,L|256:328,1,70,10|0,0:0|0:0,0:0:0:0:
364,304,78902,2,0,L|320:368,1,70,8|0,0:0|0:0,0:0:0:0:
316,196,79268,1,10,0:0:0:0:
316,196,79451,6,0,P|255:165|195:195,1,140,4|0,0:0|0:0,0:0:0:0:
224,96,80000,1,10,0:0:0:0:
224,96,80183,2,0,P|256:84|288:96,1,70,4|0,0:0|0:0,0:0:0:0:
380,196,80549,2,0,P|348:208|316:196,1,70,0|10,0:0|0:0,0:0:0:0:
376,108,80914,6,0,L|528:92,1,140,4|0,0:0|0:0,0:0:0:0:
449,188,81463,2,0,L|368:197,1,70,10|0,0:0|0:0,0:0:0:0:
352,284,81829,2,0,L|421:276,1,70,0|0,0:0|0:0,0:0:0:0:
421,275,82195,1,10,0:0:0:0:
344,360,82378,6,0,L|204:374,1,140,4|0,0:0|0:0,0:0:0:0:
148,300,82927,2,0,P|135:267|147:235,1,70,10|0,0:0|0:0,0:0:0:0:
180,152,83292,2,0,L|196:116,5,35,10|2|2|2|2|2,0:0|0:0|0:0|0:0|0:0|0:0,0:0:0:0:
212,80,83841,1,2,0:0:0:0:
256,336,84390,5,2,0:0:0:0:
184,288,84573,2,0,P|256:260|328:288,1,157.500006008148,0|2,0:0|0:0,0:0:0:0:
256,364,85305,1,4,1:2:0:0:
256,192,85396,12,0,88597,0:0:0:0:
