osu file format v14

[General]
AudioFilename: audio.mp3
AudioLeadIn: 0
PreviewTime: 58135
Countdown: 0
SampleSet: Soft
StackLeniency: 0.7
Mode: 3
LetterboxInBreaks: 0
SpecialStyle: 0
WidescreenStoryboard: 1

[Editor]
DistanceSpacing: 1.3
BeatDivisor: 4
GridSize: 4
TimelineZoom: 1.3

[Metadata]
Title:Alethea (TV Size)
TitleUnicode:アリシア (TV Size)
Artist:ClariS
ArtistUnicode:ClariS
Creator:Savageeeee
Version:Easy
Source:マギアレコード 魔法少女まどか☆マギカ外伝
Tags:Mirsaaa Puella Magi Madoka Magica Side Story: Magia Record Mahou Shoujo Madoka☆Magica Gaiden Anime Japanese J-Pop Pop JPop Alicia Nanami Yachiyo 七海 やちよ Tamaki Iroha 環 いろは Ending ED
BeatmapID:4472245
BeatmapSetID:2127405

[Difficulty]
HPDrainRate:7
CircleSize:4
OverallDifficulty:7
ApproachRate:5
SliderMultiplier:1.4
SliderTickRate:1

[Events]
//Background and Video events
0,0,"bg.jpg",0,0
//Break Periods
//Storyboard Layer 0 (Background)
//Storyboard Layer 1 (Fail)
//Storyboard Layer 2 (Pass)
//Storyboard Layer 3 (Foreground)
//Storyboard Layer 4 (Overlay)
//Storyboard Sound Samples
Sample,11855,0,"clap.wav",40
Sample,17891,0,"clap.wav",40
Sample,32526,0,"Finish.wav",40
Sample,32709,0,"Finish.wav",40
Sample,37465,0,"Finish.wav",40
Sample,40391,0,"Finish.wav",40
Sample,41672,0,"Snare.wav",40
Sample,45879,0,"Finish.wav",40
Sample,46062,0,"Finish.wav",40
Sample,47160,0,"clap.wav",40
Sample,50087,0,"Finish.wav",40
Sample,58684,0,"clap.wav",40
Sample,63623,0,"Finish.wav",40
Sample,70391,0,"clap.wav",40
Sample,85026,0,"clap.wav",40

[TimingPoints]
331,365.853658536585,4,2,1,40,1,0
58684,-100,4,2,1,40,0,1
83562,-100,4,2,1,40,0,0

[HitObjects]
448,192,331,128,0,696:0:0:0:0:
64,192,696,128,0,1062:0:0:0:0:
320,192,1062,128,0,1428:0:0:0:0:
192,192,1428,128,0,1794:0:0:0:0:
448,192,1794,128,0,2160:0:0:0:0:
64,192,2160,128,0,2526:0:0:0:0:
320,192,2526,1,0,0:0:0:0:
192,192,2709,1,0,0:0:0:0:
448,192,2891,1,0,0:0:0:0:
320,192,3074,1,0,0:0:0:0:
64,192,3257,128,0,3623:0:0:0:0:
192,192,3257,1,0,0:0:0:0:
448,192,3623,1,0,0:0:0:0:
192,192,3806,128,0,4355:0:0:0:0:
320,192,4355,1,0,0:0:0:0:
64,192,4538,128,0,5087:0:0:0:0:
448,192,4721,1,0,0:0:0:0:
192,192,5452,1,0,0:0:0:0:
320,192,5635,1,0,0:0:0:0:
64,192,5818,1,0,0:0:0:0:
192,192,6001,1,0,0:0:0:0:
320,192,6184,1,0,0:0:0:0:
448,192,6184,128,0,6550:0:0:0:0:
64,192,6550,1,0,0:0:0:0:
320,192,6733,128,0,7282:0:0:0:0:
192,192,7282,1,0,0:0:0:0:
448,192,7465,128,0,8013:0:0:0:0:
64,192,7648,1,0,0:0:0:0:
320,192,8379,1,0,0:0:0:0:
64,192,8562,1,0,0:0:0:0:
448,192,8745,1,0,0:0:0:0:
192,192,8928,1,0,0:0:0:0:
320,192,9111,128,0,9477:0:0:0:0:
192,192,9477,1,0,0:0:0:0:
64,192,9660,128,0,10209:0:0:0:0:
192,192,10209,1,0,0:0:0:0:
320,192,10391,1,0,0:0:0:40:Kick.wav
64,192,10574,1,0,0:0:0:40:Kick.wav
448,192,10574,1,0,0:0:0:0:
192,192,10940,1,0,0:0:0:0:
320,192,11123,128,0,11672:0:0:0:0:
192,192,11672,1,0,0:0:0:20:Snare.wav
64,192,11855,1,0,0:0:0:40:Kick.wav
448,192,11855,128,0,12404:0:0:0:40:Finish.wav
320,192,12404,1,0,0:0:0:40:Snare.wav
192,192,12770,128,0,13135:0:0:0:40:Kick.wav
448,192,13135,1,0,0:0:0:40:Snare.wav
64,192,13318,128,0,13867:0:0:0:40:Kick.wav
320,192,13318,1,0,0:0:0:40:Finish.wav
192,192,13867,1,0,0:0:0:40:Snare.wav
448,192,14050,128,0,14599:0:0:0:0:
64,192,14599,1,0,0:0:0:40:Snare.wav
192,192,14782,128,0,15330:0:0:0:40:Kick.wav
320,192,14782,1,0,0:0:0:40:Finish.wav
448,192,15330,1,0,0:0:0:40:Snare.wav
320,192,15513,128,0,16062:0:0:0:0:
192,192,16062,1,0,0:0:0:40:Snare.wav
64,192,16245,128,0,16611:0:0:0:40:Kick.wav
448,192,16245,1,0,0:0:0:40:Finish.wav
320,192,16611,1,0,0:0:0:40:Kick.wav
192,192,16794,1,0,0:0:0:40:Snare.wav
448,192,16977,1,0,0:0:0:40:Kick.wav
192,192,17160,1,0,0:0:0:40:Snare.wav
320,192,17343,128,0,17891:0:0:0:40:Tom2.wav
64,192,17891,1,0,0:0:0:40:Snare.wav
448,192,17891,128,0,18623:0:0:0:40:Finish.wav
64,192,18257,1,0,0:0:0:40:Snare.wav
64,192,18623,128,0,18989:0:0:0:40:Snare.wav
320,192,18989,1,0,0:0:0:40:Snare.wav
192,192,19172,1,0,0:0:0:40:Kick.wav
64,192,19355,128,0,19904:0:0:0:40:Snare.wav
448,192,19355,1,0,0:0:0:0:
448,192,19721,1,0,0:0:0:40:Snare.wav
192,192,19904,1,0,0:0:0:0:
448,192,20087,128,0,20452:0:0:0:40:Snare.wav
192,192,20452,1,0,0:0:0:40:Snare.wav
320,192,20635,1,0,0:0:0:40:Tom1.wav
64,192,20818,128,0,21184:0:0:0:40:Kick.wav
448,192,20818,1,0,0:0:0:40:Finish.wav
192,192,21184,1,0,0:0:0:40:Snare.wav
320,192,21367,128,0,21733:0:0:0:40:Kick.wav
448,192,21367,1,0,0:0:0:40:Finish.wav
192,192,21733,128,0,22099:0:0:0:40:Kick.wav
64,192,22099,1,0,0:0:0:40:Kick.wav
448,192,22099,128,0,22465:0:0:0:40:Finish.wav
320,192,22465,1,0,0:0:0:40:Kick.wav
192,192,22648,1,0,0:0:0:40:Snare.wav
64,192,22830,128,0,23196:0:0:0:40:Kick.wav
448,192,22830,1,0,0:0:0:40:Finish.wav
320,192,23196,1,0,0:0:0:0:
192,192,23379,1,0,0:0:0:0:
320,192,23562,1,0,0:0:0:0:
64,192,23745,1,0,0:0:0:40:Kick.wav
448,192,23745,1,0,0:0:0:0:
64,192,24111,1,0,0:0:0:40:Kick.wav
320,192,24477,1,0,0:0:0:40:Kick.wav
320,192,24843,1,0,0:0:0:40:Kick.wav
192,192,25209,1,0,0:0:0:40:Kick.wav
192,192,25574,1,0,0:0:0:40:Kick.wav
448,192,25940,1,0,0:0:0:40:Kick.wav
448,192,26306,1,0,0:0:0:40:Kick.wav
64,192,26672,1,0,0:0:0:40:Kick.wav
64,192,27038,1,0,0:0:0:40:Kick.wav
320,192,27404,1,0,0:0:0:40:Kick.wav
320,192,27770,1,0,0:0:0:40:Kick.wav
192,192,28135,1,0,0:0:0:40:Kick.wav
448,192,28501,1,0,0:0:0:40:Kick.wav
64,192,28684,1,0,0:0:0:0:
320,192,29050,128,0,29599:0:0:0:0:
64,192,29599,1,0,0:0:0:40:Kick.wav
448,192,29599,1,0,0:0:0:40:Finish.wav
448,192,29965,1,0,0:0:0:40:Kick.wav
192,192,30330,1,0,0:0:0:40:Kick.wav
192,192,30696,1,0,0:0:0:40:Kick.wav
320,192,31062,1,0,0:0:0:40:Kick.wav
320,192,31428,1,0,0:0:0:40:Kick.wav
64,192,31794,1,0,0:0:0:40:Kick.wav
64,192,32160,1,0,0:0:0:40:Kick.wav
448,192,32526,1,0,0:0:0:40:Kick.wav
192,192,32709,1,0,0:0:0:40:Kick.wav
320,192,32891,1,0,0:0:0:40:Snare.wav
64,192,33074,1,0,0:0:0:40:Kick.wav
192,192,33440,1,0,0:0:0:40:Kick.wav
320,192,33806,1,0,0:0:0:40:Kick.wav
448,192,33806,128,0,34172:0:0:0:40:Finish.wav
192,192,34172,1,0,0:0:0:40:Kick.wav
64,192,34355,128,0,34721:0:0:0:40:Snare.wav
192,192,34721,128,0,35087:0:0:0:40:Tom2.wav
320,192,35087,128,0,35452:0:0:0:40:Snare.wav
64,192,35452,128,0,35818:0:0:0:40:Kick.wav
448,192,35452,1,0,0:0:0:0:
320,192,35818,1,0,0:0:0:40:Kick.wav
192,192,36001,128,0,36550:0:0:0:40:Snare.wav
448,192,36550,1,0,0:0:0:40:Kick.wav
320,192,36916,128,0,37282:0:0:0:40:Kick.wav
64,192,37282,1,0,0:0:0:40:Kick.wav
192,192,37465,128,0,37830:0:0:0:40:Snare.wav
448,192,37830,128,0,38196:0:0:0:0:
64,192,38196,1,0,0:0:0:0:
320,192,38379,128,0,39111:0:0:0:40:Snare.wav
64,192,39111,128,0,39477:0:0:0:40:Kick.wav
448,192,39477,1,0,0:0:0:40:Kick.wav
192,192,39843,128,0,40209:0:0:0:40:Kick.wav
448,192,40209,1,0,0:0:0:40:Kick.wav
64,192,40391,1,0,0:0:0:40:Snare.wav
320,192,40574,128,0,40940:0:0:0:40:Kick.wav
192,192,40940,128,0,41306:0:0:0:40:Kick.wav
64,192,41306,1,0,0:0:0:40:Kick.wav
448,192,41306,128,0,41672:0:0:0:40:Snare.wav
192,192,41672,1,0,0:0:0:40:Kick.wav
320,192,41855,128,0,42404:0:0:0:40:Snare.wav
64,192,42404,1,0,0:0:0:40:Kick.wav
448,192,42587,1,0,0:0:0:40:Snare.wav
192,192,42770,128,0,43135:0:0:0:40:Kick.wav
320,192,43135,1,0,0:0:0:40:Kick.wav
64,192,43318,128,0,43684:0:0:0:0:
448,192,43684,1,0,0:0:0:0:
320,192,43867,1,0,0:0:0:40:Kick.wav
192,192,44050,1,0,0:0:0:0:
64,192,44233,128,0,44965:0:0:0:40:Kick.wav
448,192,44233,1,0,0:0:0:40:Snare.wav
320,192,44965,128,0,45330:0:0:0:40:Kick.wav
448,192,45330,1,0,0:0:0:40:Kick.wav
64,192,45513,1,0,0:0:0:40:Snare.wav
192,192,45513,128,0,45879:0:0:0:40:Finish.wav
448,192,45879,1,0,0:0:0:40:Snare.wav
64,192,46062,1,0,0:0:0:40:Snare.wav
320,192,46428,1,0,0:0:0:40:Snare.wav
192,192,46702,1,0,0:0:0:40:Tom2.wav
320,192,46977,1,0,0:0:0:40:Kick.wav
64,192,47160,1,0,0:0:0:40:Kick.wav
448,192,47160,128,0,47526:0:0:0:40:Finish.wav
192,192,47526,1,0,0:0:0:40:Snare.wav
320,192,47709,128,0,48257:0:0:0:40:Tom2.wav
64,192,48257,1,0,0:0:0:40:Snare.wav
192,192,48623,128,0,48989:0:0:0:40:Kick.wav
320,192,48989,1,0,0:0:0:40:Snare.wav
64,192,49172,128,0,49538:0:0:0:40:Tom2.wav
448,192,49538,128,0,49904:0:0:0:40:Tom2.wav
192,192,49904,1,0,0:0:0:40:Tom2.wav
320,192,50087,128,0,51184:0:0:0:40:Kick.wav
64,192,50452,1,0,0:0:0:40:Snare.wav
192,192,50818,1,0,0:0:0:40:Kick.wav
448,192,51184,1,0,0:0:0:40:Snare.wav
64,192,51367,128,0,51916:0:0:0:40:Snare.wav
320,192,51550,1,0,0:0:0:40:Kick.wav
448,192,51916,1,0,0:0:0:40:Snare.wav
192,192,52282,1,0,0:0:0:40:Kick.wav
320,192,52556,1,0,0:0:0:40:Kick.wav
192,192,52830,1,0,0:0:0:40:Snare.wav
64,192,53013,1,0,0:0:0:40:Kick.wav
448,192,53013,1,0,0:0:0:40:Finish.wav
64,192,53379,1,0,0:0:0:40:Snare.wav
448,192,53745,1,0,0:0:0:40:Snare.wav
448,192,54111,1,0,0:0:0:40:Snare.wav
192,192,54477,1,0,0:0:0:40:Snare.wav
192,192,54843,1,0,0:0:0:40:Snare.wav
320,192,55209,1,0,0:0:0:40:Snare.wav
320,192,55574,1,0,0:0:0:40:Snare.wav
64,192,55940,128,0,57221:0:0:0:40:Kick.wav
448,192,55940,1,0,0:0:0:40:Finish.wav
320,192,57221,1,0,0:0:0:40:Snare.wav
192,192,57587,1,0,0:0:0:40:Snare.wav
320,192,57770,1,0,0:0:0:40:Snare.wav
64,192,58135,1,0,0:0:0:0:
192,192,58318,1,0,0:0:0:0:
320,192,58501,1,0,0:0:0:0:
64,192,58684,1,0,0:0:0:40:Kick.wav
448,192,58684,128,0,59233:0:0:0:40:Finish.wav
320,192,59233,1,0,0:0:0:40:Snare.wav
192,192,59416,128,0,59965:0:0:0:0:
448,192,59965,1,0,0:0:0:40:Snare.wav
64,192,60148,128,0,60513:0:0:0:40:Kick.wav
320,192,60513,1,0,0:0:0:40:Kick.wav
192,192,60696,1,0,0:0:0:40:Snare.wav
448,192,61062,1,0,0:0:0:40:Kick.wav
320,192,61245,1,0,0:0:0:40:Kick.wav
192,192,61428,1,0,0:0:0:40:Snare.wav
64,192,61611,128,0,62160:0:0:0:0:
192,192,62160,1,0,0:0:0:40:Snare.wav
320,192,62343,128,0,62891:0:0:0:0:
64,192,62891,1,0,0:0:0:40:Snare.wav
448,192,63074,128,0,63440:0:0:0:40:Kick.wav
192,192,63440,1,0,0:0:0:40:Kick.wav
320,192,63623,1,0,0:0:0:40:Snare.wav
64,192,63989,1,0,0:0:0:0:
448,192,64172,1,0,0:0:0:40:Kick.wav
320,192,64355,1,0,0:0:0:40:Snare.wav
192,192,64538,128,0,65087:0:0:0:0:
448,192,65087,1,0,0:0:0:40:Snare.wav
64,192,65270,128,0,65818:0:0:0:0:
192,192,65818,1,0,0:0:0:40:Snare.wav
320,192,66001,128,0,66550:0:0:0:40:Kick.wav
192,192,66550,1,0,0:0:0:40:Snare.wav
448,192,66733,128,0,67282:0:0:0:40:Kick.wav
320,192,67282,1,0,0:0:0:40:Snare.wav
64,192,67465,128,0,67830:0:0:0:40:Kick.wav
192,192,67465,1,0,0:0:0:40:Finish.wav
320,192,67830,1,0,0:0:0:40:Kick.wav
192,192,68013,1,0,0:0:0:40:Snare.wav
448,192,68196,128,0,68562:0:0:0:40:Kick.wav
64,192,68562,1,0,0:0:0:40:Kick.wav
320,192,68745,1,0,0:0:0:40:Snare.wav
192,192,68928,128,0,69294:0:0:0:40:Kick.wav
448,192,69294,1,0,0:0:0:40:Kick.wav
320,192,69477,128,0,69843:0:0:0:40:Snare.wav
64,192,69843,1,0,0:0:0:40:Snare.wav
192,192,70026,1,0,0:0:0:40:Snare.wav
320,192,70209,1,0,0:0:0:0:
64,192,70391,1,0,0:0:0:40:Kick.wav
448,192,70391,128,0,70940:0:0:0:40:Finish.wav
192,192,70940,1,0,0:0:0:40:Snare.wav
320,192,71123,128,0,71672:0:0:0:0:
192,192,71672,1,0,0:0:0:40:Snare.wav
64,192,71855,128,0,72221:0:0:0:40:Kick.wav
320,192,72221,1,0,0:0:0:40:Kick.wav
192,192,72404,1,0,0:0:0:40:Snare.wav
448,192,72770,1,0,0:0:0:40:Kick.wav
320,192,72952,1,0,0:0:0:40:Kick.wav
192,192,73135,1,0,0:0:0:40:Snare.wav
64,192,73318,128,0,73867:0:0:0:0:
320,192,73867,1,0,0:0:0:40:Snare.wav
192,192,74050,128,0,74599:0:0:0:40:Tom1.wav
320,192,74599,1,0,0:0:0:40:Snare.wav
64,192,74782,1,0,0:0:0:40:Kick.wav
448,192,74782,128,0,75148:0:0:0:40:Finish.wav
192,192,75148,1,0,0:0:0:40:Kick.wav
320,192,75330,1,0,0:0:0:40:Snare.wav
64,192,75696,1,0,0:0:0:20:Snare.wav
448,192,75879,1,0,0:0:0:40:Kick.wav
192,192,76062,1,0,0:0:0:20:Snare.wav
320,192,76245,1,0,0:0:0:20:Snare.wav
64,192,76428,1,0,0:0:0:20:Snare.wav
192,192,76428,1,0,0:0:0:40:Finish.wav
64,192,76794,1,0,0:0:0:40:Snare.wav
448,192,77160,1,0,0:0:0:40:Snare.wav
448,192,77526,1,0,0:0:0:40:Snare.wav
192,192,77891,1,0,0:0:0:40:Snare.wav
192,192,78257,1,0,0:0:0:40:Snare.wav
320,192,78623,1,0,0:0:0:40:Snare.wav
320,192,78989,1,0,0:0:0:40:Snare.wav
64,192,79172,1,0,0:0:0:40:Kick.wav
448,192,79172,1,0,0:0:0:40:Finish.wav
192,192,79538,1,0,0:0:0:40:Kick.wav
320,192,79721,1,0,0:0:0:40:Snare.wav
64,192,79904,1,0,0:0:0:40:Kick.wav
192,192,79904,1,0,0:0:0:40:Finish.wav
320,192,80270,1,0,0:0:0:40:Kick.wav
192,192,80452,1,0,0:0:0:40:Snare.wav
320,192,80635,1,0,0:0:0:40:Kick.wav
448,192,80635,1,0,0:0:0:40:Finish.wav
64,192,81001,1,0,0:0:0:40:Kick.wav
448,192,81184,128,0,81550:0:0:0:40:Snare.wav
192,192,81550,1,0,0:0:0:40:Kick.wav
320,192,81733,1,0,0:0:0:40:Kick.wav
448,192,81916,1,0,0:0:0:40:Snare.wav
64,192,82099,128,0,82648:0:0:0:40:Kick.wav
192,192,82099,1,0,0:0:0:40:Finish.wav
320,192,82648,1,0,0:0:0:40:Snare.wav
192,192,82830,128,0,83379:0:0:0:40:Kick.wav
448,192,83379,1,0,0:0:0:20:Snare.wav
320,192,83562,1,0,0:0:0:40:Kick.wav
64,192,84111,1,0,0:0:0:0:
448,192,84294,128,0,84843:0:0:0:0:
320,192,84843,1,0,0:0:0:0:
64,192,85026,128,0,88318:0:0:0:40:Kick.wav
192,192,85026,1,0,0:0:0:40:Finish.wav
