osu file format v14

[General]
AudioFilename: audio.mp3
AudioLeadIn: 0
PreviewTime: 58135
Countdown: 0
SampleSet: Soft
StackLeniency: 0.7
Mode: 2
LetterboxInBreaks: 0
WidescreenStoryboard: 1

[Editor]
DistanceSpacing: 1.1
BeatDivisor: 4
GridSize: 32
TimelineZoom: 1.9

[Metadata]
Title:Alethea (TV Size)
TitleUnicode:シグナル
Artist:ClariS
ArtistUnicode:ClariS
Creator:Kurizeru
Version:Rain
Source:マギアレコード 魔法少女まどか☆マギカ外伝
Tags:puella magi madoka magica side story magia record mahou shoujo madoka magica gaiden anime japanese 1st season 1 ending ed Alicia
BeatmapID:4158051
BeatmapSetID:1994320

[Difficulty]
HPDrainRate:5
CircleSize:4
OverallDifficulty:9
ApproachRate:9
SliderMultiplier:1.8
SliderTickRate:2

[Events]
//Background and Video events
0,0,"cute ily.jpg",0,0
//Break Periods
//Storyboard Layer 0 (Background)
//Storyboard Layer 1 (Fail)
//Storyboard Layer 2 (Pass)
//Storyboard Layer 3 (Foreground)
//Storyboard Layer 4 (Overlay)
//Storyboard Sound Samples

[TimingPoints]
331,365.853658536585,4,2,1,20,1,0
331,-100,4,2,1,20,0,0
2526,-100,4,2,1,20,0,0
10391,-100,4,2,1,30,0,0
10574,-100,4,2,1,35,0,0
11855,-100,4,2,1,50,0,0
23196,-100,4,2,1,50,0,0
23745,-100,4,2,1,35,0,0
29050,-100,4,2,1,35,0,0
29599,-100,4,2,1,35,0,0
35452,-100,4,2,1,35,0,0
47160,-100,4,2,1,40,0,0
53013,-100,4,2,1,40,0,0
55940,-100,4,2,1,30,0,0
58684,-66.6666666666667,4,2,1,30,0,1
59050,-100,4,2,1,30,0,1
69843,-100,4,2,1,30,0,1
70391,-100,4,2,1,30,0,1
83562,-100,4,2,1,30,0,0

[Colours]
Combo1 : 0,128,192
Combo2 : 255,128,255

[HitObjects]
256,192,331,12,0,2343,0:0:0:0:
262,115,2526,6,0,L|448:116,1,180
256,264,3074,2,0,P|190:242|262:104,1,270
368,168,3806,1,0,0:0:0:0:
205,186,3989,2,0,L|31:189,1,157.5
158,268,4538,1,0,0:0:0:0:
309,255,4721,6,0,L|495:251,2,180
169,216,5635,2,0,L|63:219,1,90
169,216,6001,1,0,0:0:0:0:
263,105,6184,2,0,L|67:107,1,180
174,178,6733,1,0,0:0:0:0:
298,175,6916,2,0,L|424:175,1,90
251,262,7282,6,0,L|139:262,1,90
364,264,7648,1,0,0:0:0:0:
425,228,7830,1,0,0:0:0:0:
425,228,8013,1,0,0:0:0:0:
383,177,8196,1,0,0:0:0:0:
227,174,8379,6,0,P|88:180|40:173,1,180
223,53,8928,2,0,P|281:60|194:97,1,270
325,111,9660,2,0,L|442:112,1,90
221,215,10026,2,0,L|200:104,1,90
512,212,10391,1,8,0:0:0:0:
512,212,10483,1,8,0:0:0:0:
512,212,10574,5,8,0:0:0:0:
256,192,10757,12,0,11672,0:0:0:0:
208,193,11855,6,0,L|3:193,1,180,12|0,0:0|0:0,0:0:0:0:
208,193,12404,1,8,0:0:0:0:
288,117,12587,1,2,0:0:0:0:
201,42,12770,1,8,0:0:0:0:
80,104,12952,2,0,L|-42:104,2,90
251,144,13501,6,0,P|316:120|251:85,1,180,4|0,0:0|0:0,0:0:0:0:
101,149,14050,1,2,0:0:0:0:
274,162,14233,2,0,L|458:156,1,180,4|0,0:0|0:0,0:0:0:0:
295,204,14782,1,2,0:0:0:0:
483,213,14965,2,0,P|536:279|459:306,1,180,4|0,0:0|0:0,0:0:0:0:
297,313,15513,1,2,0:0:0:0:
148,312,15696,2,0,P|116:246|193:169,1,180,4|0,0:0|0:0,0:0:0:0:
301,144,16245,1,0,0:0:0:0:
138,40,16428,6,0,L|93:227,1,180,4|0,0:0|0:0,0:0:0:0:
267,179,16977,2,0,L|381:179,1,90
205,313,17343,5,0,0:0:0:0:
161,306,17434,1,0,0:0:0:0:
135,271,17525,1,0,0:0:0:0:
140,227,17617,1,0,0:0:0:0:
174,200,17708,1,0,0:0:0:0:
384,204,17891,6,0,L|456:94,1,90,8|0,0:0|0:0,0:0:0:0:
235,136,18257,2,0,L|225:32,1,90,8|0,0:0|0:0,0:0:0:0:
418,148,18623,2,0,L|432:20,1,90,8|0,0:0|0:0,0:0:0:0:
206,137,18989,2,0,L|80:140,1,90,8|0,0:0|0:0,0:0:0:0:
364,182,19355,6,0,L|445:178,2,45
223,221,19721,2,0,L|126:223,1,90,8|0,0:0|0:0,0:0:0:0:
348,302,20087,2,0,L|361:170,1,90,8|0,0:0|0:0,0:0:0:0:
78,107,20452,5,8,0:0:0:0:
43,130,20543,1,8,0:0:0:0:
40,168,20634,1,8,0:0:0:0:
73,205,20726,1,8,0:0:0:0:
266,213,20818,6,0,L|377:212,1,90,4|0,0:0|0:0,0:0:0:0:
489,202,21184,1,8,0:0:0:0:
266,213,21367,2,0,L|153:213,1,90,4|0,0:0|0:0,0:0:0:0:
339,214,21733,2,0,L|342:99,1,90,8|0,0:0|0:0,0:0:0:0:
220,126,22099,6,0,L|108:129,1,90,4|0,0:0|0:0,0:0:0:0:
0,113,22465,1,8,0:0:0:0:
258,111,22648,1,8,0:0:0:0:
11,176,22830,2,0,P|-17:119|67:51,1,180,4|0,0:0|0:0,0:0:0:0:
229,124,23379,5,0,0:0:0:0:
229,124,23562,1,0,0:0:0:0:
340,122,23745,2,0,L|450:124,1,90,8|0,0:0|0:0,0:0:0:0:
267,193,24111,1,0,0:0:0:0:
150,192,24294,1,0,0:0:0:0:
333,195,24477,6,0,L|460:190,1,90,8|0,0:0|0:0,0:0:0:0:
333,195,24843,2,0,L|431:193,1,90,8|0,0:0|0:0,0:0:0:0:
215,178,25209,1,0,0:0:0:0:
296,243,25391,2,0,L|413:242,1,90,8|0,0:0|0:0,0:0:0:0:
296,243,25757,1,0,0:0:0:0:
208,238,25940,6,0,L|103:240,1,90,8|0,0:0|0:0,0:0:0:0:
340,249,26306,1,8,0:0:0:0:
187,273,26672,2,0,L|79:269,2,90,8|0|8,0:0|0:0|0:0,0:0:0:0:
330,229,27221,2,0,L|441:229,1,90
220,201,27587,6,0,L|211:86,1,90
364,58,27952,2,0,P|425:114|358:194,1,180
268,206,28501,1,8,0:0:0:0:
126,206,28684,5,0,0:0:0:0:
339,253,29050,2,0,L|457:253,2,90
168,263,29599,6,0,L|138:142,1,90,4|0,0:0|0:0,0:0:0:0:
299,194,29965,1,8,0:0:0:0:
114,171,30148,2,0,L|224:173,1,90
357,159,30513,5,2,0:0:0:0:
405,157,30605,1,2,0:0:0:0:
357,159,30696,1,2,0:0:0:0:
197,141,30879,2,0,L|95:145,1,90,0|8,0:0|0:0,0:0:0:0:
260,67,31245,2,0,P|318:126|227:147,1,180
121,194,31794,5,2,0:0:0:0:
18,196,31977,1,0,0:0:0:0:
121,194,32160,1,8,0:0:0:0:
234,193,32343,2,0,L|362:194,1,90
203,272,32709,5,8,0:0:0:0:
409,270,32891,1,8,0:0:0:0:
203,272,33074,1,8,0:0:0:0:
348,272,33257,2,0,L|477:270,1,90,8|0,0:0|0:0,0:0:0:0:
272,221,33623,2,0,L|171:221,1,90,8|0,0:0|0:0,0:0:0:0:
400,206,33989,2,0,P|435:170|344:99,1,180,8|0,0:0|0:0,0:0:0:0:
196,141,34538,6,0,L|109:61,1,90
292,136,34904,2,0,L|414:128,2,90
0,162,35452,1,8,0:0:0:0:
152,158,35635,1,8,0:0:0:0:
0,162,35818,1,8,0:0:0:0:
314,158,36001,6,0,L|518:160,1,180
273,210,36550,2,0,L|229:112,1,90
395,75,36916,2,0,L|293:76,1,90
174,73,37282,2,0,L|65:75,2,90
324,81,37830,2,0,P|387:102|321:160,1,180
160,176,38379,5,0,0:0:0:0:
298,172,38562,1,0,0:0:0:0:
160,176,38745,1,0,0:0:0:0:
298,172,38928,5,0,0:0:0:0:
140,172,39111,2,0,L|18:180,1,90
229,136,39477,2,0,L|351:128,1,90
125,118,39843,2,0,L|51:120,2,45
237,99,40209,2,0,L|305:14,1,90
152,49,40574,6,0,P|83:51|37:52,1,90
249,184,40940,1,0,0:0:0:0:
289,167,41031,1,0,0:0:0:0:
309,128,41122,1,0,0:0:0:0:
296,86,41214,1,0,0:0:0:0:
259,63,41305,1,0,0:0:0:0:
108,67,41489,5,0,0:0:0:0:
259,63,41672,1,0,0:0:0:0:
108,67,41855,1,0,0:0:0:0:
259,63,42038,2,0,L|380:63,1,90
262,149,42404,1,0,0:0:0:0:
356,145,42587,6,0,P|425:146|505:240,1,180
369,246,43135,2,0,L|269:249,1,90
369,246,43501,2,0,L|517:246,2,135
238,258,44233,5,0,0:0:0:0:
104,257,44416,1,0,0:0:0:0:
238,258,44599,1,0,0:0:0:0:
104,257,44782,1,0,0:0:0:0:
320,157,44965,2,0,L|357:152,4,22.5
150,166,45239,2,0,L|200:164,1,45
379,168,45422,6,0,P|433:145|346:65,1,225
205,108,46062,2,0,L|100:110,1,90
336,93,46428,6,0,L|369:-7,1,90
165,63,46794,6,0,L|101:60,1,45
349,68,46977,2,0,L|274:65,1,45
120,60,47160,2,0,L|58:150,1,90
327,135,47526,1,0,0:0:0:0:
223,139,47709,1,0,0:0:0:0:
363,142,47891,6,0,L|467:141,1,90
282,225,48257,2,0,L|175:221,1,90
246,134,48623,2,0,L|201:134,2,45
365,128,48989,2,0,L|471:121,1,90
227,138,49355,2,0,L|187:40,1,90
108,139,49721,2,0,L|-6:142,1,90
215,228,50087,6,0,P|159:180|246:147,1,180
355,165,50635,2,0,L|464:159,1,90
355,165,51001,2,0,L|454:158,1,90
250,178,51367,1,0,0:0:0:0:
125,174,51550,2,0,B|4:178|4:178|90:175,1,180
227,229,52099,6,0,L|287:227,2,45
123,233,52465,2,0,L|102:113,1,90
272,127,52830,2,0,L|378:117,1,90
209,232,53196,6,0,L|205:100,1,90
356,223,53562,2,0,L|368:110,1,90
207,143,53928,2,0,L|98:117,1,90
301,94,54294,2,0,L|417:55,1,90
196,93,54660,6,0,L|88:76,1,90
126,196,55026,2,0,L|111:75,1,90
423,181,55391,2,0,L|539:174,2,90
234,325,55940,5,0,0:0:0:0:
212,330,55985,5,0,0:0:0:0:
189,330,56031,5,0,0:0:0:0:
167,326,56077,5,0,0:0:0:0:
146,317,56122,5,0,0:0:0:0:
128,304,56168,5,0,0:0:0:0:
112,288,56214,5,0,0:0:0:0:
101,269,56260,5,0,0:0:0:0:
93,248,56305,5,0,0:0:0:0:
90,226,56351,5,0,0:0:0:0:
91,203,56397,5,0,0:0:0:0:
97,182,56443,5,0,0:0:0:0:
108,162,56488,5,0,0:0:0:0:
122,145,56534,5,0,0:0:0:0:
140,131,56580,5,0,0:0:0:0:
160,120,56625,5,0,0:0:0:0:
181,115,56671,5,0,0:0:0:0:
375,115,56855,2,0,L|495:111,1,90
208,117,57221,5,0,0:0:0:0:
101,108,57587,5,0,0:0:0:0:
319,107,57770,5,0,0:0:0:0:
167,191,58135,2,0,L|391:194,1,225
213,194,58684,2,0,P|157:153|247:13,1,270.000010299683
360,41,59233,2,0,L|483:40,1,90
150,97,59599,6,0,L|255:97,2,90
425,101,60148,2,0,L|483:315,1,180
175,235,60696,2,0,L|296:235,1,90
89,304,61062,6,0,L|-39:299,2,90
247,305,61611,2,0,P|288:259|196:192,1,180
118,192,62160,1,0,0:0:0:0:
299,186,62343,2,0,L|422:184,1,90
203,184,62709,2,0,L|196:79,1,90
320,50,63074,1,0,0:0:0:0:
219,48,63257,1,0,0:0:0:0:
100,49,63440,2,0,L|-11:47,1,90
270,46,63806,6,0,L|385:47,2,90
146,62,64355,2,0,P|97:153|180:191,1,180
317,192,64904,1,0,0:0:0:0:
113,191,65087,2,0,L|8:190,1,90
121,194,65361,1,0,0:0:0:0:
168,191,65452,1,0,0:0:0:0:
286,188,65635,5,0,0:0:0:0:
453,173,65818,2,0,P|501:95|409:39,1,180
263,136,66367,1,0,0:0:0:0:
432,212,66550,1,0,0:0:0:0:
494,209,66641,1,0,0:0:0:0:
432,212,66733,1,0,0:0:0:0:
240,216,66916,1,0,0:0:0:0:
364,288,67099,2,0,P|424:286|461:285,1,90
209,298,67465,2,0,P|175:259|237:157,1,180
436,306,68013,5,0,0:0:0:0:
300,306,68196,1,0,0:0:0:0:
144,310,68379,2,0,L|125:187,1,90
286,194,68745,5,0,0:0:0:0:
143,195,68928,1,0,0:0:0:0:
420,206,69111,2,0,L|457:65,1,135
234,51,69477,5,0,0:0:0:0:
211,51,69522,5,0,0:0:0:0:
189,51,69568,5,0,0:0:0:0:
166,51,69614,5,0,0:0:0:0:
144,51,69659,5,0,0:0:0:0:
121,51,69705,5,0,0:0:0:0:
99,51,69751,5,0,0:0:0:0:
76,51,69797,5,0,0:0:0:0:
54,51,69842,5,0,0:0:0:0:
196,47,70026,1,0,0:0:0:0:
419,44,70209,1,0,0:0:0:0:
151,244,70391,6,0,P|108:182|200:134,1,180
296,118,70940,1,0,0:0:0:0:
189,126,71123,2,0,L|76:127,1,90
284,185,71489,2,0,L|403:187,2,90
136,274,72038,2,0,P|84:205|175:180,1,180
312,166,72770,6,0,L|418:162,2,90
165,184,73318,2,0,L|93:10,1,180
322,67,73867,1,0,0:0:0:0:
184,73,74050,2,0,L|101:64,2,45
322,67,74416,1,0,0:0:0:0:
444,106,74599,2,0,P|498:51|373:40,1,270
258,85,75330,2,0,L|140:80,2,90
399,139,75879,6,0,L|433:248,1,90
338,291,76245,1,0,0:0:0:0:
308,274,76337,1,0,0:0:0:0:
277,257,76428,2,0,L|289:132,1,90
136,250,76794,2,0,L|122:152,1,90
305,219,77160,2,0,L|314:92,1,90
154,177,77526,6,0,L|143:72,1,90
301,159,77891,2,0,L|312:31,1,90
182,62,78257,2,0,L|56:60,2,90
311,63,78806,2,0,L|423:66,1,90
292,157,79172,2,0,P|243:124|334:84,1,180
402,105,79721,5,0,0:0:0:0:
509,99,79904,1,0,0:0:0:0:
266,103,80087,2,0,L|240:193,1,90
382,203,80452,5,0,0:0:0:0:
507,198,80635,1,0,0:0:0:0:
288,335,80818,2,0,P|238:279|302:234,1,135
365,230,81184,2,0,L|439:233,2,45
218,167,81550,6,0,L|104:162,2,90
322,172,82099,2,0,L|332:54,1,90
128,109,82465,5,0,0:0:0:0:
94,138,82556,1,0,0:0:0:0:
84,181,82647,1,0,0:0:0:0:
100,222,82739,1,0,0:0:0:0:
138,245,82830,1,0,0:0:0:0:
182,242,82922,1,0,0:0:0:0:
376,223,83013,6,0,L|456:222,1,45
198,231,83196,2,0,L|198:158,1,45
421,178,83379,2,0,L|422:258,1,45
189,171,83562,5,0,0:0:0:0:
309,291,84111,2,0,L|408:287,2,90
175,288,84660,1,0,0:0:0:0:
256,192,85026,12,0,88501,0:0:0:0:
