osu file format v14

[General]
AudioFilename: audio.mp3
AudioLeadIn: 0
PreviewTime: 58135
Countdown: 0
SampleSet: Soft
StackLeniency: 0.7
Mode: 2
LetterboxInBreaks: 0
WidescreenStoryboard: 0

[Editor]
DistanceSpacing: 1.1
BeatDivisor: 4
GridSize: 32
TimelineZoom: 2.4

[Metadata]
Title:Alethea (TV Size)
TitleUnicode:シグナル
Artist:ClariS
ArtistUnicode:ClariS
Creator:Kurizeru
Version:Hope
Source:マギアレコード 魔法少女まどか☆マギカ外伝
Tags:puella magi madoka magica side story magia record mahou shoujo madoka magica gaiden anime japanese 1st season 1 ending ed Alicia
BeatmapID:4207603
BeatmapSetID:1994320

[Difficulty]
HPDrainRate:5
CircleSize:4.5
OverallDifficulty:9.2
ApproachRate:9.2
SliderMultiplier:1.8
SliderTickRate:2

[Events]
//Background and Video events
0,0,"cute ily.jpg",0,0
//Break Periods
//Storyboard Layer 0 (Background)
//Storyboard Layer 1 (Fail)
//Storyboard Layer 2 (Pass)
//Storyboard Layer 3 (Foreground)
//Storyboard Layer 4 (Overlay)
//Storyboard Sound Samples

[TimingPoints]
331,365.853658536585,4,2,1,20,1,0
331,-100,4,2,1,20,0,0
2526,-100,4,2,1,20,0,0
10391,-100,4,2,1,30,0,0
10574,-100,4,2,1,35,0,0
11855,-100,4,2,1,50,0,0
23196,-100,4,2,1,50,0,0
23745,-100,4,2,1,35,0,0
29050,-100,4,2,1,35,0,0
29599,-100,4,2,1,35,0,0
35452,-100,4,2,1,35,0,0
44965,-100,4,2,1,10,0,0
45605,-100,4,2,1,35,0,0
47160,-100,4,2,1,40,0,0
53013,-100,4,2,1,40,0,0
55940,-100,4,2,1,30,0,0
58684,-66.6666666666667,4,2,1,30,0,1
59050,-100,4,2,1,30,0,1
69477,-100,4,2,1,5,0,1
69843,-100,4,2,1,30,0,1
70391,-100,4,2,1,30,0,1
83562,-100,4,2,1,20,0,0

[Colours]
Combo1 : 0,128,192
Combo2 : 255,128,255

[HitObjects]
256,192,331,12,0,2160,0:0:0:0:
325,74,2526,6,0,B|505:71|505:71|321:73,1,360,0|2,0:0|0:0,0:0:0:0:
183,72,3623,2,0,P|129:94|197:146,1,180
392,139,4355,1,0,0:0:0:0:
267,144,4538,1,0,0:0:0:0:
177,143,4721,6,0,L|277:144,1,90,2|0,0:0|0:0,0:0:0:0:
177,142,5270,2,0,B|12:143|12:143|125:142,1,270
282,141,6001,2,0,L|466:137,1,180
282,141,6550,2,0,L|286:243,1,90
121,230,6916,2,0,P|58:198|125:142,1,180
219,139,7465,5,0,0:0:0:0:
366,136,7648,1,0,0:0:0:0:
476,159,7830,1,0,0:0:0:0:
364,228,8013,1,0,0:0:0:0:
474,280,8196,1,0,0:0:0:0:
253,304,8379,6,0,B|110:306|110:306|162:305,1,180
253,304,8928,2,0,L|419:204,1,180
258,167,9477,2,0,L|365:164,1,90
258,167,9843,2,0,L|63:168,1,180
354,165,10391,1,8,0:0:0:0:
374,127,10483,1,2,0:0:0:0:
357,92,10574,5,4,0:0:0:0:
256,192,10940,12,0,11763,0:0:0:0:
66,251,11855,6,0,P|-5:136|20:99,1,180,12|0,0:0|0:0,0:0:0:0:
202,198,12404,1,2,0:0:0:0:
353,197,12587,1,2,0:0:0:0:
202,198,12770,1,2,0:0:0:0:
335,200,12952,2,0,L|456:201,1,90
111,88,13318,6,0,P|54:133|121:207,1,180,8|0,0:0|0:0,0:0:0:0:
379,201,13867,1,8,0:0:0:0:
215,306,14050,2,0,B|172:284|172:284|121:134,1,180,4|0,0:0|0:0,0:0:0:0:
313,145,14599,1,8,0:0:0:0:
58,101,14782,2,0,P|39:133|129:245,1,180,4|0,0:0|0:0,0:0:0:0:
261,129,15330,5,8,0:0:0:0:
440,132,15513,2,0,L|232:128,1,180,4|0,0:0|0:0,0:0:0:0:
512,134,16062,1,8,0:0:0:0:
216,136,16245,2,4,L|37:155,1,180,4|0,0:0|0:0,0:0:0:0:
293,305,16794,5,2,0:0:0:0:
337,305,16885,1,2,0:0:0:0:
368,273,16976,1,2,0:0:0:0:
366,230,17068,1,2,0:0:0:0:
333,201,17159,1,2,0:0:0:0:
82,297,17251,6,2,L|83:236,1,45
248,305,17434,2,2,L|307:304,1,45
82,297,17617,2,2,L|82:239,1,45
336,195,17891,6,0,L|339:88,1,90,8|0,0:0|0:0,0:0:0:0:
498,208,18257,2,0,L|509:102,1,90,2|0,0:0|0:0,0:0:0:0:
172,195,18623,5,8,0:0:0:0:
336,195,18806,1,2,0:0:0:0:
119,197,18989,2,2,L|71:199,1,45
299,197,19172,2,2,L|248:196,1,45
48,75,19355,1,10,0:0:0:0:
21,109,19446,1,2,0:0:0:0:
35,150,19537,1,2,0:0:0:0:
240,111,19721,6,0,L|212:16,1,90,8|0,0:0|0:0,0:0:0:0:
382,62,20087,2,0,L|438:60,2,45,8|0|0,0:0|0:0|0:0,0:0:0:0:
221,107,20452,2,0,L|176:107,1,45,2|0,0:0|0:0,0:0:0:0:
0,113,20635,2,0,L|0:58,1,45,2|0,0:0|0:0,0:0:0:0:
191,110,20818,6,0,L|281:110,1,90,4|0,0:0|0:0,0:0:0:0:
462,75,21184,1,4,0:0:0:0:
285,71,21367,2,0,L|176:72,1,90,4|0,0:0|0:0,0:0:0:0:
321,36,21733,1,4,0:0:0:0:
79,48,21916,2,0,B|220:48|220:48|181:48,1,180,4|0,0:0|0:0,0:0:0:0:
1,45,22465,1,6,0:0:0:0:
266,43,22648,1,2,0:0:0:0:
0,199,22830,6,0,P|-38:141|9:41,1,180,4|0,0:0|0:0,0:0:0:0:
254,42,23379,1,0,0:0:0:0:
384,41,23562,1,0,0:0:0:0:
137,103,23745,6,0,L|143:198,1,90,8|0,0:0|0:0,0:0:0:0:
320,108,24111,2,0,L|320:211,1,90,2|0,0:0|0:0,0:0:0:0:
182,200,24477,1,8,0:0:0:0:
320,198,24660,1,0,0:0:0:0:
182,200,24843,2,0,L|71:201,1,90
316,145,25209,6,0,L|318:25,1,90,8|0,0:0|0:0,0:0:0:0:
190,151,25574,2,0,L|100:151,1,90
17,186,25940,1,8,0:0:0:0:
163,181,26123,1,0,0:0:0:0:
17,186,26306,2,0,L|167:182,1,135,10|0,0:0|0:0,0:0:0:0:
377,129,26672,6,0,L|400:10,1,90,8|0,0:0|0:0,0:0:0:0:
232,119,27038,1,8,0:0:0:0:
60,127,27221,1,2,0:0:0:0:
237,52,27404,6,0,L|339:51,1,90,8|0,0:0|0:0,0:0:0:0:
438,126,27770,2,0,L|349:127,1,90,8|0,0:0|0:0,0:0:0:0:
181,149,28135,2,0,P|135:214|212:260,1,180,2|8,0:0|0:0,0:0:0:0:
342,234,28684,1,8,0:0:0:0:
142,228,29050,6,0,L|17:225,2,112.5
425,231,29599,2,0,L|416:132,1,90,8|0,0:0|0:0,0:0:0:0:
134,167,29965,1,2,0:0:0:0:
103,127,30056,1,2,0:0:0:0:
137,80,30147,1,2,0:0:0:0:
433,47,30330,6,0,L|430:136,1,90,8|0,0:0|0:0,0:0:0:0:
262,178,30696,1,2,0:0:0:0:
300,218,30787,1,2,0:0:0:0:
264,249,30878,1,2,0:0:0:0:
0,236,31062,2,0,L|107:232,1,90,8|0,0:0|0:0,0:0:0:0:
203,287,31428,5,2,0:0:0:0:
291,239,31611,1,2,0:0:0:0:
291,239,31794,1,2,0:0:0:0:
227,157,31977,1,2,0:0:0:0:
338,76,32160,6,0,L|470:69,1,90,8|0,0:0|0:0,0:0:0:0:
194,102,32526,1,8,0:0:0:0:
460,98,32709,1,8,0:0:0:0:
194,102,32891,1,8,0:0:0:0:
460,98,33074,2,0,L|280:97,1,180,2|4,0:0|0:0,0:0:0:0:
425,94,33623,1,2,0:0:0:0:
170,91,33806,6,4,P|86:126|175:225,1,270,8|0,0:0|0:0,0:0:0:0:
335,208,34538,1,2,0:0:0:0:
473,209,34721,1,2,0:0:0:0:
335,208,34904,1,2,0:0:0:0:
207,207,35087,1,2,0:0:0:0:
335,208,35270,1,2,0:0:0:0:
138,204,35452,6,0,L|13:203,2,90,8|8|8,0:0|0:0|0:0,0:0:0:0:
283,212,36001,2,0,P|331:167|250:82,1,180,8|0,0:0|0:0,0:0:0:0:
97,55,36550,2,0,L|92:149,1,90,2|0,0:0|0:0,0:0:0:0:
256,54,36916,1,2,0:0:0:0:
443,47,37282,6,0,L|334:37,1,90
201,39,37648,1,0,0:0:0:0:
352,172,37830,2,0,P|391:137|303:101,1,180
148,165,38379,1,10,0:0:0:0:
405,162,38562,1,8,0:0:0:0:
148,165,38745,1,8,0:0:0:0:
405,162,38928,5,8,0:0:0:0:
148,165,39111,2,0,L|30:171,1,90,2|0,0:0|0:0,0:0:0:0:
269,227,39477,1,0,0:0:0:0:
146,245,39660,2,0,L|30:241,2,90
241,125,40209,2,0,L|331:124,1,90,2|0,0:0|0:0,0:0:0:0:
0,287,40574,2,0,L|74:289,1,45
264,278,40757,5,2,0:0:0:0:
288,240,40848,1,2,0:0:0:0:
286,196,40939,1,2,0:0:0:0:
260,161,41031,1,2,0:0:0:0:
218,146,41122,1,2,0:0:0:0:
11,155,41306,5,8,0:0:0:0:
272,152,41489,1,8,0:0:0:0:
11,155,41672,1,8,0:0:0:0:
271,133,41855,2,0,P|332:75|263:35,1,180
63,150,42404,2,0,L|159:157,2,90,2|2|2,0:0|0:0|0:0,0:0:0:0:
331,269,42952,2,0,L|329:160,1,90
227,148,43318,1,2,0:0:0:0:
395,150,43501,2,0,L|502:148,1,90
234,160,43867,6,0,L|114:162,2,90,2|0|8,0:0|0:0|0:0,0:0:0:0:
512,144,44416,1,8,0:0:0:0:
276,146,44599,1,8,0:0:0:0:
512,144,44782,1,8,0:0:0:0:
205,277,44965,5,2,0:0:0:0:
182,274,45010,5,2,0:0:0:0:
161,266,45056,5,2,0:0:0:0:
143,252,45102,5,2,0:0:0:0:
130,235,45147,5,2,0:0:0:0:
121,214,45193,5,2,0:0:0:0:
118,192,45239,5,2,0:0:0:0:
121,169,45285,5,2,0:0:0:0:
130,149,45330,5,2,0:0:0:0:
144,131,45376,5,2,0:0:0:0:
162,118,45422,5,2,0:0:0:0:
183,110,45468,5,2,0:0:0:0:
206,108,45513,5,2,0:0:0:0:
397,123,45605,6,0,L|319:122,1,45,4|0,0:0|0:0,0:0:0:0:
105,126,45879,2,0,L|-2:124,1,90,2|0,0:0|0:0,0:0:0:0:
165,128,46154,2,0,P|183:182|115:211,1,135,2|0,0:0|0:0,0:0:0:0:
51,265,46520,2,0,L|53:197,1,45,2|0,0:0|0:0,0:0:0:0:
258,262,46702,2,0,L|202:264,1,45,2|0,0:0|0:0,0:0:0:0:
51,265,46885,2,0,L|51:199,1,45,2|0,0:0|0:0,0:0:0:0:
314,262,47160,6,0,L|433:259,2,90,4|0|0,0:0|0:0|0:0,0:0:0:0:
157,244,47709,6,0,L|99:169,1,90,2|0,0:0|0:0,0:0:0:0:
339,137,48074,1,2,0:0:0:0:
197,136,48257,1,0,0:0:0:0:
383,136,48440,2,0,L|339:137,1,45,2|0,0:0|0:0,0:0:0:0:
169,138,48623,6,0,P|106:86|169:58,1,180,2|0,0:0|0:0,0:0:0:0:
292,45,49172,1,2,0:0:0:0:
336,44,49263,1,2,0:0:0:0:
381,43,49354,1,2,0:0:0:0:
217,57,49538,1,2,0:0:0:0:
338,56,49721,1,2,0:0:0:0:
160,63,49904,1,2,0:0:0:0:
330,101,50087,6,2,P|378:100|325:177,1,180
210,193,50635,1,2,0:0:0:0:
165,191,50726,1,2,0:0:0:0:
121,190,50817,1,2,0:0:0:0:
301,190,51001,1,2,0:0:0:0:
121,190,51184,1,2,0:0:0:0:
255,198,51367,6,4,L|37:201,1,180,0|0,0:0|0:0,0:0:0:0:
191,198,51916,2,0,L|322:199,1,90,2|0,0:0|0:0,0:0:0:0:
492,97,52282,2,0,L|422:94,1,45
254,94,52465,2,0,L|193:92,1,45
0,93,52648,2,2,L|169:94,1,135,0|0,0:0|0:0,0:0:0:0:
397,208,53013,6,0,L|404:89,1,90,10|0,0:0|0:0,0:0:0:0:
226,208,53379,1,10,0:0:0:0:
502,213,53562,1,2,0:0:0:0:
226,208,53745,2,0,L|220:100,1,90,10|0,0:0|0:0,0:0:0:0:
403,158,54111,1,10,0:0:0:0:
131,161,54294,1,2,0:0:0:0:
403,68,54477,6,0,L|403:197,1,90,8|0,0:0|0:0,0:0:0:0:
131,161,54843,1,10,0:0:0:0:
403,158,55026,1,2,0:0:0:0:
143,275,55209,2,0,L|143:167,1,90,10|0,0:0|0:0,0:0:0:0:
383,271,55574,1,10,0:0:0:0:
143,275,55757,1,2,0:0:0:0:
415,252,55940,5,2,0:0:0:0:
435,240,55986,5,2,0:0:0:0:
452,226,56031,5,2,0:0:0:0:
466,208,56077,5,2,0:0:0:0:
476,188,56122,5,2,0:0:0:0:
483,167,56168,5,2,0:0:0:0:
484,144,56214,5,2,0:0:0:0:
483,122,56260,5,2,0:0:0:0:
476,100,56305,5,2,0:0:0:0:
465,81,56351,5,2,0:0:0:0:
451,63,56397,5,2,0:0:0:0:
290,71,56489,2,2,L|230:72,1,45
438,59,56672,2,2,L|434:9,1,45
245,71,56855,2,2,L|200:71,1,45
411,58,57038,6,0,L|500:55,2,90
266,67,57587,1,8,0:0:0:0:
24,62,57770,5,12,0:0:0:0:
300,199,58135,2,0,P|343:159|250:31,1,225
0,119,58684,6,0,L|291:117,1,270.000010299683,12|0,0:0|0:0,0:0:0:0:
512,124,59233,1,8,0:0:0:0:
269,117,59416,2,8,L|228:26,1,90,2|0,0:0|0:0,0:0:0:0:
68,96,59782,1,2,0:0:0:0:
222,87,59965,1,2,0:0:0:0:
398,82,60148,6,0,L|358:271,1,180,8|0,0:0|0:0,0:0:0:0:
188,202,60696,2,0,L|294:194,1,90,8|0,0:0|0:0,0:0:0:0:
102,203,61062,2,0,L|-7:203,2,90
236,125,61611,6,0,P|266:184|168:235,1,180,12|0,0:0|0:0,0:0:0:0:
40,241,62160,1,2,0:0:0:0:
254,237,62343,2,0,L|356:237,1,90,10|0,0:0|0:0,0:0:0:0:
469,236,62709,1,2,0:0:0:0:
254,237,62891,2,0,L|69:239,1,180,8|0,0:0|0:0,0:0:0:0:
346,243,63440,1,2,0:0:0:0:
142,240,63623,2,0,L|153:138,1,90,8|0,0:0|0:0,0:0:0:0:
397,243,63989,6,0,L|524:239,2,90,2|2|2,0:0|0:0|0:0,0:0:0:0:
156,251,64538,2,0,L|101:143,1,90,8|0,0:0|0:0,0:0:0:0:
400,138,64904,1,8,0:0:0:0:
143,141,65087,1,0,0:0:0:0:
394,212,65270,1,0,0:0:0:0:
434,177,65361,1,0,0:0:0:0:
434,177,65452,1,0,0:0:0:0:
400,138,65544,1,0,0:0:0:0:
143,141,65635,5,8,0:0:0:0:
400,138,65818,1,0,0:0:0:0:
53,139,66001,2,0,L|46:257,1,90,8|0,0:0|0:0,0:0:0:0:
345,133,66367,1,8,0:0:0:0:
53,139,66550,1,0,0:0:0:0:
345,133,66733,5,0,0:0:0:0:
389,132,66824,1,0,0:0:0:0:
434,132,66915,1,0,0:0:0:0:
191,131,67099,1,0,0:0:0:0:
434,132,67282,1,0,0:0:0:0:
155,180,67465,2,0,P|100:133|131:11,1,180,8|0,0:0|0:0,0:0:0:0:
401,76,68013,1,2,0:0:0:0:
151,92,68196,2,0,L|57:85,2,90,8|0|2,0:0|0:0|0:0,0:0:0:0:
270,121,68745,1,0,0:0:0:0:
396,141,68928,6,0,L|496:134,2,90,8|2|0,0:0|0:0|0:0,0:0:0:0:
172,226,69477,1,2,0:0:0:0:
149,224,69522,1,2,0:0:0:0:
127,223,69568,1,2,0:0:0:0:
104,221,69614,1,2,0:0:0:0:
82,220,69659,1,8,0:0:0:0:
268,228,69843,5,8,0:0:0:0:
512,232,70026,1,8,0:0:0:0:
313,228,70209,2,0,L|257:229,1,45,2|0,0:0|0:0,0:0:0:0:
47,210,70391,6,0,P|7:151|94:82,1,180,12|0,0:0|0:0,0:0:0:0:
267,80,70940,1,8,0:0:0:0:
87,85,71123,2,0,P|186:81|274:80,1,180
414,81,71672,1,8,0:0:0:0:
208,247,71855,2,0,P|170:200|262:134,1,180
421,64,72404,6,0,L|307:67,1,90,8|0,0:0|0:0,0:0:0:0:
146,74,72770,2,0,L|49:74,2,90,8|0|0,0:0|0:0|0:0,0:0:0:0:
431,233,73318,2,0,P|467:187|407:82,1,180,8|0,0:0|0:0,0:0:0:0:
220,241,73867,1,8,0:0:0:0:
175,243,73958,1,8,0:0:0:0:
130,245,74049,1,8,0:0:0:0:
431,233,74233,5,8,0:0:0:0:
175,243,74416,1,8,0:0:0:0:
431,233,74599,1,8,0:0:0:0:
130,245,74782,2,0,P|65:147|125:98,1,180,4|0,0:0|0:0,0:0:0:0:
335,99,75330,1,2,0:0:0:0:
422,123,75513,2,0,L|512:130,1,90,2|0,0:0|0:0,0:0:0:0:
314,99,75879,1,0,0:0:0:0:
415,189,76062,5,8,0:0:0:0:
472,162,76153,1,8,0:0:0:0:
472,162,76244,1,8,0:0:0:0:
422,123,76336,1,8,0:0:0:0:
148,128,76428,6,0,L|141:31,1,90,8|0,0:0|0:0,0:0:0:0:
388,115,76794,2,0,L|390:23,1,90,8|0,0:0|0:0,0:0:0:0:
148,128,77160,2,0,L|20:135,1,90,8|0,0:0|0:0,0:0:0:0:
341,178,77526,2,0,L|340:53,1,90,8|0,0:0|0:0,0:0:0:0:
75,257,77891,6,0,L|63:129,1,90,8|0,0:0|0:0,0:0:0:0:
354,152,78257,2,0,L|450:146,2,90
144,135,78806,1,0,0:0:0:0:
358,117,78989,2,0,L|290:117,1,45,2|0,0:0|0:0,0:0:0:0:
98,125,79172,2,0,P|68:179|150:251,1,180,12|0,0:0|0:0,0:0:0:0:
422,255,79721,2,0,L|377:255,1,45,8|0,0:0|0:0,0:0:0:0:
177,262,79904,2,0,P|132:226|201:150,1,180,12|0,0:0|0:0,0:0:0:0:
434,94,80452,2,0,L|390:98,1,45,8|0,0:0|0:0,0:0:0:0:
178,99,80635,2,0,L|57:94,1,90,12|0,0:0|0:0,0:0:0:0:
272,243,81001,5,0,0:0:0:0:
288,242,81047,1,0,0:0:0:0:
308,242,81093,1,0,0:0:0:0:
98,233,81184,2,4,P|33:198|31:123,1,135,4|0,0:0|0:0,0:0:0:0:
226,233,81550,5,2,0:0:0:0:
431,230,81733,1,2,0:0:0:0:
226,233,81916,2,0,L|115:231,1,90,8|2,0:0|0:0,0:0:0:0:
363,81,82282,1,8,0:0:0:0:
410,107,82373,1,8,0:0:0:0:
415,152,82464,1,8,0:0:0:0:
369,178,82556,1,8,0:0:0:0:
154,216,82648,6,2,L|94:216,1,45,10|10,0:0|0:0,0:0:0:0:
259,235,82830,2,2,L|276:294,1,45,10|10,0:0|0:0,0:0:0:0:
109,216,83013,2,2,L|91:167,1,45,10|10,0:0|0:0,0:0:0:0:
306,206,83196,2,2,L|367:203,1,45,10|10,0:0|0:0,0:0:0:0:
53,149,83379,6,2,L|53:102,1,45,10|12,0:0|0:0,0:0:0:0:
286,69,83562,1,14,0:0:0:0:
205,187,83928,6,0,L|57:182,2,135
330,148,84660,2,0,L|433:148,1,90
256,192,85026,12,2,88501,0:0:0:0:
