osu file format v14

[General]
AudioFilename: audio.mp3
AudioLeadIn: 0
PreviewTime: 58090
Countdown: 0
SampleSet: Normal
StackLeniency: 0.7
Mode: 1
LetterboxInBreaks: 0
WidescreenStoryboard: 1

[Editor]
Bookmarks: 11855,23745,35452
DistanceSpacing: 1.3
BeatDivisor: 4
GridSize: 32
TimelineZoom: 1.1

[Metadata]
Title:Alethea (TV Size)
TitleUnicode:アリシア (TV Size)
Artist:ClariS
ArtistUnicode:ClariS
Creator:BlackBN
Version:Futsuu
Source:マギアレコード 魔法少女まどか☆マギカ外伝
Tags:BlackBq Magia Record: Puella Magi Madoka Magica Side Story Madoka☆Magica Madoka*Magica Madoka * Magica Gaiden Mahou Shoujo マギレコ magireco Anime Japanese J-Pop Pop JPop Alicia やちいろ yachiiro 七海やちよ Nanami Yachiyo 環いろは Tamaki Iroha 麻倉もも Asakura Momo 雨宮天 Amamiya Sora クララ Clara カレン Karen Parfaitone Ending 1 ED1 魔法少⼥まどか☆マギカ外伝
BeatmapID:4507192
BeatmapSetID:2141386

[Difficulty]
HPDrainRate:7.5
CircleSize:2
OverallDifficulty:4
ApproachRate:10
SliderMultiplier:1.4
SliderTickRate:1

[Events]
//Background and Video events
0,0,"alethea.jpg",0,75
Video,-300,"Alethea.mp4"
//Break Periods
//Storyboard Layer 0 (Background)
//Storyboard Layer 1 (Fail)
//Storyboard Layer 2 (Pass)
//Storyboard Layer 3 (Foreground)
//Storyboard Layer 4 (Overlay)
//Storyboard Sound Samples

[TimingPoints]
331,365.853658536585,4,1,0,50,1,0
10117,-100,4,1,0,60,0,0
10666,-100,4,1,0,40,0,0
11580,-100,4,1,0,70,0,0
11763,-100,4,1,0,80,0,0
22876,-100,4,1,0,70,0,0
23654,-100,4,1,0,60,0,0
29507,-100,4,1,0,65,0,0
35361,-100,4,1,0,70,0,0
47108,-100,4,1,0,75,0,0
52922,-100,4,1,0,80,0,0
56032,-100,4,1,0,50,0,0
57129,-100,4,1,0,80,0,0
57581,-100,4,1,0,76,0,0
57764,-100,4,1,0,78,0,0
58044,-100,4,1,0,70,0,0
58593,-100,4,1,0,85,0,0
58684,-100,4,1,0,85,0,1
69751,-100,4,1,0,80,0,1
69843,-100,4,1,0,80,0,0
70300,-100,4,1,0,85,0,0
70391,-100,4,1,0,85,0,1
83562,-100,4,1,0,85,0,0
83654,-100,4,1,0,40,0,0
84934,-100,4,1,0,80,0,0
85204,-100,4,1,0,70,0,0
85386,-100,4,1,0,69,0,0
85569,-100,4,1,0,68,0,0
85752,-100,4,1,0,66,0,0
85935,-100,4,1,0,65,0,0
86118,-100,4,1,0,64,0,0
86301,-100,4,1,0,63,0,0
86484,-100,4,1,0,62,0,0
86667,-100,4,1,0,61,0,0
86850,-100,4,1,0,59,0,0
87033,-100,4,1,0,58,0,0
87216,-100,4,1,0,57,0,0
87399,-100,4,1,0,56,0,0
87582,-100,4,1,0,55,0,0
87765,-100,4,1,0,53,0,0
87947,-100,4,1,0,52,0,0
88130,-100,4,1,0,51,0,0
88313,-100,4,1,0,45,0,0

[HitObjects]
256,192,3256,5,8,0:0:0:0:
256,192,3805,1,0,0:0:0:0:
256,192,4354,1,0,0:0:0:0:
256,192,4720,1,8,0:0:0:0:
256,192,5451,1,0,0:0:0:0:
256,192,6183,1,0,0:0:0:0:
256,192,6732,1,8,0:0:0:0:
256,192,7281,1,0,0:0:0:0:
256,192,7647,1,0,0:0:0:0:
256,192,8378,1,0,0:0:0:0:
256,192,9110,1,8,0:0:0:0:
256,192,9659,1,0,0:0:0:0:
256,192,10208,1,8,0:0:0:0:
256,192,10573,1,0,0:0:0:0:
384,96,11854,1,12,0:0:0:0:
256,192,12403,1,8,0:0:0:0:
256,192,12769,1,0,0:0:0:0:
256,192,12951,1,8,0:0:0:0:
256,192,13317,1,0,0:0:0:0:
256,192,13683,1,0,0:0:0:0:
256,192,13866,1,8,0:0:0:0:
256,192,14049,1,8,0:0:0:0:
256,192,14415,1,0,0:0:0:0:
256,192,14598,1,8,0:0:0:0:
256,192,14781,1,0,0:0:0:0:
256,192,15330,1,0,0:0:0:0:
256,192,15512,1,8,0:0:0:0:
256,192,15879,1,0,0:0:0:0:
256,192,16061,1,8,0:0:0:0:
256,192,16244,1,8,0:0:0:0:
256,192,16610,1,8,0:0:0:0:
256,192,16793,1,0,0:0:0:0:
256,192,16976,1,0,0:0:0:0:
256,192,17159,1,8,0:0:0:0:
256,192,17525,1,0,0:0:0:0:
384,96,17890,1,12,0:0:0:0:
256,192,18622,1,8,0:0:0:0:
256,192,18988,1,0,0:0:0:0:
256,192,19172,1,0,0:0:0:0:
256,192,19355,1,8,0:0:0:0:
256,192,19720,1,8,0:0:0:0:
256,192,19904,1,0,0:0:0:0:
256,192,20087,1,8,0:0:0:0:
256,192,20451,1,0,0:0:0:0:
384,96,20817,1,12,0:0:0:0:
384,96,21366,1,4,0:0:0:0:
254,188,21733,1,8,0:0:0:0:
384,96,22098,1,4,0:0:0:0:
256,192,22464,1,0,0:0:0:0:
384,96,22829,1,12,0:0:0:0:
256,192,23744,1,0,0:0:0:0:
256,192,24476,1,0,0:0:0:0:
256,192,25208,1,0,0:0:0:0:
256,192,25573,1,8,0:0:0:0:
256,192,25756,1,0,0:0:0:0:
256,192,26306,1,0,0:0:0:0:
256,192,26672,1,0,0:0:0:0:
256,192,27037,1,8,0:0:0:0:
256,192,27220,1,8,0:0:0:0:
256,192,27586,1,0,0:0:0:0:
256,192,28135,1,8,0:0:0:0:
256,192,28683,1,0,0:0:0:0:
384,96,29598,1,12,0:0:0:0:
256,192,30329,1,8,0:0:0:0:
256,192,31061,1,0,0:0:0:0:
256,192,31427,1,8,0:0:0:0:
256,192,31610,1,0,0:0:0:0:
256,192,31976,1,0,0:0:0:0:
384,96,32525,1,4,0:0:0:0:
384,96,33073,1,4,0:0:0:0:
384,96,33439,1,4,0:0:0:0:
384,96,33805,1,12,0:0:0:0:
256,192,34720,1,0,0:0:0:0:
256,192,35086,1,8,0:0:0:0:
256,192,35452,1,8,0:0:0:0:
256,192,35635,1,8,0:0:0:0:
256,192,35817,1,0,0:0:0:0:
256,192,36000,1,8,0:0:0:0:
256,192,36915,1,8,0:0:0:0:
256,192,37464,1,8,0:0:0:0:
256,192,37829,1,0,0:0:0:0:
256,192,38378,1,8,0:0:0:0:
256,192,38562,1,0,0:0:0:0:
256,192,38745,1,8,0:0:0:0:
256,192,38927,1,8,0:0:0:0:
256,192,39293,1,0,0:0:0:0:
256,192,39842,1,8,0:0:0:0:
256,192,40573,1,0,0:0:0:0:
256,192,40939,1,0,0:0:0:0:
256,192,41305,1,8,0:0:0:0:
256,192,41488,1,0,0:0:0:0:
256,192,41672,1,0,0:0:0:0:
256,192,41855,1,8,0:0:0:0:
256,192,42769,1,0,0:0:0:0:
256,192,43134,1,8,0:0:0:0:
256,192,43317,1,0,0:0:0:0:
256,192,43867,1,0,0:0:0:0:
256,192,44233,1,0,0:0:0:0:
256,192,44416,1,0,0:0:0:0:
256,192,44599,1,8,0:0:0:0:
256,192,44782,1,0,0:0:0:0:
384,96,45512,1,12,0:0:0:0:
256,192,45878,1,8,0:0:0:0:
256,192,46062,1,8,0:0:0:0:
256,192,46427,1,0,0:0:0:0:
384,96,47159,1,4,0:0:0:0:
256,192,47525,1,0,0:0:0:0:
256,192,47708,1,8,0:0:0:0:
256,192,48256,1,8,0:0:0:0:
256,192,48622,1,0,0:0:0:0:
256,192,48988,1,8,0:0:0:0:
256,192,49171,1,8,0:0:0:0:
256,192,49537,1,0,0:0:0:0:
384,96,50086,1,4,0:0:0:0:
256,192,50451,1,8,0:0:0:0:
256,192,51000,1,0,0:0:0:0:
256,192,51183,1,8,0:0:0:0:
256,192,51366,1,0,0:0:0:0:
256,192,51916,1,8,0:0:0:0:
256,192,52281,1,0,0:0:0:0:
256,192,52465,1,0,0:0:0:0:
256,192,52647,1,8,0:0:0:0:
384,96,53012,1,12,0:0:0:0:
256,192,53378,1,8,0:0:0:0:
256,192,53744,1,0,0:0:0:0:
256,192,53927,1,0,0:0:0:0:
256,192,54110,1,8,0:0:0:0:
256,192,54477,1,0,0:0:0:0:
256,192,54843,1,0,0:0:0:0:
256,192,55025,1,8,0:0:0:0:
256,192,55390,1,0,0:0:0:0:
256,192,55574,1,0,0:0:0:0:
384,96,55939,1,12,0:0:0:0:
256,192,57220,1,0,0:0:0:0:
256,192,57586,1,0,0:0:0:0:
256,192,57769,1,0,0:0:0:0:
384,96,58683,1,12,0:0:0:0:
256,192,59232,1,8,0:0:0:0:
256,192,59416,1,0,0:0:0:0:
256,192,59782,1,0,0:0:0:0:
256,192,59964,1,0,0:0:0:0:
256,192,60147,1,8,0:0:0:0:
256,192,60695,1,0,0:0:0:0:
256,192,61061,1,8,0:0:0:0:
256,192,61244,1,8,0:0:0:0:
256,192,61427,1,0,0:0:0:0:
256,192,61610,1,8,0:0:0:0:
256,192,62159,1,8,0:0:0:0:
256,192,62342,1,0,0:0:0:0:
256,192,62708,1,8,0:0:0:0:
256,192,62890,1,8,0:0:0:0:
256,192,63073,1,0,0:0:0:0:
256,192,63622,1,8,0:0:0:0:
256,192,63988,1,0,0:0:0:0:
256,192,64172,1,0,0:0:0:0:
256,192,64354,1,0,0:0:0:0:
256,192,64538,1,8,0:0:0:0:
256,192,65086,1,8,0:0:0:0:
256,192,65269,1,0,0:0:0:0:
256,192,65634,1,0,0:0:0:0:
256,192,65817,1,8,0:0:0:0:
256,192,66001,1,0,0:0:0:0:
256,192,66366,1,0,0:0:0:0:
256,192,66549,1,8,0:0:0:0:
256,192,66732,1,8,0:0:0:0:
384,96,67464,1,4,0:0:0:0:
256,192,67829,1,8,0:0:0:0:
256,192,68012,1,8,0:0:0:0:
256,192,68195,1,0,0:0:0:0:
256,192,68561,1,0,0:0:0:0:
256,192,68744,1,0,0:0:0:0:
256,192,68927,1,8,0:0:0:0:
256,192,69293,1,8,0:0:0:0:
256,192,69477,1,8,0:0:0:0:
256,192,69842,1,0,0:0:0:0:
256,192,70025,1,0,0:0:0:0:
384,96,70390,1,12,0:0:0:0:
256,192,70939,1,0,0:0:0:0:
256,192,71122,1,8,0:0:0:0:
256,192,71488,1,0,0:0:0:0:
256,192,71671,1,8,0:0:0:0:
256,192,71855,1,0,0:0:0:0:
256,192,72403,1,8,0:0:0:0:
256,192,72769,1,0,0:0:0:0:
256,192,72952,1,0,0:0:0:0:
256,192,73134,1,8,0:0:0:0:
256,192,73318,1,8,0:0:0:0:
256,192,73866,1,0,0:0:0:0:
256,192,74050,1,8,0:0:0:0:
384,96,74781,1,12,0:0:0:0:
256,192,75329,1,8,0:0:0:0:
256,192,75695,1,0,0:0:0:0:
256,192,75879,1,0,0:0:0:0:
256,192,76062,1,8,0:0:0:0:
384,96,76427,1,4,0:0:0:0:
256,192,76793,1,8,0:0:0:0:
256,192,76977,1,0,0:0:0:0:
256,192,77525,1,8,0:0:0:0:
256,192,77708,1,8,0:0:0:0:
256,192,77890,1,0,0:0:0:0:
256,192,78256,1,8,0:0:0:0:
256,192,78439,1,0,0:0:0:0:
384,96,79171,1,4,0:0:0:0:
256,192,79537,1,0,0:0:0:0:
256,192,79720,1,8,0:0:0:0:
256,192,79903,1,0,0:0:0:0:
256,192,80269,1,0,0:0:0:0:
256,192,80451,1,0,0:0:0:0:
256,192,80634,1,8,0:0:0:0:
256,192,81184,1,8,0:0:0:0:
256,192,81549,1,0,0:0:0:0:
256,192,81732,1,0,0:0:0:0:
384,96,82098,1,12,0:0:0:0:
256,192,82647,1,0,0:0:0:0:
256,192,82829,1,0,0:0:0:0:
256,192,83012,1,8,0:0:0:0:
384,96,83561,1,12,0:0:0:0:
384,96,85025,1,4,0:0:0:0:
256,192,85209,8,0,88318,0:0:0:0:
