osu file format v14

[General]
AudioFilename: audio.mp3
AudioLeadIn: 0
PreviewTime: 53153
Countdown: 0
SampleSet: Soft
StackLeniency: 0.3
Mode: 0
LetterboxInBreaks: 0
WidescreenStoryboard: 1

[Editor]
DistanceSpacing: 0.6
BeatDivisor: 4
GridSize: 4
TimelineZoom: 2.7

[Metadata]
Title:Ai Wo Utae
TitleUnicode:アイヲウタエ
Artist:ClariS
ArtistUnicode:ClariS
Creator:Sotarks
Version:toybot's Extra
Source:〈物語〉シリーズ セカンドシーズン
Tags:Monogatari Series Second Season ending jin shizen no teki p じん 自然の敵p akitoshi corinn kin kyuukai yaleufeu hareimu toybot haruna luna 春菜るな
BeatmapID:1536690
BeatmapSetID:725480

[Difficulty]
HPDrainRate:5.5
CircleSize:4.2
OverallDifficulty:8
ApproachRate:9
SliderMultiplier:1.7
SliderTickRate:1

[Events]
//Background and Video events
0,0,"BG.jpg",0,0
//Break Periods
//Storyboard Layer 0 (Background)
//Storyboard Layer 1 (Fail)
//Storyboard Layer 2 (Pass)
//Storyboard Layer 3 (Foreground)
//Storyboard Sound Samples

[TimingPoints]
570,333.333333333333,4,2,22,42,1,0
570,-200,4,2,22,42,0,0
5569,-133.333333333333,4,2,22,42,0,0
5903,-100,4,2,22,42,0,0
6903,-83.3333333333333,4,2,22,42,0,0
7069,-83.3333333333333,4,2,22,42,0,0
7569,-166.666666666667,4,2,22,42,0,0
8569,-166.666666666667,4,2,22,52,0,0
8903,-83.3333333333333,4,2,22,52,0,0
9403,-100,4,2,22,52,0,0
13903,-166.666666666667,4,2,22,52,0,0
14236,-83.3333333333333,4,2,22,52,0,0
14736,-100,4,2,22,52,0,0
19319,-100,4,2,22,42,0,0
19736,-100,4,2,22,32,0,0
21569,-100,4,2,22,22,0,0
21903,-133.333333333333,4,2,22,42,0,0
31236,-80,4,2,22,42,0,0
32569,-100,4,2,22,52,0,0
40569,-76.9230769230769,4,2,22,52,0,0
43236,-100,4,2,22,42,0,0
48569,-125,4,2,22,52,0,0
52903,-200,4,2,22,52,0,0
53236,-200,4,2,22,22,0,0
53903,-90.9090909090909,4,2,22,52,0,1
54153,-90.9090909090909,4,2,22,5,0,1
54236,-90.9090909090909,4,2,22,62,0,1
64819,-90.9090909090909,4,2,22,5,0,1
64903,-90.9090909090909,4,2,22,62,0,1
67236,-76.9230769230769,4,2,22,62,0,1
67986,-76.9230769230769,4,2,22,5,0,1
68069,-83.3333333333333,4,2,22,62,0,1
68319,-83.3333333333333,4,2,22,5,0,1
68403,-83.3333333333333,4,2,22,62,0,1
75236,-133.333333333333,4,2,22,52,0,1
80569,-83.3333333333333,4,2,22,52,0,1
82069,-83.3333333333333,4,2,22,52,0,0
82153,-83.3333333333333,4,2,22,42,0,0
82903,-200,4,2,22,32,0,0
83236,-200,4,2,22,22,0,0
84403,-200,4,2,22,32,0,0
84569,-142.857142857143,4,2,22,52,0,0
84903,-83.3333333333333,4,2,22,52,0,0
89903,-142.857142857143,4,2,22,52,0,0
90236,-83.3333333333333,4,2,22,52,0,0
96403,-83.3333333333333,4,2,22,62,0,0
100569,-83.3333333333333,4,2,22,5,0,0

[Colours]
Combo1 : 187,167,245
Combo2 : 230,252,103
Combo3 : 169,211,254
Combo4 : 190,251,145

[HitObjects]
32,184,570,6,0,P|136:182|216:249,1,212.5,4|0,1:0|0:0,0:0:0:0:
287,211,1569,2,0,P|293:232|296:253,1,42.5
432,368,1903,6,0,P|420:320|460:192,1,170,4|0,1:0|0:0,0:0:0:0:
448,56,2736,1,8,0:0:0:0:
508,112,2903,2,0,P|484:128|452:136,1,42.5,4|4,3:0|3:0,0:0:0:0:
296,72,3236,6,0,P|248:64|96:136,1,212.5,4|0,1:0|0:0,0:0:0:0:
28,152,4236,2,0,P|40:176|44:196,1,42.5,0|0,0:0|0:0,0:0:0:0:
214,327,4569,6,0,P|206:289|174:243,1,85,4|0,1:0|0:0,0:0:0:0:
118,207,5069,1,8,3:0:0:0:
318,274,5403,1,4,3:0:0:0:
279,203,5569,2,0,P|246:181|174:174,1,95.6250036478044,0|0,1:0|0:0,0:0:0:0:
191,171,5903,6,0,B|171:134|171:134|183:85,1,85,4|0,1:0|1:0,0:0:0:0:
256,65,6153,1,8,0:0:0:0:
256,65,6236,1,8,0:0:0:0:
212,260,6403,2,0,B|189:296|189:296|141:310,1,85,4|0,1:0|0:0,0:0:0:0:
69,252,6736,1,8,0:0:0:0:
278,198,6903,6,0,B|330:204|330:204|371:246,1,101.999996887207,4|0,1:2|0:0,0:0:0:0:
364,239,7569,1,2,0:0:0:0:
496,296,7903,1,2,0:0:0:0:
416,312,8069,2,0,L|306:329,1,101.999996887207,2|0,0:0|1:0,0:0:0:0:
235,343,8486,1,0,1:0:0:0:
235,343,8569,6,0,L|245:262,1,76.4999976654053,4|0,1:0|0:0,0:0:0:0:
239,257,8903,6,0,P|198:225|122:322,1,203.999993774414,14|0,0:0|3:0,0:0:0:0:
331,288,9403,1,2,1:2:0:0:
133,328,9569,1,10,0:2:0:0:
344,299,9736,6,0,L|357:190,1,85,2|0,1:2|3:0,0:0:0:0:
146,247,10069,2,0,L|135:331,1,85,2|8,1:2|0:0,0:0:0:0:
331,287,10403,2,0,L|351:111,1,170,2|0,1:2|1:0,0:0:0:0:
129,232,10903,2,0,L|118:316,1,85,8|0,0:0|1:0,0:0:0:0:
223,121,11236,5,0,1:0:0:0:
61,152,11403,1,0,3:3:0:0:
223,121,11569,2,0,P|162:153|154:72,1,170,10|0,0:2|3:0,0:0:0:0:
335,129,12069,1,2,1:2:0:0:
161,69,12236,1,10,0:2:0:0:
348,120,12403,6,0,L|464:105,1,85,2|0,1:2|3:0,0:0:0:0:
161,69,12736,1,2,0:2:0:0:
208,204,12903,1,10,0:2:0:0:
335,129,13069,2,0,L|513:108,1,170,2|2,1:2|1:2,0:0:0:0:
147,77,13569,2,0,L|262:64,1,85,10|0,0:2|1:0,0:0:0:0:
303,28,13819,1,0,1:0:0:0:
303,28,13903,6,0,P|320:69|312:104,1,76.4999976654053,4|0,1:0|0:0,0:0:0:0:
371,161,14236,6,0,P|285:123|235:203,1,203.999993774414,14|0,0:0|3:0,0:0:0:0:
458,248,14736,1,2,1:2:0:0:
250,221,14903,1,10,0:2:0:0:
475,258,15069,6,0,L|464:153,1,85,2|0,1:2|0:0,0:0:0:0:
250,221,15403,2,0,L|258:305,1,85,2|8,1:2|0:0,0:0:0:0:
458,248,15736,2,0,L|437:79,1,170,2|0,1:2|1:0,0:0:0:0:
235,203,16236,2,0,L|243:287,1,85,8|0,0:0|1:0,0:0:0:0:
325,150,16569,5,0,1:0:0:0:
138,197,16736,1,0,3:0:0:0:
325,150,16903,2,0,P|260:163|224:68,1,170,10|0,0:2|3:0,0:0:0:0:
181,276,17403,1,2,1:2:0:0:
234,67,17569,1,10,0:2:0:0:
196,260,17736,6,0,L|109:268,1,85,2|0,1:2|3:0,0:0:0:0:
234,67,18069,1,2,0:2:0:0:
325,150,18236,1,10,0:2:0:0:
181,276,18403,2,0,L|1:292,1,170,2|2,1:2|1:2,0:0:0:0:
218,82,18903,2,0,L|134:91,1,85,10|4,0:2|3:0,0:0:0:0:
56,83,19153,1,4,3:0:0:0:
56,83,19236,6,0,B|49:125|49:125|72:168,1,85,6|0,1:2|0:0,0:0:0:0:
149,183,19486,1,8,0:0:0:0:
149,183,19569,1,8,0:0:0:0:
109,314,19736,6,0,B|148:299|148:299|174:257,1,85,8|0,3:0|0:0,0:0:0:0:
149,183,19986,1,8,0:0:0:0:
149,183,20069,1,8,0:0:0:0:
283,153,20236,6,0,B|250:125|250:125|201:124,1,85,12|0,3:0|0:0,0:0:0:0:
149,183,20486,1,8,0:0:0:0:
149,183,20569,1,8,0:0:0:0:
305,274,20736,6,0,L|458:257,1,127.5,4|8,3:0|0:0,0:0:0:0:
467,255,21069,1,8,0:0:0:0:
317,184,21236,5,8,0:0:0:0:
293,366,21403,1,8,0:0:0:0:
317,184,21569,1,4,3:0:0:0:
293,366,21736,1,4,3:0:0:0:
305,274,21903,5,2,1:2:0:0:
305,274,22236,2,0,P|274:267|242:271,1,63.7500024318696,2|0,1:2|0:0,0:0:0:0:
177,215,22569,2,0,P|119:242|88:296,1,127.500004863739,2|2,1:2|1:2,0:0:0:0:
6,276,23069,1,2,0:2:0:0:
156,351,23236,5,0,1:0:0:0:
156,351,23403,2,0,P|148:320|130:294,1,63.7500024318696,2|0,0:2|1:0,0:0:0:0:
198,240,23736,2,0,P|151:197|89:187,1,127.500004863739,2|2,0:2|0:2,0:0:0:0:
111,103,24236,2,0,P|79:101|49:110,1,63.7500024318696,2|0,1:2|3:0,0:0:0:0:
274,35,24569,5,2,1:2:0:0:
274,35,24903,2,0,P|287:65|310:87,1,63.7500024318696,2|0,1:2|0:0,0:0:0:0:
288,163,25236,2,0,P|317:174|349:174,1,63.7500024318696,2|0,1:2|0:0,0:0:0:0:
386,243,25569,1,2,1:2:0:0:
506,131,25736,1,2,0:2:0:0:
470,230,25903,5,0,1:0:0:0:
470,230,26069,2,0,P|450:192|421:166,1,63.7500024318696,2|0,0:2|1:0,0:0:0:0:
431,95,26403,2,0,P|386:94|309:150,1,127.500004863739,2|2,0:2|0:2,0:0:0:0:
238,160,26903,2,0,P|248:208|274:237,1,63.7500024318696,2|2,1:2|3:2,0:0:0:0:
175,328,27236,6,0,P|115:308|73:243,1,127.500004863739,2|2,1:2|1:2,0:0:0:0:
3,221,27736,2,0,P|8:183|21:160,1,63.7500024318696,2|0,0:2|1:0,0:0:0:0:
20,81,28069,2,0,P|51:78|82:85,1,63.7500024318696,2|0,0:2|1:0,0:0:0:0:
151,133,28403,1,2,0:2:0:0:
333,81,28569,5,0,1:0:0:0:
333,81,28903,2,0,P|307:101|277:112,1,63.7500024318696,2|0,1:2|0:0,0:0:0:0:
399,135,29236,2,0,P|389:165|371:191,1,63.7500024318696,2|0,1:2|0:0,0:0:0:0:
483,140,29569,2,0,P|492:170|492:202,1,63.7500024318696,2|2,1:2|3:2,0:0:0:0:
394,343,29903,5,2,1:2:0:0:
394,343,30236,1,0,1:0:0:0:
394,343,30569,1,0,1:0:0:0:
256,248,30736,1,8,3:0:0:0:
336,272,30903,2,0,P|320:304|294:324,1,63.7500024318696,2|8,1:2|3:0,0:0:0:0:
61,337,31236,5,10,0:2:0:0:
93,251,31403,1,8,0:0:0:0:
93,251,31486,1,8,0:0:0:0:
93,251,31569,1,8,3:0:0:0:
150,317,31736,6,0,P|117:263|135:113,1,212.5,6|0,1:2|1:0,0:0:0:0:
290,52,32236,1,8,0:0:0:0:
185,55,32403,2,0,P|207:80|221:122,1,53.125,8|8,0:0|0:0,0:0:0:0:
287,184,32569,6,0,P|373:189|443:119,1,170,6|10,1:2|0:2,0:0:0:0:
359,103,33069,1,2,3:2:0:0:
372,227,33236,2,0,P|383:273|413:306,1,85,2|0,1:2|0:0,0:0:0:0:
335,351,33569,1,10,0:2:0:0:
459,232,33736,1,2,3:2:0:0:
335,351,33903,6,0,P|284:349|239:322,1,85,0|2,1:0|0:2,0:0:0:0:
209,192,34236,1,10,0:2:0:0:
286,240,34403,2,0,P|237:290|129:298,1,170,2|0,3:2|0:2,0:0:0:0:
63,338,34903,2,0,P|28:301|21:262,1,85,10|0,0:2|3:0,0:0:0:0:
112,75,35236,6,0,P|128:157|93:233,1,170,6|10,1:2|0:2,0:0:0:0:
46,139,35736,1,2,3:2:0:0:
199,208,35903,2,0,P|217:248|216:300,1,85,2|2,1:2|0:2,0:0:0:0:
140,302,36236,1,10,0:2:0:0:
218,122,36403,6,0,P|255:144|284:187,1,85,2|0,3:2|1:0,0:0:0:0:
184,40,36736,2,0,P|227:36|276:55,1,85,2|8,0:2|0:0,0:0:0:0:
103,223,37069,2,0,P|139:148|217:121,1,170,2|2,3:2|0:2,0:0:0:0:
266,225,37569,1,8,0:0:0:0:
198,273,37736,2,0,P|187:254|183:233,1,42.5,2|0,3:2|0:0,0:0:0:0:
284,76,37903,6,0,P|225:135|143:145,1,170,6|10,1:2|0:2,0:0:0:0:
172,65,38403,2,0,P|130:57|93:36,1,85,2|0,3:2|1:0,0:0:0:0:
299,185,38736,2,0,P|340:192|377:213,1,85,2|10,0:2|0:2,0:0:0:0:
444,157,39069,1,2,3:2:0:0:
311,272,39236,6,0,P|252:282|178:370,1,170,0|10,1:0|0:2,0:0:0:0:
277,362,39736,1,0,3:0:0:0:
172,234,39903,2,0,P|133:217|90:213,2,85,2|2|10,1:2|0:2|0:2,0:0:0:0:
108,296,40403,1,0,1:0:0:0:
1,181,40569,6,0,P|38:139|89:120,1,110.499994941712,14|0,0:2|1:0,0:0:0:0:
314,203,40903,1,0,1:0:0:0:
52,41,41069,6,0,P|106:37|156:60,1,110.499994941712,14|0,0:2|1:0,0:0:0:0:
257,277,41403,1,0,1:0:0:0:
63,293,41569,6,0,P|117:296|167:273,1,110.499994941712,14|0,0:2|0:0,0:0:0:0:
268,57,41903,1,0,1:0:0:0:
196,364,42069,6,0,P|237:327|256:276,1,110.499994941712,14|0,0:2|0:0,0:0:0:0:
174,52,42403,1,0,1:0:0:0:
98,211,42569,5,8,0:0:0:0:
414,173,42736,1,8,3:0:0:0:
96,186,42903,5,4,3:0:0:0:
415,197,43070,1,4,3:0:0:0:
256,192,43236,5,6,1:2:0:0:
240,112,43569,1,0,1:0:0:0:
256,192,43903,1,2,1:2:0:0:
336,176,44236,1,0,1:0:0:0:
256,192,44569,1,2,1:2:0:0:
272,272,44902,1,0,1:0:0:0:
256,192,45236,5,2,1:2:0:0:
176,208,45403,1,10,0:2:0:0:
240,112,45569,1,2,1:2:0:0:
337,176,45736,1,4,3:0:0:0:
272,272,45903,5,6,1:2:0:0:
256,192,46236,1,0,1:0:0:0:
336,176,46569,1,2,1:2:0:0:
256,192,46902,1,0,1:0:0:0:
240,112,47236,1,2,1:2:0:0:
256,192,47569,1,0,1:0:0:0:
176,208,47736,6,0,P|283:224|345:280,1,170,8|0,0:2|0:0,0:0:0:0:
223,291,48236,2,0,P|169:301|135:325,1,85,2|4,1:2|3:0,0:0:0:0:
50,315,48569,6,0,P|82:260|69:119,1,204,6|2,1:2|1:2,0:0:0:0:
135,70,49236,2,0,P|109:48|76:38,1,68,10|0,0:2|0:0,0:0:0:0:
260,187,49736,1,10,0:2:0:0:
171,164,49903,5,2,1:2:0:0:
171,164,50069,2,0,P|206:125|297:103,1,136,8|2,0:0|0:2,0:0:0:0:
260,187,50569,2,0,P|300:190|337:212,1,68,10|2,0:2|0:2,0:0:0:0:
364,119,50903,2,0,P|398:118|429:104,1,68,2|8,1:2|0:0,0:0:0:0:
483,45,51236,6,0,P|453:171|464:200,1,136,6|10,1:2|0:2,0:0:0:0:
453,172,51903,1,10,0:0:0:0:
501,232,52069,1,8,3:0:0:0:
512,116,52236,2,0,P|483:96|450:90,1,68,8|4,3:0|3:0,0:0:0:0:
247,98,52569,5,10,0:2:0:0:
265,286,52736,1,10,0:2:0:0:
185,327,52903,6,0,P|143:328|104:314,2,85,0|2|2,0:0|0:0|0:0,0:0:0:0:
265,286,53736,1,2,0:0:0:0:
184,138,53903,6,0,B|131:118|131:118|48:135|38:220,1,187.000005706787,6|8,1:2|0:0,0:0:0:0:
270,99,54403,2,0,B|217:119|217:119|134:102|124:17,1,187.000005706787,2|2,3:2|1:2,0:0:0:0:
218,25,54903,1,10,0:2:0:0:
131,208,55069,1,2,3:2:0:0:
208,266,55236,6,0,P|211:175|144:113,1,187.000005706787,2|8,1:2|0:0,0:0:0:0:
131,208,55736,1,2,3:2:0:0:
285,335,55903,5,2,1:2:0:0:
131,208,56069,1,2,1:2:0:0:
319,252,56236,1,10,0:2:0:0:
127,296,56403,1,2,3:2:0:0:
300,169,56569,6,0,P|391:161|459:222,1,187.000005706787,6|10,1:2|0:2,0:0:0:0:
231,220,57069,2,0,B|214:178|214:178|223:130,1,93.5000028533936,2|0,0:2|1:0,0:0:0:0:
371,118,57403,2,0,B|388:160|388:160|375:222,1,93.5000028533936,2|8,1:2|0:0,0:0:0:0:
162,75,57736,6,0,P|71:67|3:128,1,187.000005706787,2|0,1:2|1:0,0:0:0:0:
98,152,58236,1,8,0:0:0:0:
240,30,58403,1,0,0:0:0:0:
76,44,58569,2,0,P|115:68|162:75,1,93.5000028533936,2|0,1:2|1:0,0:0:0:0:
330,37,58903,1,10,0:2:0:0:
229,263,59069,2,0,P|240:236|273:208,1,46.7500014266968,2|0,3:2|0:0,0:0:0:0:
324,169,59236,6,0,P|280:186|233:186,1,93.5000028533936,6|0,1:2|3:0,0:0:0:0:
416,177,59569,2,0,P|396:219|363:252,1,93.5000028533936,10|0,0:2|3:0,0:0:0:0:
137,272,59903,2,0,P|156:314|189:347,1,93.5000028533936,2|0,1:2|1:0,0:0:0:0:
56,226,60236,2,0,P|47:271|55:317,1,93.5000028533936,10|0,0:2|3:0,0:0:0:0:
229,134,60569,5,2,1:2:0:0:
35,46,60736,1,2,3:2:0:0:
146,182,60903,1,10,0:2:0:0:
301,80,61069,2,0,P|242:47|144:86,1,140.25000428009,0|0,3:0|0:0,0:0:0:0:
173,60,61403,2,0,P|217:109|234:162,1,93.5000028533936,2|10,1:2|0:2,0:0:0:0:
199,341,61736,1,2,3:2:0:0:
393,164,61903,6,0,P|321:221|230:218,1,187.000005706787,6|8,1:2|0:0,0:0:0:0:
272,40,62403,1,2,3:2:0:0:
482,153,62569,2,0,P|476:198|450:237,1,93.5000028533936,2|0,1:2|1:0,0:0:0:0:
224,115,62903,2,0,P|269:127|315:118,1,93.5000028533936,8|2,0:0|1:2,0:0:0:0:
410,34,63236,5,14,0:2:0:0:
142,43,63403,1,0,1:0:0:0:
417,146,63569,5,10,0:2:0:0:
126,57,63736,1,0,1:0:0:0:
375,246,63903,5,10,0:2:0:0:
109,69,64069,1,10,0:2:0:0:
150,60,64152,1,8,0:0:0:0:
192,64,64235,1,10,0:2:0:0:
231,80,64319,1,8,0:0:0:0:
264,106,64402,1,0,0:0:0:0:
287,142,64485,1,0,0:0:0:0:
298,181,64569,6,0,P|208:169|129:215,1,187.000005706787,6|8,1:2|0:0,0:0:0:0:
304,314,65069,2,0,P|276:276|234:256,1,93.5000028533936,2|2,3:2|1:2,0:0:0:0:
132,105,65403,1,2,1:2:0:0:
366,245,65569,1,10,0:2:0:0:
111,339,65736,1,2,3:2:0:0:
172,10,65903,6,0,P|219:88|211:180,1,187.000005706787,2|8,1:2|0:0,0:0:0:0:
132,105,66403,1,2,3:2:0:0:
297,220,66569,2,0,P|266:254|224:273,1,93.5000028533936,2|2,1:2|1:2,0:0:0:0:
294,32,66903,2,0,P|346:65|373:115,1,93.5000028533936,10|2,0:2|3:2,0:0:0:0:
181,349,67236,6,0,P|122:302|100:198,1,165.749992412568,6|8,1:2|0:0,0:0:0:0:
97,217,67569,1,10,0:2:0:0:
435,311,67736,2,0,P|460:262|467:207,1,110.499994941712,6|0,1:2|0:0,0:0:0:0:
205,260,68069,2,0,P|182:214|178:163,1,101.999996887207,6|0,1:2|0:0,0:0:0:0:
376,236,68403,6,0,P|385:136|337:31,1,203.999993774414,2|0,1:2|1:0,0:0:0:0:
292,134,68903,2,0,P|238:80|164:65,1,152.999995330811,8|0,0:0|0:0,0:0:0:0:
164,65,69236,1,10,0:2:0:0:
111,276,69403,1,0,1:0:0:0:
269,216,69569,1,10,0:2:0:0:
148,153,69736,2,0,P|173:154|198:159,1,50.9999984436036,2|0,3:2|0:0,0:0:0:0:
353,256,69903,6,0,L|480:232,1,101.999996887207,6|0,1:2|0:0,0:0:0:0:
310,33,70236,2,0,L|291:133,1,101.999996887207,10|0,0:2|3:0,0:0:0:0:
437,331,70569,2,0,L|336:349,1,101.999996887207,2|0,1:2|1:0,0:0:0:0:
198,159,70903,2,0,L|216:58,1,101.999996887207,10|0,0:2|3:0,0:0:0:0:
216,58,71153,1,0,0:0:0:0:
216,58,71236,5,2,1:2:0:0:
335,270,71403,1,2,3:2:0:0:
104,190,71569,1,10,0:2:0:0:
406,194,71736,2,0,B|305:180|305:180|221:257,1,203.999993774414,0|2,3:0|1:2,0:0:0:0:
13,320,72236,1,10,0:2:0:0:
140,319,72403,2,0,L|147:256,1,50.9999984436036,2|0,3:2|0:0,0:0:0:0:
14,43,72569,6,0,L|34:143,1,101.999996887207,6|0,1:2|3:0,0:0:0:0:
240,205,72903,1,8,0:0:0:0:
24,229,73069,1,2,3:2:0:0:
207,124,73236,2,0,L|211:12,1,101.999996887207,2|0,1:2|1:0,0:0:0:0:
136,256,73569,1,8,0:0:0:0:
112,43,73736,2,0,L|117:96,1,50.9999984436036,2|0,1:2|0:0,0:0:0:0:
13,320,73903,5,14,0:2:0:0:
298,252,74069,1,0,1:0:0:0:
64,189,74236,5,10,0:2:0:0:
381,295,74403,1,0,1:0:0:0:
200,94,74569,5,10,0:2:0:0:
438,365,74736,1,8,3:0:0:0:
381,295,74903,1,4,3:0:0:0:
298,252,75069,1,4,3:0:0:0:
205,254,75236,6,0,P|285:236|345:127,1,191.250007295609,6|2,1:2|1:2,0:0:0:0:
109,52,75903,2,0,P|149:136|239:162,1,191.250007295609,10|10,0:2|0:2,0:0:0:0:
282,43,76569,5,0,1:0:0:0:
205,6,76736,2,0,P|199:37|202:68,1,63.7500024318696,8|0,0:0|1:0,0:0:0:0:
358,9,77069,2,0,P|363:40|360:71,1,63.7500024318696,0|8,1:0|0:0,0:0:0:0:
217,251,77403,1,2,0:2:0:0:
282,43,77569,1,2,0:2:0:0:
348,254,77736,1,2,0:2:0:0:
115,228,77903,6,0,P|186:166|278:173,1,191.250007295609,6|2,1:2|1:2,0:0:0:0:
217,251,78569,2,0,P|301:292|339:378,1,191.250007295609,10|10,0:2|0:2,0:0:0:0:
238,350,79236,5,2,1:2:0:0:
368,221,79403,2,0,P|391:261|397:303,1,63.7500024318696,8|0,0:0|1:0,0:0:0:0:
238,350,79736,2,0,P|220:323|210:293,1,63.7500024318696,0|8,1:0|0:0,0:0:0:0:
348,118,80069,1,2,0:2:0:0:
328,336,80236,1,2,0:2:0:0:
147,208,80403,1,2,0:2:0:0:
413,185,80569,6,0,P|370:209|343:252,1,101.999996887207,6|0,1:2|0:0,0:0:0:0:
328,336,80819,1,0,0:0:0:0:
328,336,80903,1,10,0:2:0:0:
77,148,81069,6,0,P|145:118|218:136,1,152.999995330811,6|8,1:2|0:0,0:0:0:0:
218,136,81403,1,8,0:0:0:0:
328,336,81569,1,6,1:2:0:0:
147,208,81736,6,0,P|171:212|194:224,1,50.9999984436036,2|8,1:2|0:0,0:0:0:0:
256,284,81903,1,8,0:0:0:0:
256,52,82069,5,6,1:2:0:0:
256,52,82236,1,2,0:2:0:0:
256,52,82403,1,2,0:2:0:0:
184,178,82569,1,2,0:2:0:0:
328,177,82736,1,2,0:2:0:0:
256,136,82903,5,2,0:2:0:0:
256,136,83236,2,0,B|124:88|16:168|16:168|56:176|60:208,1,297.5,2|0,0:2|1:0,0:0:0:0:
4,248,84486,1,0,1:0:0:0:
4,248,84569,6,0,P|48:240|88:268,1,89.2499972763062,4|0,1:0|0:0,0:0:0:0:
87,276,84903,6,0,P|22:331|4:248,1,203.999993774414,14|0,0:0|3:0,0:0:0:0:
184,324,85403,1,2,1:2:0:0:
147,115,85569,1,10,0:2:0:0:
84,262,85736,6,0,P|133:256|168:220,1,101.999996887207,2|0,1:2|3:0,0:0:0:0:
224,88,86069,2,0,P|194:47|145:35,1,101.999996887207,2|8,1:2|0:0,0:0:0:0:
84,262,86403,2,0,P|133:256|139:116,1,203.999993774414,2|0,1:2|1:0,0:0:0:0:
22,133,86903,2,0,P|51:173|100:185,1,101.999996887207,8|0,0:0|1:0,0:0:0:0:
336,148,87236,5,0,1:0:0:0:
154,127,87403,1,0,0:0:0:0:
336,148,87569,2,0,P|265:102|262:186,1,203.999993774414,10|0,0:2|3:0,0:0:0:0:
396,336,88069,1,2,1:2:0:0:
440,144,88236,1,10,0:2:0:0:
244,272,88403,6,0,P|294:270|335:241,1,101.999996887207,2|0,1:2|3:0,0:0:0:0:
144,256,88736,1,2,0:2:0:0:
300,70,88903,1,10,0:2:0:0:
124,83,89069,2,0,P|164:171|261:185,1,203.999993774414,2|2,1:2|1:2,0:0:0:0:
232,8,89569,2,0,P|210:53|216:104,1,101.999996887207,10|0,0:2|1:0,0:0:0:0:
452,288,89903,6,0,P|425:261|357:269,1,89.2499972763062,4|0,1:0|0:0,0:0:0:0:
368,245,90236,6,0,P|441:200|451:286,1,203.999993774414,14|0,0:0|3:0,0:0:0:0:
230,355,90736,1,2,1:2:0:0:
311,179,90903,1,10,0:2:0:0:
359,332,91069,6,0,P|304:306|283:247,1,101.999996887207,2|0,1:2|0:0,0:0:0:0:
245,133,91403,2,0,P|285:101|335:99,1,101.999996887207,2|8,1:2|0:0,0:0:0:0:
359,332,91736,2,0,P|304:306|335:166,1,203.999993774414,2|0,1:2|1:0,0:0:0:0:
453,210,92236,2,0,P|413:242|363:244,1,101.999996887207,8|0,0:0|1:0,0:0:0:0:
152,158,92569,5,0,1:0:0:0:
335,99,92736,1,0,0:0:0:0:
152,158,92903,2,0,P|204:91|236:169,1,203.999993774414,10|0,0:2|3:0,0:0:0:0:
121,336,93403,1,2,1:2:0:0:
50,144,93569,1,10,0:2:0:0:
158,256,93736,6,0,P|107:252|61:273,1,101.999996887207,2|0,1:2|3:0,0:0:0:0:
121,336,94069,1,2,1:2:0:0:
134,158,94236,1,10,0:2:0:0:
250,288,94403,2,0,P|225:193|134:158,1,203.999993774414,2|2,1:2|1:2,0:0:0:0:
17,38,94903,1,10,0:2:0:0:
46,196,95069,6,0,P|70:100|161:65,1,203.999993774414,6|2,1:2|3:2,0:0:0:0:
290,108,95569,1,10,0:2:0:0:
134,158,95736,6,0,B|248:137|208:219|341:188,1,203.999993774414,6|2,1:2|1:2,0:0:0:0:
244,36,96236,1,10,0:2:0:0:
364,268,96403,6,0,P|402:235|414:186,1,101.999996887207,14|0,0:2|0:0,0:0:0:0:
290,108,96736,1,8,3:0:0:0:
324,348,96903,1,10,0:2:0:0:
492,180,97069,6,0,P|487:155|474:133,1,50.9999984436036,10|0,0:2|0:0,0:0:0:0:
192,132,97236,1,8,0:0:0:0:
408,364,97403,1,8,3:0:0:0:
408,48,97569,1,8,3:0:0:0:
240,344,97736,5,6,1:2:0:0:
256,192,97819,12,0,100569,0:0:0:0:
