osu file format v14

[General]
AudioFilename: audio.mp3
AudioLeadIn: 0
PreviewTime: 53153
Countdown: 0
SampleSet: Soft
StackLeniency: 0.7
Mode: 0
LetterboxInBreaks: 0
WidescreenStoryboard: 1

[Editor]
DistanceSpacing: 1.8
BeatDivisor: 4
GridSize: 4
TimelineZoom: 2.7

[Metadata]
Title:Ai Wo Utae
TitleUnicode:アイヲウタエ
Artist:ClariS
ArtistUnicode:ClariS
Creator:Sotarks
Version:Insane
Source:〈物語〉シリーズ セカンドシーズン
Tags:Monogatari Series Second Season ending jin shizen no teki p じん 自然の敵p akitoshi corinn kin kyuukai yaleufeu hareimu toybot haruna luna 春菜るな
BeatmapID:1536685
BeatmapSetID:725480

[Difficulty]
HPDrainRate:5
CircleSize:3.8
OverallDifficulty:8.5
ApproachRate:9
SliderMultiplier:1.72
SliderTickRate:1

[Events]
//Background and Video events
0,0,"BG.jpg",0,0
//Break Periods
2,82269,83803
//Storyboard Layer 0 (Background)
//Storyboard Layer 1 (Fail)
//Storyboard Layer 2 (Pass)
//Storyboard Layer 3 (Foreground)
//Storyboard Sound Samples

[TimingPoints]
570,333.333333333333,4,2,22,42,1,0
570,-161.290322580645,4,2,22,42,0,0
5903,-121.951219512195,4,2,22,42,0,0
8569,-98.0392156862745,4,2,22,52,0,0
8903,-81.9672131147541,4,2,22,52,0,0
9236,-98.0392156862745,4,2,22,52,0,0
14236,-81.9672131147541,4,2,22,52,0,0
14569,-98.0392156862745,4,2,22,52,0,0
19319,-98.0392156862745,4,2,22,42,0,0
19736,-98.0392156862745,4,2,22,32,0,0
21569,-98.0392156862745,4,2,22,22,0,0
21903,-108.695652173913,4,2,22,42,0,0
32569,-98.0392156862745,4,2,22,52,0,0
43236,-121.951219512195,4,2,22,42,0,0
48569,-108.695652173913,4,2,22,52,0,0
53236,-192.307692307692,4,2,22,22,0,0
53903,-81.967213114754,4,2,22,52,0,1
54153,-81.967213114754,4,2,22,5,0,1
54236,-81.967213114754,4,2,22,62,0,1
64819,-81.967213114754,4,2,22,5,0,1
64903,-81.967213114754,4,2,22,62,0,1
67986,-81.967213114754,4,2,22,5,0,1
68069,-81.967213114754,4,2,22,62,0,1
68319,-81.967213114754,4,2,22,5,0,1
68403,-81.967213114754,4,2,22,62,0,1
75236,-108.695652173913,4,2,22,52,0,0
80569,-89.2857142857143,4,2,22,52,0,0
82153,-89.2857142857143,4,2,22,42,0,0
82903,-138.888888888889,4,2,22,32,0,0
83236,-450.307692307692,4,2,22,22,0,0
84403,-450.307692307692,4,2,22,32,0,0
84569,-97.8406204037972,4,2,22,52,0,0
84903,-81.828347777467,4,2,22,52,0,0
85236,-97.8406204037971,4,2,22,52,0,0
90236,-81.828347777467,4,2,22,52,0,0
90569,-97.8406204037971,4,2,22,52,0,0
96403,-89.1209694607678,4,2,22,62,0,0
100569,-89.1209694607678,4,2,22,5,0,0

[Colours]
Combo1 : 187,167,245
Combo2 : 230,252,103
Combo3 : 169,211,254
Combo4 : 190,251,145

[HitObjects]
364,332,570,5,4,1:0:0:0:
180,288,1903,1,4,1:0:0:0:
396,112,2736,2,0,P|404:80|404:60,2,53.3199978846436,8|4|4,0:0|3:0|3:0,0:0:0:0:
276,312,3236,5,4,1:0:0:0:
120,108,4569,1,4,1:0:0:0:
364,220,5069,1,8,3:0:0:0:
96,248,5403,2,0,P|132:224|156:220,1,53.3199978846436,4|0,3:0|1:0,0:0:0:0:
232,240,5736,1,4,3:0:0:0:
416,108,5903,6,0,P|368:100|344:84,1,70.5200010760498,4|0,1:0|1:0,0:0:0:0:
176,132,6236,1,8,0:0:0:0:
176,132,6403,2,0,P|224:124|248:104,1,70.5200010760498,4|0,1:0|0:0,0:0:0:0:
72,44,6736,1,8,0:0:0:0:
100,248,6903,5,4,1:0:0:0:
392,124,8403,5,0,1:0:0:0:
392,124,8486,1,0,1:0:0:0:
392,124,8569,2,0,B|416:200|376:184|408:276,1,131.580000803101,4|0,1:0|0:0,0:0:0:0:
401,253,8903,2,0,B|324:240|324:240|282:259|282:259|199:239,1,209.839991354859,14|0,0:0|3:0,0:0:0:0:
67,278,9403,1,2,1:2:0:0:
184,157,9569,1,10,0:2:0:0:
216,336,9736,2,0,L|310:362,2,87.7200005354004,2|0|2,1:2|3:0|1:2,0:0:0:0:
186,136,10236,1,8,0:0:0:0:
104,281,10403,2,0,L|10:307,2,87.7200005354004,2|0|0,1:2|3:0|1:0,0:0:0:0:
272,169,10903,2,0,P|269:108|254:73,1,87.7200005354004,8|0,0:0|1:0,0:0:0:0:
367,288,11236,6,0,P|384:212|424:149,1,131.580000803101,0|0,1:0|0:0,0:0:0:0:
410,165,11569,2,0,P|433:109|335:23,1,175.440001070801,10|0,0:2|3:0,0:0:0:0:
225,15,12069,1,2,1:2:0:0:
344,109,12236,1,10,0:2:0:0:
156,66,12403,2,0,P|104:77|65:100,1,87.7200005354004,2|0,1:2|3:0,0:0:0:0:
249,124,12736,1,2,0:2:0:0:
127,161,12903,1,10,0:2:0:0:
293,198,13069,2,0,P|336:205|375:225,1,87.7200005354004,2|0,1:2|3:0,0:0:0:0:
228,296,13403,1,2,1:2:0:0:
234,139,13569,1,10,0:2:0:0:
154,252,13736,5,0,1:0:0:0:
154,252,13819,1,0,1:0:0:0:
154,252,13903,2,0,P|103:249|45:155,1,131.580000803101,4|0,1:0|0:0,0:0:0:0:
49,193,14236,2,0,B|91:37|91:37|131:112,1,209.839991354859,14|0,0:0|3:0,0:0:0:0:
159,201,14736,1,2,1:2:0:0:
237,63,14903,1,10,0:2:0:0:
266,224,15069,2,0,P|260:277|251:319,2,87.7200005354004,2|0|2,1:2|0:0|1:2,0:0:0:0:
332,35,15569,1,8,0:0:0:0:
361,196,15735,2,0,P|355:249|346:291,2,87.7200005354004,2|0|0,1:2|3:0|1:0,0:0:0:0:
246,71,16236,2,0,P|192:51|151:41,1,87.7200005354004,8|0,0:0|1:0,0:0:0:0:
0,156,16569,6,0,B|81:146|41:197|137:196,1,131.580000803101,0|0,1:0|0:0,0:0:0:0:
120,195,16903,2,0,P|194:163|297:175,1,175.440001070801,10|0,0:2|3:0,0:0:0:0:
208,276,17403,1,2,1:2:0:0:
356,232,17569,1,10,0:2:0:0:
254,349,17736,2,0,P|200:367|148:361,1,87.7200005354004,2|0,1:2|3:0,0:0:0:0:
98,245,18069,1,2,0:2:0:0:
10,368,18236,1,10,0:2:0:0:
38,188,18403,2,0,P|72:144|114:114,1,87.7200005354004,2|0,1:2|3:0,0:0:0:0:
190,279,18736,1,2,1:2:0:0:
178,90,18903,1,10,0:2:0:0:
259,226,19069,5,4,3:0:0:0:
259,226,19153,1,4,3:0:0:0:
259,226,19236,2,0,L|393:214,1,131.580000803101,6|8,1:2|0:0,0:0:0:0:
390,214,19569,1,8,0:0:0:0:
510,115,19736,6,0,L|376:103,1,131.580000803101,8|8,3:0|0:0,0:0:0:0:
378,103,20069,1,8,0:0:0:0:
168,41,20236,6,0,P|229:78|254:151,1,131.580000803101,12|8,3:0|0:0,0:0:0:0:
252,131,20569,1,8,0:0:0:0:
228,301,20736,6,0,P|167:264|142:191,1,131.580000803101,4|8,3:0|0:0,0:0:0:0:
143,210,21069,1,8,0:0:0:0:
115,338,21236,1,8,0:0:0:0:
63,206,21403,1,8,0:0:0:0:
39,296,21569,1,4,3:0:0:0:
39,296,21736,1,4,3:0:0:0:
82,119,21903,6,0,P|131:100|186:98,1,79.1199973439942,2|0,1:2|0:0,0:0:0:0:
328,86,22236,2,0,P|263:73|181:1,2,158.239994687988,2|2|2,1:2|1:2|1:2,0:0:0:0:
426,60,23069,1,2,0:2:0:0:
364,162,23236,2,0,P|356:212|355:251,1,79.1199973439942,0|2,1:0|0:2,0:0:0:0:
281,324,23569,1,0,1:0:0:0:
281,324,23736,2,0,P|278:284|271:245,2,79.1199973439942,2|0|2,0:2|1:0|0:2,0:0:0:0:
180,203,24236,2,0,P|136:172|102:163,1,79.1199973439942,2|0,1:2|3:0,0:0:0:0:
112,164,24486,1,0,3:0:0:0:
112,164,24569,1,2,1:2:0:0:
414,55,24903,6,0,P|428:103|430:137,1,79.1199973439942,2|0,1:2|0:0,0:0:0:0:
341,240,25236,2,0,P|344:200|357:163,2,79.1199973439942,2|0|2,1:2|0:0|1:2,0:0:0:0:
382,359,25736,1,2,0:2:0:0:
259,301,25903,1,0,1:0:0:0:
259,301,26069,2,0,P|182:314|163:322,1,79.1199973439942,2|0,0:2|1:0,0:0:0:0:
118,212,26403,2,0,P|157:215|195:225,2,79.1199973439942,2|0|2,0:2|1:0|0:2,0:0:0:0:
40,288,26903,1,2,1:2:0:0:
31,186,27069,1,2,3:2:0:0:
136,289,27236,6,0,L|300:264,1,158.239994687988,2|2,1:2|1:2,0:0:0:0:
448,276,27736,2,0,P|401:268|362:248,1,79.1199973439942,2|0,0:2|1:0,0:0:0:0:
245,167,28069,2,0,P|292:175|331:195,1,79.1199973439942,2|0,0:2|1:0,0:0:0:0:
223,86,28403,1,2,0:2:0:0:
143,214,28569,2,0,P|97:248|-3:246,2,158.239994687988,0|2|2,1:0|1:2|1:2,0:0:0:0:
213,104,29403,1,0,0:0:0:0:
258,254,29569,1,2,1:2:0:0:
302,128,29736,1,2,3:2:0:0:
302,128,29819,1,0,3:0:0:0:
302,128,29903,6,0,P|359:133|447:194,1,158.239994687988,2|0,1:2|1:0,0:0:0:0:
498,327,30403,2,0,P|458:297|425:288,1,79.1199973439942,2|0,0:2|1:0,0:0:0:0:
281,332,30736,1,8,3:0:0:0:
363,235,30903,1,2,1:2:0:0:
276,337,31069,1,8,3:0:0:0:
235,176,31236,2,0,P|213:131|186:98,1,79.1199973439942,10|8,0:2|0:0,0:0:0:0:
189,108,31486,1,8,0:0:0:0:
189,108,31569,1,8,3:0:0:0:
87,253,31736,2,0,P|144:217|260:214,1,158.239994687988,6|0,1:2|1:0,0:0:0:0:
388,291,32236,2,0,P|330:272|299:241,1,79.1199973439942,8|8,0:0|0:0,0:0:0:0:
313,176,32486,1,8,0:0:0:0:
313,176,32569,6,0,L|304:74,1,87.7200005354004,6|0,1:2|0:0,0:0:0:0:
155,28,32903,2,0,L|147:115,1,87.7200005354004,10|2,0:2|3:2,0:0:0:0:
218,258,33236,2,0,L|230:74,1,175.440001070801,2|10,1:2|0:2,0:0:0:0:
129,198,33736,2,0,L|139:312,1,87.7200005354004,2|0,3:2|1:0,0:0:0:0:
296,312,34069,2,0,L|303:224,1,87.7200005354004,2|10,0:2|0:2,0:0:0:0:
208,73,34403,2,0,L|219:248,1,175.440001070801,2|0,3:2|0:2,0:0:0:0:
298,93,34903,2,0,L|278:7,1,87.7200005354004,10|0,0:2|3:0,0:0:0:0:
129,121,35236,5,6,1:2:0:0:
129,121,35569,1,10,0:2:0:0:
86,204,35736,1,2,3:2:0:0:
180,187,35903,1,2,1:2:0:0:
143,270,36069,1,2,0:2:0:0:
290,212,36236,1,10,0:2:0:0:
379,346,36403,2,0,P|431:343|469:324,1,87.7200005354004,2|0,3:2|1:0,0:0:0:0:
476,180,36736,2,0,P|424:183|386:202,1,87.7200005354004,2|8,0:2|0:0,0:0:0:0:
249,299,37069,2,0,P|323:309|428:257,1,175.440001070801,2|2,3:2|0:2,0:0:0:0:
265,214,37569,1,8,0:0:0:0:
336,352,37736,1,2,3:2:0:0:
327,152,37903,6,0,P|270:117|142:84,1,175.440001070801,6|10,1:2|0:2,0:0:0:0:
61,208,38403,2,0,P|124:191|158:161,1,87.7200005354004,2|0,3:2|1:0,0:0:0:0:
247,56,38736,2,0,P|184:73|150:103,1,87.7200005354004,2|10,0:2|0:2,0:0:0:0:
156,255,39069,2,0,P|180:171|161:73,1,175.440001070801,2|0,3:2|0:0,0:0:0:0:
251,235,39569,2,0,P|263:284|265:326,1,87.7200005354004,10|0,0:2|3:0,0:0:0:0:
333,195,39903,1,2,1:2:0:0:
371,321,40069,1,2,0:2:0:0:
414,157,40236,1,10,0:2:0:0:
414,157,40403,1,0,1:0:0:0:
221,124,40569,6,0,P|162:130|110:147,1,87.7200005354004,14|0,0:2|1:0,0:0:0:0:
53,243,40903,1,0,1:0:0:0:
254,342,41069,6,0,P|291:319|324:290,1,87.7200005354004,14|0,0:2|1:0,0:0:0:0:
334,173,41403,1,0,1:0:0:0:
127,69,41569,6,0,P|108:108|95:150,1,87.7200005354004,14|0,0:2|0:0,0:0:0:0:
151,254,41903,1,0,1:0:0:0:
282,75,42069,6,0,P|358:55|460:61,1,175.440001070801,14|0,0:2|1:0,0:0:0:0:
325,154,42569,1,8,0:0:0:0:
436,138,42736,1,8,3:0:0:0:
353,233,42903,1,4,3:0:0:0:
439,221,43069,1,4,3:0:0:0:
311,313,43236,6,0,P|261:329|145:336,1,141.0400021521,6|0,1:2|1:0,0:0:0:0:
30,248,43736,1,2,0:2:0:0:
65,166,43903,2,0,P|115:150|231:143,1,141.0400021521,2|0,1:2|1:0,0:0:0:0:
343,225,44403,1,2,0:2:0:0:
296,135,44569,2,0,P|313:61|351:1,1,141.0400021521,2|0,1:2|1:0,0:0:0:0:
373,241,45236,1,2,1:2:0:0:
222,308,45403,1,10,0:2:0:0:
272,228,45569,1,2,1:2:0:0:
385,330,45736,1,4,3:0:0:0:
385,330,45819,1,4,3:0:0:0:
385,330,45903,6,0,P|402:240|432:174,1,141.0400021521,6|0,1:2|1:0,0:0:0:0:
319,60,46403,1,2,0:2:0:0:
254,126,46569,2,0,P|196:148|108:148,1,141.0400021521,2|0,1:2|1:0,0:0:0:0:
8,31,47069,1,2,0:2:0:0:
59,106,47236,2,0,P|77:151|91:269,1,141.0400021521,2|0,1:2|1:0,0:0:0:0:
254,126,47736,1,8,0:2:0:0:
191,222,47903,2,0,P|177:272|177:310,1,70.5200010760498,2|0,1:2|0:0,0:0:0:0:
159,141,48236,1,2,1:2:0:0:
263,279,48403,1,4,3:0:0:0:
263,279,48486,1,4,3:0:0:0:
263,279,48569,6,0,P|327:250|423:239,1,158.239994687988,6|0,1:2|0:0,0:0:0:0:
266,365,49069,1,2,1:2:0:0:
188,313,49236,2,0,P|124:284|28:273,1,158.239994687988,10|0,0:2|0:0,0:0:0:0:
165,138,49736,2,0,P|183:205|184:240,1,79.1199973439942,10|2,0:2|1:2,0:0:0:0:
287,88,50069,1,8,0:0:0:0:
298,190,50236,2,0,P|285:227|279:266,1,79.1199973439942,0|2,1:0|0:2,0:0:0:0:
191,115,50569,2,0,P|140:102|82:102,1,79.1199973439942,10|2,0:2|0:2,0:0:0:0:
20,207,50903,2,0,P|71:194|129:194,1,79.1199973439942,2|8,1:2|0:0,0:0:0:0:
254,268,51236,5,6,1:2:0:0:
36,113,51569,1,8,0:0:0:0:
254,268,51903,5,10,0:2:0:0:
182,163,52069,1,8,3:0:0:0:
177,298,52236,1,8,3:0:0:0:
271,177,52403,1,4,3:0:0:0:
271,177,52486,1,4,3:0:0:0:
271,177,52569,1,10,0:2:0:0:
305,337,52736,1,10,0:2:0:0:
305,337,53236,6,0,P|332:292|373:267,1,89.4399994541016,2|2,0:0|0:0,0:0:0:0:
435,251,53736,1,2,0:0:0:0:
234,271,53903,6,0,P|165:282|70:267,1,157.379993516144,6|0,1:2|0:0,0:0:0:0:
78,269,54236,1,8,0:0:0:0:
114,100,54403,2,0,P|145:168|151:204,1,104.919995677429,2|2,3:2|1:2,0:0:0:0:
254,76,54736,1,2,1:2:0:0:
225,246,54903,1,10,0:2:0:0:
172,45,55069,1,2,3:2:0:0:
237,252,55236,6,0,P|298:273|371:263,1,104.919995677429,2|0,1:2|0:0,0:0:0:0:
357,71,55569,2,0,P|304:72|256:91,1,104.919995677429,8|2,0:0|3:2,0:0:0:0:
211,238,55903,1,2,1:2:0:0:
360,152,56069,1,2,1:2:0:0:
180,108,56236,1,10,0:2:0:0:
266,302,56403,1,2,3:2:0:0:
296,75,56569,6,0,P|344:55|396:54,1,104.919995677429,6|0,1:2|0:0,0:0:0:0:
449,235,56903,1,10,0:2:0:0:
346,146,57069,2,0,P|297:126|245:125,1,104.919995677429,2|0,0:2|1:0,0:0:0:0:
80,221,57403,2,0,P|129:201|181:200,1,104.919995677429,2|8,1:2|0:0,0:0:0:0:
372,271,57736,6,0,P|309:245|245:117,1,209.839991354859,2|0,1:2|1:0,0:0:0:0:
371,67,58236,2,0,P|352:139|365:198,1,104.919995677429,8|0,0:0|0:0,0:0:0:0:
460,311,58569,2,0,P|461:258|444:209,1,104.919995677429,2|0,1:2|1:0,0:0:0:0:
273,139,58903,1,10,0:2:0:0:
372,259,59069,1,2,3:2:0:0:
206,189,59236,6,0,P|140:201|87:232,1,104.919995677429,6|0,1:2|3:0,0:0:0:0:
289,298,59569,2,0,P|355:310|408:341,1,104.919995677429,10|0,0:2|3:0,0:0:0:0:
297,183,59903,2,0,P|287:120|291:58,1,104.919995677429,2|0,1:2|1:0,0:0:0:0:
202,274,60236,2,0,P|202:326|193:377,1,104.919995677429,10|0,0:2|3:0,0:0:0:0:
157,163,60569,5,2,1:2:0:0:
288,275,60736,1,2,3:2:0:0:
114,238,60903,1,10,0:2:0:0:
294,190,61069,2,0,P|361:186|415:196,1,104.919995677429,0|0,3:0|1:0,0:0:0:0:
243,115,61403,5,2,1:2:0:0:
201,284,61569,1,10,0:2:0:0:
163,76,61736,1,2,3:2:0:0:
112,328,61903,6,0,P|208:300|343:308,1,209.839991354859,6|8,1:2|0:0,0:0:0:0:
189,222,62403,1,2,3:2:0:0:
342,221,62569,2,0,P|400:255|428:300,1,104.919995677429,2|0,1:2|1:0,0:0:0:0:
258,163,62903,5,8,0:0:0:0:
350,137,63069,1,2,1:2:0:0:
168,138,63236,5,14,0:2:0:0:
342,221,63403,1,0,1:0:0:0:
98,211,63569,5,10,0:2:0:0:
273,82,63736,1,0,1:0:0:0:
11,134,63903,5,10,0:2:0:0:
256,267,64069,1,10,0:2:0:0:
256,267,64153,1,8,0:0:0:0:
256,267,64236,2,0,P|322:257|337:252,1,52.4599978387147,10|8,0:2|0:0,0:0:0:0:
188,342,64403,2,0,P|122:332|107:327,1,52.4599978387147,10|8,0:2|0:0,0:0:0:0:
200,189,64569,6,0,P|279:167|397:164,1,157.379993516144,6|0,1:2|0:0,0:0:0:0:
353,161,64903,1,8,0:0:0:0:
206,102,65069,1,2,3:2:0:0:
300,87,65236,1,2,1:2:0:0:
163,35,65403,1,2,1:2:0:0:
250,171,65569,1,10,0:2:0:0:
340,16,65736,1,2,3:2:0:0:
334,258,65903,6,0,P|270:288|200:280,1,104.919995677429,2|0,1:2|0:0,0:0:0:0:
105,201,66236,1,8,0:0:0:0:
198,214,66403,1,2,3:2:0:0:
93,280,66569,1,2,1:2:0:0:
113,120,66736,1,2,1:2:0:0:
192,295,66903,1,10,0:2:0:0:
210,132,67069,1,2,3:2:0:0:
277,309,67236,6,0,P|339:301|383:281,1,104.919995677429,6|0,1:2|0:0,0:0:0:0:
390,269,67486,1,8,0:0:0:0:
390,269,67569,1,10,0:2:0:0:
311,65,67736,6,0,L|308:227,1,157.379993516144,6|0,1:2|0:0,0:0:0:0:
280,229,68069,2,0,L|282:71,1,157.379993516144,6|0,1:2|0:0,0:0:0:0:
239,38,68403,6,0,L|235:289,1,209.839991354859,2|0,1:2|1:0,0:0:0:0:
89,347,68903,2,0,P|119:293|124:242,1,104.919995677429,8|0,0:0|0:0,0:0:0:0:
115,80,69236,2,0,P|85:134|80:185,1,104.919995677429,10|0,0:2|1:0,0:0:0:0:
210,53,69569,1,10,0:2:0:0:
274,166,69736,1,2,3:2:0:0:
274,166,69819,1,0,0:0:0:0:
274,166,69903,6,0,P|340:150|384:152,1,104.919995677429,6|0,1:2|0:0,0:0:0:0:
250,262,70236,2,0,P|184:246|140:248,1,104.919995677429,10|0,0:2|3:0,0:0:0:0:
286,351,70569,2,0,P|352:335|396:337,1,104.919995677429,2|0,1:2|1:0,0:0:0:0:
509,239,70903,2,0,P|458:224|406:223,1,104.919995677429,10|0,0:2|3:0,0:0:0:0:
237,269,71236,5,2,1:2:0:0:
341,168,71403,1,2,3:2:0:0:
299,328,71569,1,10,0:2:0:0:
259,143,71736,2,0,P|243:84|214:41,1,104.919995677429,0|0,3:0|1:0,0:0:0:0:
156,239,72069,2,0,P|102:261|57:257,1,104.919995677429,2|10,1:2|0:2,0:0:0:0:
173,155,72403,1,2,3:2:0:0:
229,322,72569,6,0,P|283:344|431:306,1,209.839991354859,6|8,1:2|0:0,0:0:0:0:
486,197,73069,1,2,3:2:0:0:
359,134,73236,2,0,P|371:218|394:260,1,104.919995677429,2|0,1:2|1:0,0:0:0:0:
468,113,73569,2,0,P|465:60|448:11,1,104.919995677429,8|2,0:0|1:2,0:0:0:0:
258,112,73903,5,14,0:2:0:0:
366,49,74069,1,0,1:0:0:0:
273,190,74236,5,10,0:2:0:0:
287,30,74403,1,0,1:0:0:0:
350,235,74569,5,10,0:2:0:0:
179,137,74736,1,8,3:0:0:0:
401,159,74903,2,0,P|440:216|444:267,1,104.919995677429,4|4,3:0|3:0,0:0:0:0:
242,311,75236,6,0,P|250:217|297:135,1,158.239994687988,6|0,1:2|0:0,0:0:0:0:
161,281,75736,1,2,1:2:0:0:
107,213,75903,2,0,P|75:140|71:62,1,158.239994687988,10|2,0:2|0:2,0:0:0:0:
202,55,76403,2,0,P|161:95|146:127,1,79.1199973439942,10|0,0:2|1:0,0:0:0:0:
320,129,76736,2,0,P|262:128|229:140,1,79.1199973439942,8|0,0:0|1:0,0:0:0:0:
351,217,77069,1,0,1:0:0:0:
214,209,77236,2,0,P|139:237|119:262,1,79.1199973439942,8|2,0:0|0:2,0:0:0:0:
257,327,77569,2,0,P|332:299|352:274,1,79.1199973439942,2|2,0:2|0:2,0:0:0:0:
479,137,77903,6,0,P|400:163|340:239,1,158.239994687988,6|0,1:2|0:0,0:0:0:0:
329,60,78403,1,2,1:2:0:0:
270,131,78569,2,0,P|206:146|92:114,1,158.239994687988,10|0,0:2|0:0,0:0:0:0:
22,22,79069,2,0,P|42:70|44:104,1,79.1199973439942,10|2,0:2|1:2,0:0:0:0:
94,202,79403,2,0,P|99:162|116:127,1,79.1199973439942,8|0,0:0|1:0,0:0:0:0:
171,251,79736,1,0,1:0:0:0:
264,165,79903,2,0,P|310:153|349:154,1,79.1199973439942,8|2,0:0|0:2,0:0:0:0:
450,257,80236,2,0,P|404:245|365:246,1,79.1199973439942,2|2,0:2|0:2,0:0:0:0:
217,333,80569,6,0,P|296:323|379:227,1,192.640002351563,6|10,1:2|0:2,0:0:0:0:
171,251,81069,2,0,P|92:241|9:145,1,192.640002351563,6|8,1:2|0:0,0:0:0:0:
252,185,81569,2,0,P|306:170|351:133,1,96.3200011757813,6|2,1:2|1:2,0:0:0:0:
346,128,81819,1,8,0:0:0:0:
346,128,81903,1,8,0:0:0:0:
120,101,82069,1,6,1:2:0:0:
66,267,84403,5,4,1:1:0:0:
66,267,84486,1,4,1:1:0:0:
66,267,84569,2,0,B|59:232|59:232|68:191|68:191|50:115,1,131.847076839149,4|0,1:0|0:0,0:0:0:0:
56,139,84903,2,0,B|116:174|149:151|155:146|161:142|206:114|258:153,1,210.196109144596,14|0,0:0|3:0,0:0:0:0:
390,114,85403,1,2,1:2:0:0:
273,235,85569,1,10,0:2:0:0:
241,56,85736,2,0,P|201:37|147:30,2,87.8980512260992,2|0|2,1:2|3:0|1:2,0:0:0:0:
271,256,86236,1,8,0:0:0:0:
353,110,86403,2,0,P|394:92|447:84,2,87.8980512260992,2|0|0,1:2|3:0|1:0,0:0:0:0:
185,223,86903,2,0,P|188:284|203:319,1,87.7200005354004,8|0,0:0|1:0,0:0:0:0:
90,104,87236,6,0,P|73:180|33:243,1,131.580000803101,0|0,1:0|0:0,0:0:0:0:
47,227,87569,2,0,B|31:300|31:300|114:377,1,175.796102452198,10|0,0:2|3:0,0:0:0:0:
232,377,88069,1,2,1:2:0:0:
119,272,88236,1,10,0:2:0:0:
301,326,88403,2,0,L|392:292,1,87.8980512260992,2|0,1:2|3:0,0:0:0:0:
208,268,88736,1,2,0:2:0:0:
330,231,88903,1,10,0:2:0:0:
164,194,89069,2,0,L|72:164,1,87.8980512260992,2|0,1:2|3:0,0:0:0:0:
213,93,89403,1,2,1:2:0:0:
223,253,89569,1,10,0:2:0:0:
303,140,89736,1,0,1:0:0:0:
303,140,89819,1,0,1:0:0:0:
303,140,89903,6,0,P|354:143|412:237,1,131.580000803101,4|0,1:0|0:0,0:0:0:0:
408,199,90236,2,0,B|413:302|366:341|366:341|326:280,1,210.196109144596,14|0,0:0|3:0,0:0:0:0:
298,191,90736,1,2,1:2:0:0:
220,329,90903,1,10,0:2:0:0:
191,168,91069,2,0,L|206:73,2,87.8980512260992,2|0|2,1:2|0:0|1:2,0:0:0:0:
125,357,91569,1,8,0:0:0:0:
96,196,91735,2,0,L|111:101,2,87.8980512260992,2|0|0,1:2|3:0|1:0,0:0:0:0:
211,321,92236,2,0,P|265:341|306:351,1,87.7200005354004,8|0,0:0|1:0,0:0:0:0:
458,235,92569,6,0,B|414:226|414:226|387:202|387:202|321:195,1,131.847076839149,0|0,1:0|0:0,0:0:0:0:
337,197,92903,2,0,P|263:229|160:217,1,175.440001070801,10|0,0:2|3:0,0:0:0:0:
249,116,93403,1,2,1:2:0:0:
106,165,93569,1,10,0:2:0:0:
203,43,93736,2,0,P|257:25|309:31,1,87.7200005354004,2|0,1:2|3:0,0:0:0:0:
359,147,94069,1,2,1:2:0:0:
447,24,94236,1,10,0:2:0:0:
419,204,94403,2,0,P|385:248|343:278,1,87.7200005354004,2|0,1:2|3:0,0:0:0:0:
267,113,94736,1,2,1:2:0:0:
279,302,94903,1,10,0:2:0:0:
190,138,95069,6,0,P|141:109|24:145,1,175.796102452198,6|2,1:2|3:2,0:0:0:0:
188,237,95569,1,10,0:2:0:0:
272,105,95736,2,0,P|321:76|438:112,1,175.796102452198,6|2,1:2|1:2,0:0:0:0:
272,200,96236,1,10,0:2:0:0:
182,68,96403,6,0,P|114:43|65:56,1,96.4980502110046,14|0,0:2|0:0,0:0:0:0:
197,250,96736,5,8,3:0:0:0:
120,129,96903,1,10,0:2:0:0:
169,338,97069,6,0,P|216:337|259:315,1,96.4980502110046,10|8,0:2|0:0,0:0:0:0:
268,74,97403,5,8,3:0:0:0:
197,250,97569,1,8,3:0:0:0:
91,45,97736,5,6,1:2:0:0:
256,192,97819,12,0,100569,0:0:0:0:
