osu file format v14

[General]
AudioFilename: audio.mp3
AudioLeadIn: 0
PreviewTime: 181184
Countdown: 0
SampleSet: Soft
StackLeniency: 0.4
Mode: 0
LetterboxInBreaks: 0
WidescreenStoryboard: 1

[Editor]
DistanceSpacing: 1.2
BeatDivisor: 12
GridSize: 8
TimelineZoom: 1.5

[Metadata]
Title:Ai o Utae
TitleUnicode:アイヲウタエ
Artist:ClariS
ArtistUnicode:ClariS
Creator:iljaaz
Version:Shizuku's Hard
Source:〈物語〉シリーズ セカンドシーズン
Tags:Kowari Shizuku- wo cover japanese anime Monogatari Series Second Season ending jin shizen no teki p じん 自然の敵p haruna luna 春奈るな
BeatmapID:2119837
BeatmapSetID:1012760

[Difficulty]
HPDrainRate:5.4
CircleSize:3.5
OverallDifficulty:7
ApproachRate:8
SliderMultiplier:1.44
SliderTickRate:1

[Events]
//Background and Video events
0,0,"kowaricutie.jpg",0,0
//Break Periods
2,96717,101101
2,181851,188934
//Storyboard Layer 0 (Background)
//Storyboard Layer 1 (Fail)
//Storyboard Layer 2 (Pass)
//Storyboard Layer 3 (Foreground)
//Storyboard Layer 4 (Overlay)
//Storyboard Sound Samples

[TimingPoints]
518,333.333333333333,4,2,2,64,1,0
518,-150,4,2,2,64,0,0
5851,-100,4,2,2,74,0,0
21850,-100,4,2,2,54,0,0
31184,-100,4,2,2,64,0,0
32517,-100,4,2,2,64,0,0
43184,-125,4,2,2,54,0,0
51184,-100,4,2,2,64,0,0
53184,-100,4,2,2,45,0,0
53851,-90.0000009,4,2,2,83,0,1
75184,-100,4,2,2,73,0,0
80517,-100,4,2,2,83,0,1
83184,-100,4,2,2,74,0,0
101851,-125,4,2,2,54,0,0
106351,-125,4,2,2,74,0,0
107184,-100,4,2,2,64,0,0
115184,-100,4,2,2,73,0,0
117851,-125,4,2,2,54,0,0
127184,-100,4,2,2,84,0,0
127851,-100,4,2,2,64,0,0
128517,-90,4,2,2,84,0,1
149851,-100,4,2,2,74,0,0
155184,-100,4,2,2,84,0,1
157851,-100,4,2,2,64,0,0
167184,-100,4,2,2,74,0,0
168517,-90.00009000009,4,2,2,74,0,0
178351,-90.00009000009,4,2,2,54,0,0
179184,-90.00009000009,4,2,2,44,0,0
189851,-90.00009000009,4,2,2,84,0,0
191851,-90.00009000009,4,2,2,74,0,0
192517,-90.00009000009,4,2,2,84,0,1
213851,-100,4,2,2,74,0,0
219184,-100,4,2,2,84,0,1
221851,-100,4,2,2,64,0,0
223184,-90.00009000009,4,2,2,74,0,0
236351,-90.00009000009,4,2,2,74,0,0
239184,-90.00009000009,4,2,2,10,0,0

[Colours]
Combo1 : 255,255,170
Combo2 : 223,223,223
Combo3 : 170,255,255
Combo4 : 255,170,213
Combo5 : 255,213,170

[HitObjects]
416,160,518,6,0,B|500:193|500:193|302:207,1,288,4|2,3:1|0:0,0:0:0:0:
242,132,1851,2,0,P|208:193|226:260,1,143.999995605469,4|2,3:1|0:0,0:0:0:0:
389,235,2684,2,0,P|349:208|301:206,1,95.9999970703126,10|8,0:2|0:3,0:0:0:0:
224,261,3184,6,0,B|144:278|117:354|117:354|133:274|72:231,1,287.999991210938,4|2,3:1|0:0,0:0:0:0:
29,107,4517,2,0,P|92:114|149:58,1,143.999995605469,4|10,3:1|0:0,0:0:0:0:
255,104,5351,2,0,L|352:86,1,96,8|2,0:3|0:0,0:0:0:0:
411,147,5851,6,0,P|447:206|439:289,1,144,6|10,3:2|0:0,0:0:0:0:
360,302,6351,2,0,P|323:241|326:170,1,144,6|10,3:2|0:0,0:0:0:0:
349,86,6851,1,6,3:2:0:0:
349,86,8184,1,8,0:3:0:0:
280,32,8351,1,8,0:3:0:0:
280,32,8434,1,8,0:3:0:0:
280,32,8517,2,0,L|208:40,1,72,4|0,3:1|0:0,0:0:0:0:
128,16,8851,6,0,B|168:56|168:56|160:144,1,144,10|0,0:0|0:0,0:0:0:0:
88,184,9351,1,2,3:2:0:0:
128,256,9517,1,10,0:2:0:0:
128,256,9684,6,0,L|136:328,1,72,2|0,3:2|0:0,0:0:0:0:
216,360,10017,2,0,L|224:288,1,72,2|8,0:0|0:0,0:0:0:0:
304,248,10351,2,0,B|376:224|376:280|448:248,1,144,2|0,3:2|3:2,0:0:0:0:
480,176,10851,1,8,0:0:0:0:
432,104,11017,1,0,3:2:0:0:
432,104,11101,1,0,3:2:0:0:
432,104,11184,2,0,L|440:32,1,72,4|0,3:2|0:0,0:0:0:0:
352,16,11517,6,0,L|336:160,1,144,10|0,0:0|0:0,0:0:0:0:
248,176,12017,1,2,3:2:0:0:
184,120,12184,1,10,0:2:0:0:
184,120,12351,6,0,P|112:120|56:168,1,144,2|2,3:2|0:0,0:0:0:0:
40,248,12851,1,10,0:0:0:0:
64,328,13017,2,0,B|120:320|120:320|144:336|144:336|208:328,1,144,2|2,3:2|3:2,0:0:0:0:
280,288,13517,1,10,0:0:0:0:
344,344,13684,1,0,3:2:0:0:
348,348,13767,1,0,3:2:0:0:
352,352,13851,2,0,P|392:360|424:352,1,72,4|0,3:1|0:0,0:0:0:0:
504,360,14184,6,0,P|472:296|480:224,1,144,10|0,0:0|0:0,0:0:0:0:
504,144,14684,1,2,3:2:0:0:
464,64,14851,1,10,0:2:0:0:
464,64,15017,6,0,L|392:56,1,72,2|0,3:2|0:0,0:0:0:0:
328,112,15351,2,0,L|256:120,1,72,2|8,0:0|0:0,0:0:0:0:
192,183,15684,2,0,P|200:113|169:49,1,144,2|0,3:2|3:2,0:0:0:0:
87,64,16184,2,0,P|79:134|110:198,1,144,8|4,0:0|3:2,0:0:0:0:
72,272,16684,1,0,0:0:0:0:
96,360,16851,6,0,B|136:344|168:344|168:344|200:352|224:384,1,144,10|0,0:0|0:0,0:0:0:0:
296,336,17351,1,2,3:2:0:0:
376,368,17517,1,10,0:2:0:0:
376,368,17684,6,0,P|400:296|456:264,1,144,2|2,3:2|0:0,0:0:0:0:
496,184,18184,1,10,0:0:0:0:
496,184,18351,2,0,L|352:160,1,144,2|0,3:2|3:2,0:0:0:0:
288,216,18851,2,0,P|272:184|272:144,1,72,8|8,0:0|3:3,0:0:0:0:
296,64,19184,6,0,L|224:56,1,72,4|8,3:1|0:0,0:0:0:0:
220,60,19434,1,8,0:0:0:0:
216,64,19517,1,8,0:0:0:0:
144,120,19684,2,0,P|201:160|270:148,1,144,8|8,0:3|0:0,0:0:0:0:
328,216,20184,6,0,L|344:360,1,144,4|8,0:3|0:0,0:0:0:0:
256,376,20684,2,0,L|240:232,1,144,8|10,0:3|0:0,0:0:0:0:
328,216,21184,2,0,P|363:221|391:243,1,72,8|8,0:0|0:0,0:0:0:0:
448,344,21517,2,0,P|480:280|464:208,1,144,8|6,3:3|3:2,0:0:0:0:
466,211,22184,6,0,L|456:136,1,72,2|0,3:2|0:0,0:0:0:0:
408,72,22517,2,0,L|333:62,1,72,2|0,3:2|0:0,0:0:0:0:
264,16,22851,1,2,3:2:0:0:
264,16,23017,2,0,L|192:24,1,72,2|2,0:0|3:2,0:0:0:0:
128,80,23351,1,2,0:0:0:0:
48,64,23517,1,2,3:2:0:0:
48,64,23684,2,0,P|16:128|32:200,1,144,2|2,0:0|0:0,0:0:0:0:
8,280,24184,2,0,L|152:264,1,144,2|2,3:2|3:2,0:0:0:0:
151,264,24851,6,0,P|168:296|176:336,1,72,2|2,3:2|0:0,0:0:0:0:
256,368,25184,1,2,3:2:0:0:
256,368,25351,2,0,L|328:352,1,72,2|2,0:0|3:2,0:0:0:0:
408,368,25684,2,0,P|432:336|440:280,1,72,2|2,0:0|3:2,0:0:0:0:
400,232,26017,2,0,L|392:160,1,72,2|2,0:0|3:2,0:0:0:0:
448,96,26351,2,0,P|384:112|304:64,1,144,2|2,0:0|0:0,0:0:0:0:
248,32,26851,2,0,L|104:48,1,144,2|2,3:2|3:2,0:0:0:0:
104,47,27517,5,2,3:2:0:0:
144,120,27684,2,0,P|144:184|88:240,1,144,2|2,0:0|0:0,0:0:0:0:
24,296,28184,2,0,L|32:368,1,72,2|2,3:2|0:0,0:0:0:0:
120,384,28517,6,0,P|184:352|256:368,1,144,2|2,3:2|3:2,0:0:0:0:
480,296,29184,2,0,P|416:328|344:312,1,144,2|2,3:2|3:2,0:0:0:0:
296,248,29684,1,2,0:0:0:0:
296,248,29851,2,0,L|280:104,1,144,2|2,3:2|3:2,0:0:0:0:
344,48,30351,2,0,L|200:64,1,144,2|2,0:0|0:0,0:0:0:0:
120,24,30851,2,0,P|112:56|120:96,1,72,2|2,3:2|0:0,0:0:0:0:
40,128,31184,6,0,L|48:200,1,72,6|8,3:2|0:0,0:0:0:0:
51,203,31434,1,8,0:0:0:0:
55,207,31517,1,8,0:0:0:0:
8,280,31684,2,0,P|80:272|136:312,1,144,4|0,3:2|3:0,0:0:0:0:
192,384,32184,2,0,L|264:376,1,72,8|8,0:0|0:0,0:0:0:0:
267,380,32434,1,8,0:0:0:0:
271,384,32517,6,0,P|312:328|304:256,1,144,4|10,3:2|0:0,0:0:0:0:
248,192,33017,1,2,0:0:0:0:
248,192,33184,2,0,L|240:120,1,72,2|0,3:2|0:0,0:0:0:0:
224,32,33517,1,10,0:0:0:0:
224,32,33684,6,0,B|280:40|280:40|304:64|304:64|360:72,1,144,2|2,0:0|0:0,0:0:0:0:
432,32,34184,1,10,0:0:0:0:
488,96,34351,2,0,P|456:160|464:232,1,144,2|0,0:0|0:0,0:0:0:0:
488,314,34851,2,0,L|416:306,1,72,8|2,0:0|0:0,0:0:0:0:
416,306,35101,1,2,0:0:0:0:
416,306,35184,6,0,P|384:330|352:338,1,72,0|0,3:2|0:0,0:0:0:0:
280,376,35517,2,0,P|224:336|144:352,1,144,10|2,0:0|3:2,0:0:0:0:
72,376,36017,1,2,0:0:0:0:
8,312,36184,1,10,0:0:0:0:
8,312,36351,2,0,L|16:240,1,72,2|0,0:0|3:2,0:0:0:0:
80,184,36684,2,0,L|72:112,1,72,2|8,0:0|0:0,0:0:0:0:
16,48,37017,6,0,B|56:72|56:72|160:56,1,144,2|0,0:0|0:0,0:0:0:0:
224,104,37517,1,8,0:0:0:0:
272,32,37684,1,2,0:0:0:0:
272,32,37767,1,2,0:0:0:0:
272,32,37851,6,0,L|344:40,1,72,2|0,3:2|0:0,0:0:0:0:
424,16,38184,1,10,0:0:0:0:
496,64,38351,2,0,P|512:136|480:200,1,144,2|2,0:0|0:0,0:0:0:0:
400,168,38851,1,8,0:0:0:0:
328,216,39017,1,2,0:0:0:0:
328,216,39101,1,2,0:0:0:0:
328,216,39184,6,0,B|312:272|312:272|320:304|320:304|304:360,2,144,0|10|2,3:2|0:0|3:2,0:0:0:0:
264,160,40017,1,2,0:0:0:0:
304,88,40184,2,0,L|296:16,1,72,10|0,0:0|3:2,0:0:0:0:
208,0,40517,6,0,B|224:48|192:80|192:80|128:88,1,144,4|0,3:2|3:0,0:0:0:0:
48,64,41017,2,0,P|16:120|32:200,1,144,4|0,3:2|3:0,0:0:0:0:
112,176,41517,6,0,B|169:183|169:183|201:215|185:263,1,144,4|0,3:2|3:0,0:0:0:0:
136,336,42017,2,0,P|192:304|272:320,1,144,4|0,3:2|3:0,0:0:0:0:
336,368,42517,2,0,L|408:376,1,72,6|2,3:2|3:2,0:0:0:0:
472,320,42851,2,0,L|480:248,1,72,8|8,0:3|0:3,0:0:0:0:
512,176,43184,6,0,P|456:200|400:192,1,115.2,4|0,3:2|3:2,0:0:0:0:
336,152,43684,1,2,0:0:0:0:
336,152,43851,2,0,L|328:32,1,115.2,2|0,3:2|3:2,0:0:0:0:
248,8,44351,1,2,0:0:0:0:
248,8,44517,2,0,P|200:40|136:32,1,115.2,2|0,3:2|3:2,0:0:0:0:
144,36,45184,2,0,L|80:24,1,57.6,2|8,3:2|0:0,0:0:0:0:
64,104,45517,2,0,L|128:116,1,57.6,2|8,3:2|0:3,0:0:0:0:
176,176,45851,6,0,P|184:232|160:288,1,115.2,6|0,3:2|3:2,0:0:0:0:
96,328,46351,1,2,0:0:0:0:
96,328,46517,2,0,L|216:352,1,115.2,2|0,3:2|3:2,0:0:0:0:
280,320,47017,1,2,0:0:0:0:
280,320,47184,2,0,B|328:312|328:312|352:320|352:320|400:312,1,115.2,2|0,3:2|3:2,0:0:0:0:
472,336,47684,1,8,0:0:0:0:
456,256,47851,2,0,L|480:136,1,115.2,2|0,3:2|3:2,0:0:0:0:
456,64,48351,1,8,0:3:0:0:
456,64,48517,6,0,P|368:96|304:56,1,172.8,4|2,3:2|3:2,0:0:0:0:
240,104,49184,2,0,P|163:70|89:110,1,172.8,10|2,0:0|3:2,0:0:0:0:
16,88,49851,5,6,3:2:0:0:
16,88,50017,2,0,P|40:136|32:200,1,115.2,8|2,0:0|0:0,0:0:0:0:
24,272,50517,2,0,L|88:264,1,57.6,10|2,0:0|0:0,0:0:0:0:
144,312,50851,2,0,L|208:304,1,57.6,2|10,0:0|0:0,0:0:0:0:
264,352,51184,5,6,3:2:0:0:
264,352,51517,2,0,L|392:336,1,72,8|2,0:0|0:0,0:0:0:0:
400,288,51851,2,0,L|416:160,1,72,8|8,3:0|3:0,0:0:0:0:
472,160,52184,2,0,L|456:32,1,72,4|4,3:0|3:0,0:0:0:0:
448,0,52517,1,8,0:0:0:0:
448,0,52684,1,8,0:0:0:0:
208,112,53184,6,0,B|224:152|256:162|256:162|288:152|304:112,1,144,2|8,0:0|3:0,0:0:0:0:
256,48,53684,1,2,0:0:0:0:
256,48,53851,6,0,L|96:72,1,160,4|8,3:1|0:0,0:0:0:0:
24,32,54351,2,0,B|64:72|64:72|48:176,1,160,2|0,0:0|3:2,0:0:0:0:
32,256,54851,1,10,0:0:0:0:
32,256,55017,1,2,0:0:0:0:
112,232,55184,6,0,P|192:256|224:320,1,160,2|10,3:2|0:0,0:0:0:0:
296,368,55684,1,2,0:0:0:0:
376,336,55851,2,0,L|384:256,1,80,2|2,3:2|3:2,0:0:0:0:
448,200,56184,1,10,0:0:0:0:
488,120,56351,1,2,0:0:0:0:
488,120,56434,1,2,0:0:0:0:
488,120,56517,6,0,B|408:96|416:144|328:120,1,160,2|10,3:2|0:0,0:0:0:0:
272,56,57017,2,0,P|232:40|192:48,1,80,2|0,0:0|3:2,0:0:0:0:
128,104,57351,1,2,3:2:0:0:
128,104,57517,2,0,L|48:88,1,80,8|2,0:0|0:0,0:0:0:0:
0,160,57851,6,0,P|0:240|56:296,2,160,2|10|2,3:2|0:0|3:2,0:0:0:0:
88,176,58684,1,0,3:2:0:0:
128,104,58851,2,0,L|208:88,1,80,10|2,0:0|0:0,0:0:0:0:
210,92,59101,1,0,0:0:0:0:
214,96,59184,6,0,P|288:88|312:8,2,160,6|10|2,3:2|0:0|3:2,0:0:0:0:
192,176,60017,1,0,3:2:0:0:
168,256,60184,2,0,L|176:336,1,80,10|2,0:0|0:0,0:0:0:0:
256,360,60517,6,0,L|264:280,1,80,2|2,3:2|0:0,0:0:0:0:
328,216,60851,1,8,0:0:0:0:
328,216,61017,2,0,B|416:200|392:264|488:240,1,160,2|2,0:0|3:2,0:0:0:0:
456,160,61517,1,10,0:0:0:0:
504,88,61684,1,2,0:0:0:0:
504,88,61767,1,2,0:0:0:0:
504,88,61851,6,0,B|456:120|408:104|408:104|376:48,1,160,2|8,3:2|0:0,0:0:0:0:
304,8,62351,1,2,0:0:0:0:
280,88,62517,2,0,L|248:248,1,160,2|8,3:2|0:0,0:0:0:0:
288,320,63017,1,2,3:2:0:0:
224,376,63184,6,0,L|144:360,1,80,4|0,3:2|3:2,0:0:0:0:
64,376,63517,2,0,L|48:296,1,80,10|0,0:0|3:2,0:0:0:0:
96,224,63851,2,0,L|80:144,1,80,10|8,0:0|0:0,0:0:0:0:
48,64,64184,1,10,0:0:0:0:
77,68,64267,1,8,0:0:0:0:
107,65,64350,1,8,3:0:0:0:
134,53,64434,1,8,3:0:0:0:
157,34,64517,6,0,B|216:28|216:28|248:48|248:48|320:40,1,160,4|8,3:1|0:0,0:0:0:0:
384,0,65017,2,0,P|432:64|416:144,1,160,2|0,0:0|3:2,0:0:0:0:
480,200,65517,1,10,0:0:0:0:
440,272,65684,1,2,0:0:0:0:
440,272,65851,6,0,L|280:248,1,160,2|10,3:2|0:0,0:0:0:0:
216,304,66351,1,2,0:0:0:0:
216,304,66517,2,0,P|192:336|184:376,1,80,2|2,3:2|3:2,0:0:0:0:
96,384,66851,2,0,L|88:304,1,80,10|2,0:0|0:0,0:0:0:0:
84,308,67101,1,2,0:0:0:0:
80,312,67184,6,0,P|32:248|32:168,1,160,2|10,3:2|0:0,0:0:0:0:
88,104,67684,1,6,3:2:0:0:
88,104,68017,1,6,3:2:0:0:
88,104,68351,6,0,L|248:80,1,160,6|0,3:2|3:2,0:0:0:0:
304,16,68851,2,0,L|384:28,1,80,10|0,0:0|3:2,0:0:0:0:
464,8,69184,2,0,P|496:80|472:160,1,160,10|10,0:0|0:0,0:0:0:0:
400,200,69684,1,8,3:0:0:0:
400,200,69767,1,8,3:0:0:0:
400,200,69851,6,0,B|392:264|392:264|400:296|400:296|392:360,2,160,6|10|2,3:2|0:0|3:2,0:0:0:0:
328,152,70684,1,0,3:2:0:0:
376,80,70851,2,0,B|344:64|344:64|296:72,1,80,10|2,0:0|0:0,0:0:0:0:
232,128,71184,6,0,P|192:128|160:104,1,80,2|2,3:2|0:0,0:0:0:0:
96,48,71517,1,8,0:0:0:0:
96,48,71684,2,0,P|112:136|64:208,1,160,2|2,0:0|3:2,0:0:0:0:
24,264,72184,2,0,L|32:352,1,80,10|2,0:0|0:0,0:0:0:0:
35,347,72434,1,2,0:0:0:0:
39,351,72517,6,0,P|119:351|199:391,1,160,2|8,3:2|0:0,0:0:0:0:
256,328,73017,1,2,0:0:0:0:
321,384,73184,2,0,P|393:350|473:351,1,160,2|8,3:2|0:0,0:0:0:0:
448,264,73684,1,2,3:2:0:0:
448,264,73851,6,0,L|464:184,1,80,4|0,3:2|3:2,0:0:0:0:
408,120,74184,2,0,L|424:40,1,80,10|0,0:0|3:2,0:0:0:0:
344,16,74517,5,4,3:2:0:0:
344,16,74684,1,2,0:0:0:0:
264,56,74851,1,8,3:0:0:0:
264,56,75017,1,8,3:0:0:0:
184,24,75184,6,0,B|120:8|120:8|80:32|96:80,1,144,4|0,3:1|0:0,0:0:0:0:
16,112,75684,1,2,3:2:0:0:
16,112,75851,2,0,B|48:144|48:192|48:192|24:216|24:248,1,144,10|2,0:0|0:0,0:0:0:0:
40,328,76351,1,10,0:0:0:0:
120,296,76517,2,0,L|264:328,1,144,2|0,0:0|0:0,0:0:0:0:
260,327,77184,2,0,P|296:320|336:328,1,72,10|2,0:0|0:0,0:0:0:0:
400,376,77517,2,0,L|472:368,1,72,2|2,0:0|0:0,0:0:0:0:
496,288,77851,6,0,B|448:248|448:176|448:176|480:88,1,216,6|2,3:2|3:2,0:0:0:0:
416,32,78517,2,0,B|360:64|360:64|280:48,1,144,10|0,0:0|0:0,0:0:0:0:
200,16,79017,1,8,0:0:0:0:
200,16,79184,2,0,L|120:24,1,72,2|8,0:0|0:0,0:0:0:0:
72,88,79517,2,0,L|-8:96,1,72,0|0,3:2|3:2,0:0:0:0:
48,168,79851,2,0,B|72:192|80:232|80:232|72:272|48:296,1,144,8|2,0:0|0:0,0:0:0:0:
112,360,80351,1,2,0:0:0:0:
112,360,80434,1,2,0:0:0:0:
112,360,80517,6,0,P|176:336|248:352,1,144,6|10,3:2|0:0,0:0:0:0:
288,272,81017,2,0,L|432:296,1,144,6|2,3:2|3:2,0:0:0:0:
504,256,81517,1,6,3:2:0:0:
504,256,83184,1,4,3:1:0:0:
504,256,83517,6,0,P|448:296|376:280,1,144,10|0,0:0|0:0,0:0:0:0:
312,224,84017,1,2,3:2:0:0:
376,168,84184,1,10,0:2:0:0:
376,168,84351,6,0,L|384:96,1,72,2|0,3:2|0:0,0:0:0:0:
312,48,84684,2,0,L|240:56,1,72,2|8,0:0|0:0,0:0:0:0:
160,24,85017,2,0,B|192:48|192:88|192:88|176:160,1,144,2|0,3:2|3:2,0:0:0:0:
160,240,85517,1,8,0:0:0:0:
64,272,85684,1,0,3:2:0:0:
68,268,85767,1,0,3:2:0:0:
72,264,85851,2,0,P|72:224|88:192,1,72,4|0,3:2|0:0,0:0:0:0:
160,240,86184,6,0,B|248:248|216:200|296:208,1,144,10|0,0:0|0:0,0:0:0:0:
384,216,86684,1,2,3:2:0:0:
408,296,86851,1,10,0:2:0:0:
320,342,87017,2,0,P|288:278|296:206,1,144,2|2,3:2|0:0,0:0:0:0:
248,120,87517,1,10,0:0:0:0:
248,120,87684,2,0,P|176:128|120:88,1,144,2|2,3:2|3:2,0:0:0:0:
200,8,88184,2,0,L|272:16,1,72,10|0,0:0|3:2,0:0:0:0:
276,19,88434,1,0,3:2:0:0:
280,23,88517,1,4,3:1:0:0:
440,0,88851,6,0,B|472:32|472:32|456:136,1,144,10|0,0:0|0:0,0:0:0:0:
376,168,89351,1,2,3:2:0:0:
400,248,89517,1,10,0:2:0:0:
400,248,89684,6,0,L|408:320,1,72,2|0,3:2|0:0,0:0:0:0:
304,376,90017,2,0,L|312:304,1,72,2|8,0:0|0:0,0:0:0:0:
248,248,90351,2,0,B|176:248|176:288|112:288,1,144,2|0,3:2|3:2,0:0:0:0:
48,232,90851,2,0,L|56:160,1,72,8|0,0:0|3:2,0:0:0:0:
64,120,91101,1,0,3:2:0:0:
64,120,91184,2,0,P|104:136|136:136,1,72,4|0,3:2|0:0,0:0:0:0:
200,88,91517,6,0,B|272:64|272:112|344:88,1,144,10|0,0:0|0:0,0:0:0:0:
416,40,92017,1,2,3:2:0:0:
480,96,92184,1,10,0:2:0:0:
480,96,92351,2,0,B|504:144|504:144|488:232,1,144,2|2,3:2|0:0,0:0:0:0:
432,304,92851,1,8,0:0:0:0:
432,304,93017,2,0,B|416:344|376:352|376:352|344:352|312:328,1,144,2|0,3:2|3:2,0:0:0:0:
232,344,93517,2,0,P|232:304|248:272,1,72,8|8,0:0|3:3,0:0:0:0:
249,272,93767,1,8,3:3:0:0:
253,268,93851,6,0,B|248:208|248:208|232:184|232:184|224:120,1,144,4|0,3:1|3:2,0:0:0:0:
312,120,94351,2,0,P|288:64|208:48,1,144,8|0,3:0|3:2,0:0:0:0:
225,129,94851,6,0,B|232:184|232:184|248:208|248:208|253:268,1,144,8|0,0:2|3:2,0:0:0:0:
328,312,95351,1,4,3:2:0:0:
328,312,95517,2,0,L|400:320,1,72,8|0,0:0|3:2,0:0:0:0:
472,264,95851,6,0,P|448:240|440:200,1,72,8|8,0:0|3:0,0:0:0:0:
368,160,96184,2,0,P|437:160|488:112,1,144,8|6,3:0|3:2,0:0:0:0:
376,248,101851,6,0,L|496:232,2,115.2,2|2|0,3:2|3:2|3:2,0:0:0:0:
320,304,102684,1,2,0:0:0:0:
320,304,102851,2,0,L|260:296,1,57.6,2|2,3:2|0:0,0:0:0:0:
200,344,103184,2,0,P|168:296|168:240,1,115.2,2|2,3:2|3:2,0:0:0:0:
16,176,103851,2,0,P|48:128|48:72,1,115.2,2|0,3:2|3:2,0:0:0:0:
96,8,104351,1,2,0:0:0:0:
96,8,104517,6,0,B|120:32|144:40|144:40|168:40|200:32,1,115.2,2|2,3:2|3:2,0:0:0:0:
280,8,105017,2,0,L|344:16,2,57.6,8|2|10,0:0|3:2|0:0,0:0:0:0:
264,88,105517,1,10,3:2:0:0:
384,200,105851,6,0,P|408:248|400:312,1,115.2,6|8,3:2|0:0,0:0:0:0:
304,328,106351,2,0,P|280:280|288:216,1,115.2,4|0,3:2|3:0,0:0:0:0:
328,152,106851,2,0,L|208:168,1,115.2,8|4,0:0|3:2,0:0:0:0:
213,167,107517,6,0,P|224:128|224:96,1,72,10|2,0:0|0:0,0:0:0:0:
136,80,107851,2,0,P|125:119|125:151,1,72,2|0,3:2|0:0,0:0:0:0:
40,176,108184,1,10,0:0:0:0:
40,176,108351,6,0,P|80:240|80:312,1,144,2|2,0:0|0:0,0:0:0:0:
128,384,108851,1,10,0:0:0:0:
200,336,109017,2,0,B|256:328|256:328|280:336|280:336|344:328,1,144,2|0,0:0|0:0,0:0:0:0:
424,352,109517,2,0,P|440:320|440:280,1,72,8|2,0:0|0:0,0:0:0:0:
504,224,109851,6,0,P|432:224|379:164,2,144,0|10|2,3:2|0:0|3:2,0:0:0:0:
472,144,110684,1,2,0:0:0:0:
472,144,110851,2,0,L|480:72,1,72,10|2,0:0|0:0,0:0:0:0:
416,16,111184,6,0,L|272:32,1,144,0|8,3:2|0:0,0:0:0:0:
216,96,111684,2,0,P|152:96|88:48,1,144,2|0,0:0|0:0,0:0:0:0:
16,88,112184,1,8,0:0:0:0:
64,160,112351,1,2,0:0:0:0:
64,160,112434,1,2,0:0:0:0:
64,160,112517,6,0,B|72:216|72:216|64:248|64:248|72:304,1,144,2|10,3:2|0:0,0:0:0:0:
136,360,113017,2,0,P|176:360|208:344,1,72,2|0,0:0|3:2,0:0:0:0:
272,288,113351,2,0,L|280:216,1,72,2|8,0:0|0:0,0:0:0:0:
288,128,113684,1,2,0:0:0:0:
288,128,113851,6,0,B|272:96|216:88|192:112|192:112|176:144,2,144,0|10|2,3:2|0:0|3:2,0:0:0:0:
336,200,114684,1,2,0:0:0:0:
416,144,114851,2,0,L|408:72,1,72,10|0,0:0|3:2,0:0:0:0:
412,68,115101,1,0,3:2:0:0:
416,64,115184,6,0,P|344:72|296:24,1,144,4|0,3:2|3:2,0:0:0:0:
208,16,115684,2,0,L|192:160,1,144,4|0,3:2|3:0,0:0:0:0:
144,232,116184,6,0,P|72:224|24:272,1,144,4|0,3:2|3:2,0:0:0:0:
56,352,116684,2,0,L|200:336,1,144,4|0,3:2|3:0,0:0:0:0:
272,384,117184,2,0,L|280:312,1,72,10|2,0:0|3:2,0:0:0:0:
232,240,117517,2,0,L|240:168,1,72,8|8,3:0|3:0,0:0:0:0:
235,172,117767,1,8,3:0:0:0:
231,176,117851,6,0,P|262:225|318:241,1,115.2,4|0,3:2|3:2,0:0:0:0:
432,160,118351,1,2,0:0:0:0:
432,160,118517,2,0,L|312:144,1,115.2,2|0,3:2|3:2,0:0:0:0:
320,56,119017,1,10,0:0:0:0:
232,88,119184,2,0,P|176:88|128:56,1,115.2,2|0,3:2|3:2,0:0:0:0:
128,56,119851,2,0,L|64:48,1,57.6,2|8,3:2|0:0,0:0:0:0:
8,104,120184,2,0,L|0:168,1,57.6,2|8,3:2|0:3,0:0:0:0:
80,184,120517,6,0,B|120:200|136:248|120:296|120:296|110:275|92:267,1,172.8,6|2,3:2|0:0,0:0:0:0:
50,336,121184,2,0,P|82:368|154:368,1,115.2,2|0,3:2|3:2,0:0:0:0:
208,312,121684,1,2,0:0:0:0:
208,312,121851,2,0,L|328:328,1,115.2,6|0,3:2|3:2,0:0:0:0:
392,368,122351,2,0,P|424:328|424:264,1,115.2,8|8,0:0|0:0,0:0:0:0:
488,216,122851,2,0,L|480:152,1,57.6,0|8,3:2|0:3,0:0:0:0:
512,80,123184,6,0,B|432:112|432:48|344:80,1,172.8,4|2,3:2|3:2,0:0:0:0:
304,152,123851,2,0,B|272:136|264:104|264:104|224:96|192:104|168:136,1,172.8,10|2,0:0|3:2,0:0:0:0:
96,104,124517,1,6,3:2:0:0:
96,104,124684,2,0,L|32:112,1,57.6,8|0,0:0|3:2,0:0:0:0:
38,111,125184,6,0,P|64:168|56:224,1,115.2,10|2,0:0|0:0,0:0:0:0:
16,288,125684,1,10,0:0:0:0:
16,288,125767,1,10,0:0:0:0:
16,288,125851,2,0,L|24:352,1,57.6,6|0,3:2|0:0,0:0:0:0:
104,328,126184,2,0,L|112:272,2,38.4,8|8|8,0:0|0:0|0:0,0:0:0:0:
152,344,126517,2,0,L|160:400,2,38.4,8|8|8,3:0|3:0|3:0,0:0:0:0:
200,320,126851,2,0,L|264:336,1,57.6,4|2,3:0|0:0,0:0:0:0:
336,360,127184,1,8,0:0:0:0:
336,360,127351,1,8,0:0:0:0:
304,200,127851,6,0,B|264:216|256:250|256:250|248:216|208:200,1,144,2|8,0:0|3:0,0:0:0:0:
256,136,128351,1,2,0:0:0:0:
256,136,128517,6,0,P|328:176|400:160,1,160,4|8,3:1|0:0,0:0:0:0:
416,72,129017,2,0,P|344:32|272:48,1,160,2|0,0:0|3:2,0:0:0:0:
200,96,129517,1,10,0:0:0:0:
200,96,129684,1,2,0:0:0:0:
144,24,129851,6,0,B|112:56|112:88|112:88|80:120|32:104,1,160,2|10,3:2|0:0,0:0:0:0:
8,184,130351,1,2,0:0:0:0:
64,248,130517,2,0,L|56:328,1,80,2|2,3:2|3:2,0:0:0:0:
144,344,130851,2,0,L|152:264,1,80,10|2,0:0|0:0,0:0:0:0:
155,260,131101,1,2,0:0:0:0:
159,256,131184,6,0,P|224:296|304:288,1,160,2|10,3:2|0:0,0:0:0:0:
384,320,131684,2,0,L|392:240,1,80,2|0,0:0|3:2,0:0:0:0:
464,192,132017,1,2,3:2:0:0:
464,192,132184,2,0,L|456:112,1,80,8|2,0:0|0:0,0:0:0:0:
448,24,132517,6,0,P|376:24|312:80,1,160,2|10,3:2|0:0,0:0:0:0:
272,160,133017,1,0,0:0:0:0:
272,160,133184,2,0,L|192:144,1,80,2|0,3:2|3:2,0:0:0:0:
120,96,133517,2,0,L|40:112,1,80,10|2,0:0|0:0,0:0:0:0:
37,115,133767,1,2,0:0:0:0:
33,119,133851,6,0,P|56:200|16:264,2,160,6|10|2,3:2|0:0|3:2,0:0:0:0:
8,32,134684,1,0,3:2:0:0:
8,32,134851,2,0,L|88:16,1,80,10|2,0:0|0:0,0:0:0:0:
120,96,135184,6,0,P|160:104|200:96,1,80,2|2,3:2|0:0,0:0:0:0:
264,40,135517,1,8,0:0:0:0:
264,40,135684,2,0,B|248:96|248:96|256:144|256:144|240:200,1,160,2|2,0:0|3:2,0:0:0:0:
176,256,136184,2,0,P|208:288|216:320,1,80,10|2,0:0|0:0,0:0:0:0:
221,325,136434,1,2,0:0:0:0:
226,330,136517,6,0,P|304:296|385:313,1,160,2|8,3:2|0:0,0:0:0:0:
448,360,137017,1,2,0:0:0:0:
512,304,137184,2,0,L|496:136,1,160,2|8,3:2|0:0,0:0:0:0:
488,56,137684,1,2,3:2:0:0:
488,56,137851,6,0,P|456:72|408:72,1,80,4|0,3:2|3:2,0:0:0:0:
344,24,138184,2,0,L|264:32,1,80,10|0,0:0|3:2,0:0:0:0:
216,104,138517,2,0,L|136:96,1,80,10|8,0:0|0:0,0:0:0:0:
56,64,138851,1,10,0:0:0:0:
39,89,138934,1,8,0:0:0:0:
31,117,139017,1,8,3:0:0:0:
31,147,139101,1,8,3:0:0:0:
40,176,139184,6,0,B|104:184|104:184|128:208|128:208|192:216,1,160,4|8,3:1|0:0,0:0:0:0:
248,280,139684,2,0,B|312:272|312:272|336:248|336:248|400:240,1,160,2|0,0:0|3:2,0:0:0:0:
472,280,140184,1,10,0:0:0:0:
504,200,140351,1,2,0:0:0:0:
504,200,140434,1,2,0:0:0:0:
504,200,140517,6,0,L|488:40,1,160,2|10,3:2|0:0,0:0:0:0:
408,16,141017,2,0,P|368:40|328:40,1,80,2|2,0:0|3:2,0:0:0:0:
256,8,141351,1,2,3:2:0:0:
200,72,141517,2,0,L|120:56,1,80,10|2,0:0|0:0,0:0:0:0:
117,60,141767,1,2,0:0:0:0:
112,65,141851,6,0,P|136:144|104:216,1,160,2|10,3:2|0:0,0:0:0:0:
40,264,142351,1,6,3:2:0:0:
40,264,142684,1,6,3:2:0:0:
40,264,143017,6,0,L|200:248,1,160,6|0,3:2|3:2,0:0:0:0:
240,320,143517,2,0,L|320:328,1,80,10|0,0:0|3:2,0:0:0:0:
376,264,143851,2,0,L|456:272,1,80,10|0,0:0|3:2,0:0:0:0:
512,208,144184,1,10,0:0:0:0:
464,136,144351,1,8,3:0:0:0:
464,136,144434,1,8,3:0:0:0:
464,136,144517,6,0,B|424:128|424:128|392:56|448:8,2,160,6|10|2,3:2|0:0|3:2,0:0:0:0:
440,216,145351,1,0,3:2:0:0:
440,216,145517,2,0,B|400:208|400:208|360:216,1,80,10|2,0:0|0:0,0:0:0:0:
288,264,145851,6,0,L|280:344,1,80,2|2,3:2|0:0,0:0:0:0:
200,368,146184,1,8,0:0:0:0:
200,368,146351,2,0,L|184:208,1,160,2|2,0:0|3:2,0:0:0:0:
104,184,146851,1,10,0:0:0:0:
32,224,147017,1,2,0:0:0:0:
32,224,147101,1,2,0:0:0:0:
32,224,147184,6,0,P|16:144|48:72,1,160,2|8,3:2|0:0,0:0:0:0:
120,24,147684,1,2,0:0:0:0:
184,88,147851,2,0,L|344:72,1,160,2|8,3:2|0:0,0:0:0:0:
416,24,148351,1,2,3:2:0:0:
480,80,148517,6,0,L|488:160,1,80,4|0,3:2|3:2,0:0:0:0:
416,208,148851,2,0,L|424:288,1,80,10|0,0:0|3:2,0:0:0:0:
360,352,149184,1,4,3:2:0:0:
360,352,149351,1,2,0:0:0:0:
280,328,149517,1,8,3:0:0:0:
280,328,149684,1,8,3:0:0:0:
200,296,149851,6,0,L|56:320,1,144,6|0,3:2|0:0,0:0:0:0:
40,232,150351,1,2,3:2:0:0:
40,232,150517,2,0,L|184:208,1,144,10|2,0:0|0:0,0:0:0:0:
264,232,151017,1,10,0:0:0:0:
328,176,151184,5,2,0:0:0:0:
328,176,151351,2,0,B|392:184|392:184|424:216|408:256,1,144,10|0,0:0|3:2,0:0:0:0:
432,338,151851,2,0,P|392:330|352:338,1,72,10|0,0:0|0:0,0:0:0:0:
280,368,152184,2,0,L|264:296,1,72,2|2,0:0|0:0,0:0:0:0:
288,216,152517,6,0,P|304:96|240:0,1,216,6|2,3:2|3:2,0:0:0:0:
176,32,153184,2,0,P|160:152|224:248,1,216,10|8,0:0|0:0,0:0:0:0:
264,297,153851,5,2,0:0:0:0:
264,297,154017,2,0,L|120:288,1,144,8|0,0:0|3:2,0:0:0:0:
48,344,154517,2,0,P|32:312|32:272,1,72,8|2,0:0|0:0,0:0:0:0:
72,200,154851,2,0,L|64:128,1,72,2|2,0:0|0:0,0:0:0:0:
68,124,155101,1,2,0:0:0:0:
72,120,155184,6,0,P|144:120|192:72,1,144,6|10,3:2|0:0,0:0:0:0:
256,16,155684,2,0,B|320:24|320:24|328:32|328:32|400:40,1,144,6|2,3:2|3:2,0:0:0:0:
480,56,156184,1,6,3:2:0:0:
496,224,156517,5,2,3:2:0:0:
496,224,156684,2,0,B|456:184|408:184|408:184|360:200,1,144,6|8,3:2|0:0,0:0:0:0:
370,203,157101,1,8,0:0:0:0:
375,208,157184,2,0,L|362:282,1,72,8|0,0:0|3:0,0:0:0:0:
384,360,157517,1,8,3:0:0:0:
296,344,157684,1,8,3:0:0:0:
216,373,157851,6,0,P|144:373|96:325,1,144,6|0,3:2|0:0,0:0:0:0:
95,324,158517,2,0,L|104:253,1,72,10|2,0:0|0:0,0:0:0:0:
45,199,158851,2,0,L|54:128,1,72,2|2,0:0|0:0,0:0:0:0:
24,48,159184,5,2,3:2:0:0:
112,64,159351,2,0,B|176:56|176:56|192:40|192:40|256:32,1,144,8|0,0:0|0:0,0:0:0:0:
336,16,159851,2,0,P|336:56|320:88,1,72,10|2,0:0|0:0,0:0:0:0:
256,144,160184,2,0,L|264:216,1,72,2|2,0:0|0:0,0:0:0:0:
303,303,160517,2,0,P|375:295|407:231,1,144,2|2,3:2|0:0,0:0:0:0:
406,237,161184,6,0,L|263:215,1,144,10|2,0:0|0:0,0:0:0:0:
192,264,161684,1,2,3:2:0:0:
192,264,161767,1,0,3:2:0:0:
192,264,161851,1,2,3:2:0:0:
120,312,162017,6,0,P|72:264|72:192,1,144,8|8,0:0|3:0,0:0:0:0:
8,136,162517,2,0,L|160:120,1,144,2|8,0:0|3:0,0:0:0:0:
216,64,163017,1,8,3:0:0:0:
280,120,163184,6,0,B|336:120|376:152|376:152|368:88|408:48,1,216,6|0,3:2|3:2,0:0:0:0:
480,96,163851,2,0,P|480:136|464:168,1,72,10|2,0:0|0:0,0:0:0:0:
408,232,164184,2,0,L|416:304,1,72,2|2,0:0|0:0,0:0:0:0:
368,376,164517,5,2,3:2:0:0:
296,328,164684,2,0,L|224:336,1,72,8|2,0:0|3:2,0:0:0:0:
224,335,165184,2,0,P|176:288|176:208,1,144,10|2,0:0|0:0,0:0:0:0:
224,144,165684,1,2,0:0:0:0:
224,144,165851,6,0,L|80:160,1,144,2|0,3:2|0:0,0:0:0:0:
72,72,166351,1,2,0:0:0:0:
72,72,166517,2,0,L|216:56,1,144,10|0,0:0|0:0,0:0:0:0:
288,16,167017,1,10,0:0:0:0:
344,80,167184,6,0,L|416:72,1,72,2|8,3:2|0:0,0:0:0:0:
480,16,167517,1,8,0:0:0:0:
504,96,167684,2,0,L|480:240,1,144,0|0,3:2|3:2,0:0:0:0:
488,328,168184,1,10,0:0:0:0:
453,317,168267,1,8,0:0:0:0:
418,319,168350,1,10,0:0:0:0:
385,334,168434,1,8,0:0:0:0:
360,359,168517,6,0,B|304:368|304:368|272:344|272:344|200:352,1,159.999837239749,4|8,3:2|0:0,0:0:0:0:
128,384,169017,1,0,0:0:0:0:
128,384,169184,2,0,P|112:352|112:304,1,79.9999186198745,2|0,3:2|3:2,0:0:0:0:
40,264,169517,1,10,0:0:0:0:
88,192,169684,1,2,0:0:0:0:
48,112,169851,6,0,L|216:96,1,159.999837239749,2|8,3:2|0:0,0:0:0:0:
264,32,170351,1,0,3:2:0:0:
264,32,170517,2,0,P|304:32|344:56,1,79.9999186198745,2|2,0:0|3:2,0:0:0:0:
392,120,170851,2,0,L|472:112,1,79.9999186198745,10|2,0:0|0:0,0:0:0:0:
512,192,171184,6,0,L|352:208,2,159.999837239749,6|10|2,3:2|0:0|3:2,0:0:0:0:
480,272,172017,1,0,0:0:0:0:
484,276,172184,2,0,L|476:356,1,79.9999186198745,10|2,0:0|0:0,0:0:0:0:
392,376,172517,6,0,P|336:328|248:336,1,159.999837239749,2|10,3:2|0:0,0:0:0:0:
176,288,173017,1,2,3:2:0:0:
168,376,173184,2,0,B|104:368|104:368|96:360|96:360|8:352,1,159.999837239749,2|10,0:0|0:0,0:0:0:0:
48,272,173684,1,8,3:0:0:0:
48,272,173767,1,8,3:0:0:0:
48,272,173851,6,0,B|88:256|96:216|80:176|80:176|40:152,1,159.999837239749,6|8,3:2|0:0,0:0:0:0:
16,72,174351,1,0,0:0:0:0:
16,72,174517,2,0,L|96:56,1,79.9999186198745,2|2,3:2|3:2,0:0:0:0:
168,104,174851,2,0,L|248:88,1,79.9999186198745,10|2,0:0|0:0,0:0:0:0:
312,32,175184,2,0,P|392:64|416:128,2,159.999837239749,2|10|2,3:2|0:0|3:2,0:0:0:0:
416,128,176184,1,10,0:0:0:0:
432,216,176351,1,2,0:0:0:0:
448,304,176517,6,0,B|408:312|384:288|384:288|336:288|304:328,1,159.999837239749,6|8,3:2|0:0,0:0:0:0:
232,368,177017,1,2,0:0:0:0:
232,368,177184,2,0,P|192:352|152:352,1,79.9999186198745,2|0,3:2|3:2,0:0:0:0:
72,376,177517,2,0,L|64:296,1,79.9999186198745,10|0,0:0|3:2,0:0:0:0:
120,232,177851,6,0,P|80:160|0:144,1,159.999837239749,12|0,0:0|3:2,0:0:0:0:
24,56,178351,2,0,L|104:48,1,79.9999186198745,12|0,0:0|0:0,0:0:0:0:
168,104,178684,1,8,3:0:0:0:
168,104,178851,2,0,L|248:96,1,79.9999186198745,8|8,3:0|3:0,0:0:0:0:
312,40,179184,5,4,3:2:0:0:
256,192,179267,12,0,180517,0:0:0:0:
424,64,189684,5,2,3:2:0:0:
424,64,189767,1,0,3:2:0:0:
424,64,189851,2,0,B|384:40|344:48|344:48|320:72|328:120,1,159.999837239749,6|0,3:2|3:2,0:0:0:0:
408,160,190351,2,0,B|344:168|344:168|320:184|320:184|248:192,1,159.999837239749,8|0,0:0|3:2,0:0:0:0:
208,264,190851,2,0,P|176:232|168:192,1,79.9999186198745,8|0,0:0|3:2,0:0:0:0:
208,120,191184,6,0,L|128:112,1,79.9999186198745,0|8,3:2|0:0,0:0:0:0:
64,56,191517,1,8,0:0:0:0:
64,56,191684,1,8,0:0:0:0:
32,136,191851,2,0,B|64:160|80:192|64:232|64:232|32:272,1,159.999837239749,2|2,0:2|0:2,0:0:0:0:
32,270,192517,6,0,P|120:262|200:318,1,159.999837239749,4|8,3:1|0:0,0:0:0:0:
232,368,193017,2,0,L|312:360,1,79.9999186198745,2|0,0:0|3:2,0:0:0:0:
376,288,193351,1,0,3:2:0:0:
472,312,193517,1,10,0:0:0:0:
472,312,193684,1,2,0:0:0:0:
440,224,193851,6,0,B|440:176|440:176|416:128|416:128|416:64,1,159.999837239749,2|10,3:2|0:0,0:0:0:0:
328,104,194351,1,2,0:0:0:0:
248,48,194517,2,0,P|232:88|232:128,1,79.9999186198745,2|2,3:2|3:2,0:0:0:0:
264,216,194851,1,10,0:0:0:0:
168,200,195017,1,2,0:0:0:0:
168,200,195101,1,2,0:0:0:0:
168,200,195184,6,0,B|96:168|96:240|16:208,1,159.999837239749,2|10,3:2|0:0,0:0:0:0:
24,304,195684,2,0,L|104:320,1,79.9999186198745,2|0,0:0|3:2,0:0:0:0:
192,344,196017,1,2,3:2:0:0:
272,288,196184,2,0,L|287:366,1,79.9999186198745,8|2,0:0|0:0,0:0:0:0:
384,384,196517,6,0,P|440:344|440:256,1,159.999837239749,2|10,3:2|0:0,0:0:0:0:
488,176,197017,1,0,0:0:0:0:
432,96,197184,2,0,L|352:104,1,79.9999186198745,2|0,3:2|3:2,0:0:0:0:
272,48,197517,2,0,P|256:84|261:123,1,79.9999186198745,10|2,0:0|0:0,0:0:0:0:
280,168,197767,1,2,0:0:0:0:
280,168,197851,6,0,P|200:143|128:167,2,159.999837239749,6|10|2,3:2|0:0|3:2,0:0:0:0:
240,256,198684,1,0,3:2:0:0:
240,256,198851,2,0,L|248:336,1,79.9999186198745,10|2,0:0|0:0,0:0:0:0:
344,328,199184,6,0,L|336:248,1,79.9999186198745,2|2,3:2|0:0,0:0:0:0:
280,168,199517,1,8,0:0:0:0:
264,72,199684,2,0,B|328:80|328:80|352:104|352:104|416:112,1,159.999837239749,2|2,0:0|3:2,0:0:0:0:
504,72,200184,1,10,0:0:0:0:
496,168,200351,1,2,0:0:0:0:
496,168,200434,1,2,0:0:0:0:
496,168,200517,6,0,L|480:328,1,159.999837239749,2|8,3:2|0:0,0:0:0:0:
400,384,201017,1,2,0:0:0:0:
320,328,201184,2,0,B|256:320|256:320|224:328|224:328|160:320,1,159.999837239749,2|8,3:2|0:0,0:0:0:0:
80,368,201684,1,2,3:2:0:0:
8,304,201851,6,0,L|16:224,1,79.9999186198745,4|0,3:2|3:2,0:0:0:0:
96,176,202184,2,0,L|176:184,1,79.9999186198745,10|0,0:0|3:2,0:0:0:0:
256,240,202517,2,0,L|264:160,1,79.9999186198745,10|8,0:0|0:0,0:0:0:0:
336,96,202851,1,10,0:0:0:0:
313,77,202934,1,8,0:0:0:0:
285,66,203017,1,8,3:0:0:0:
255,64,203101,1,8,3:0:0:0:
227,71,203184,6,0,B|163:63|163:63|147:47|147:47|75:39,1,159.999837239749,4|8,3:1|0:0,0:0:0:0:
0,104,203684,2,0,P|-8:144|8:184,1,79.9999186198745,2|0,0:0|3:2,0:0:0:0:
88,224,204017,1,0,3:2:0:0:
88,224,204184,2,0,L|168:208,1,79.9999186198745,10|2,0:0|0:0,0:0:0:0:
264,192,204517,6,0,P|210:248|211:326,1,159.999837239749,2|10,3:2|0:0,0:0:0:0:
304,312,205017,2,0,L|384:328,1,79.9999186198745,2|2,0:0|3:2,0:0:0:0:
464,368,205351,1,2,3:2:0:0:
456,280,205517,2,0,L|472:200,1,79.9999186198745,10|2,0:0|0:0,0:0:0:0:
475,197,205767,1,2,0:0:0:0:
479,193,205851,6,0,P|400:192|336:144,1,159.999837239749,2|10,3:2|0:0,0:0:0:0:
256,88,206351,1,6,3:2:0:0:
256,88,206684,1,6,3:2:0:0:
256,88,207017,6,0,B|192:96|192:96|168:120|168:120|104:128,1,159.999837239749,6|0,3:2|3:2,0:0:0:0:
24,96,207517,2,0,P|16:136|32:176,1,79.9999186198745,10|0,0:0|3:2,0:0:0:0:
0,256,207851,2,0,P|80:248|144:296,1,159.999837239749,10|10,0:0|0:0,0:0:0:0:
200,360,208350,1,8,3:0:0:0:
204,364,208434,1,8,3:0:0:0:
208,368,208517,6,0,B|272:360|272:360|296:344|296:344|368:336,2,159.999837239749,6|10|2,3:2|0:0|3:2,0:0:0:0:
224,280,209351,1,0,3:2:0:0:
240,192,209517,2,0,L|320:184,1,79.9999186198745,10|2,0:0|0:0,0:0:0:0:
408,224,209851,6,0,L|416:144,1,79.9999186198745,2|2,3:2|0:0,0:0:0:0:
440,48,210184,1,8,0:0:0:0:
440,48,210351,2,0,B|384:32|344:72|344:72|288:64,1,159.999837239749,2|2,0:0|3:2,0:0:0:0:
200,24,210851,2,0,P|176:56|136:72,1,79.9999186198745,10|2,0:0|0:0,0:0:0:0:
136,68,211101,1,2,0:0:0:0:
132,64,211184,6,0,B|128:120|128:120|144:160|144:160|140:224,1,159.999837239749,2|8,3:2|0:0,0:0:0:0:
216,280,211684,1,2,0:0:0:0:
168,360,211851,2,0,P|88:360|32:304,1,159.999837239749,2|8,3:2|0:0,0:0:0:0:
24,208,212351,1,2,3:2:0:0:
24,208,212434,1,2,0:0:0:0:
24,208,212517,6,0,L|32:128,1,79.9999186198745,4|0,3:2|3:2,0:0:0:0:
120,160,212851,2,0,L|200:152,1,79.9999186198745,10|0,0:0|3:2,0:0:0:0:
264,224,213184,1,4,3:2:0:0:
264,224,213351,1,2,0:0:0:0:
352,184,213517,1,8,3:0:0:0:
352,184,213684,1,8,3:0:0:0:
424,232,213851,6,0,B|480:216|496:160|480:104|480:104|456:120|424:120,1,216,6|2,3:2|3:2,0:0:0:0:
344,88,214517,2,0,B|272:64|280:112|200:88,1,144,10|2,0:0|0:0,0:0:0:0:
136,40,215017,1,10,0:0:0:0:
136,40,215184,1,2,0:0:0:0:
56,72,215351,2,0,B|64:104|96:120|96:120|112:144|104:176|80:192,1,144,10|0,0:0|3:2,0:0:0:0:
16,240,215851,2,0,L|24:312,1,72,10|0,0:0|0:0,0:0:0:0:
104,344,216184,2,0,L|112:272,1,72,2|2,0:0|0:0,0:0:0:0:
184,232,216517,6,0,P|264:296|376:280,1,216,6|2,3:2|3:2,0:0:0:0:
400,200,217184,2,0,P|320:136|208:152,1,216,10|8,0:0|0:0,0:0:0:0:
128,184,217851,1,2,0:0:0:0:
128,184,218017,2,0,B|152:144|136:104|136:104|144:80|184:72,1,144,8|0,0:0|3:2,0:0:0:0:
272,88,218517,2,0,L|264:16,1,72,10|2,0:0|0:0,0:0:0:0:
352,0,218851,2,0,L|360:72,1,72,2|0,0:0|3:2,0:0:0:0:
464,112,219184,6,0,P|392:112|352:168,1,144,6|10,3:2|0:0,0:0:0:0:
328,248,219684,2,0,P|286:303|217:301,1,144,6|8,3:2|0:0,0:0:0:0:
176,224,220184,2,0,L|152:368,1,144,6|8,3:2|0:0,0:0:0:0:
152,366,220684,1,6,3:2:0:0:
407,351,221851,6,0,P|440:200|328:320,1,432,2|0,0:0|0:0,0:0:0:0:
407,351,223017,6,0,L|442:355,2,36,0|0|4,3:2|3:2|3:1,0:0:0:0:
407,351,223517,6,0,P|414:272|468:216,1,159.999837239749,10|0,0:0|0:0,0:0:0:0:
448,120,224017,1,2,3:2:0:0:
432,24,224184,1,10,0:2:0:0:
432,24,224351,2,0,P|472:24|512:48,1,79.9999186198745,2|0,3:2|0:0,0:0:0:0:
448,120,224684,2,0,P|408:120|368:96,1,79.9999186198745,2|8,0:0|0:0,0:0:0:0:
312,32,225017,2,0,L|288:192,1,159.999837239749,2|0,3:2|3:2,0:0:0:0:
336,272,225517,2,0,P|296:288|256:280,1,79.9999186198745,8|0,0:0|3:2,0:0:0:0:
224,248,225767,1,0,3:0:0:0:
224,248,225851,6,0,B|168:264|168:264|144:296|144:296|72:312,2,159.999837239749,4|10|0,3:2|0:0|0:0,0:0:0:0:
192,160,226684,2,0,L|204:80,1,79.9999186198745,2|10,3:2|0:2,0:0:0:0:
143,7,227017,6,0,P|65:4|2:51,1,159.999837239749,2|2,3:2|0:0,0:0:0:0:
24,144,227517,1,10,0:0:0:0:
24,144,227684,2,0,L|104:128,1,79.9999186198745,2|0,3:2|0:0,0:0:0:0:
203,80,228017,1,2,3:2:0:0:
280,136,228184,1,10,0:0:0:0:
368,104,228351,2,0,L|376:64,2,39.9999593099372,0|0|4,3:2|3:2|3:1,0:0:0:0:
368,104,228851,6,0,P|440:112|488:184,1,159.999837239749,10|0,0:0|0:0,0:0:0:0:
440,264,229351,2,0,L|432:344,1,79.9999186198745,2|10,3:2|0:2,0:0:0:0:
344,376,229684,6,0,B|304:344|304:344|192:368,1,159.999837239749,2|2,3:2|0:0,0:0:0:0:
120,312,230184,1,8,0:0:0:0:
119,311,230351,2,0,P|80:240|104:160,1,159.999837239749,2|0,3:2|3:2,0:0:0:0:
32,104,230851,2,0,L|190:127,1,159.999837239749,8|4,0:0|3:2,0:0:0:0:
264,184,231351,1,0,0:0:0:0:
352,143,231517,6,0,P|320:73|245:61,1,159.999837239749,10|0,0:0|0:0,0:0:0:0:
264,184,232017,1,2,3:2:0:0:
352,143,232184,1,10,0:2:0:0:
440,184,232351,2,0,P|471:255|448:329,1,159.999837239749,2|2,3:2|0:0,0:0:0:0:
360,296,232851,1,8,0:0:0:0:
360,296,233017,2,0,L|272:312,1,79.9999186198745,2|0,3:2|0:0,0:0:0:0:
200,368,233351,1,0,3:2:0:0:
208,272,233517,1,8,0:0:0:0:
144,200,233684,6,0,P|64:192|8:256,1,159.999837239749,6|2,3:2|0:0,0:0:0:0:
55,320,234184,1,10,0:0:0:0:
55,320,234351,2,0,L|207:272,1,159.999837239749,2|2,3:2|3:2,0:0:0:0:
296,240,234851,1,10,0:0:0:0:
232,168,235017,6,0,B|200:136|208:88|240:64|240:64|288:72,1,159.999837239749,14|10,0:0|0:0,0:0:0:0:
360,16,235517,1,10,0:0:0:0:
432,88,235684,2,0,L|512:72,1,79.9999186198745,10|8,0:0|0:0,0:0:0:0:
512,168,236017,1,10,0:0:0:0:
488,264,236184,1,10,0:0:0:0:
408,312,236351,5,4,3:1:0:0:
256,192,236434,12,0,239184,0:0:0:0:
