osu file format v14

[General]
AudioFilename: audio.mp3
AudioLeadIn: 0
PreviewTime: 53113
Countdown: 0
SampleSet: Normal
StackLeniency: 0.7
Mode: 1
LetterboxInBreaks: 0
WidescreenStoryboard: 0

[Editor]
Bookmarks: 530,8529,19196,21863,29863,32529,40529,43196,48529,53863,59196,64529,69863,75196,80529,84529,95029,97696,100529
DistanceSpacing: 1
BeatDivisor: 4
GridSize: 32
TimelineZoom: 2.2

[Metadata]
Title:Ai Wo Utae
TitleUnicode:アイヲウタエ
Artist:ClariS
ArtistUnicode:ClariS
Creator:Zhuosh
Version:davidminh's Oni
Source:〈物語〉シリーズ セカンドシーズン
Tags:Monogatari Series Second Season ed ending jin shizen no teki p じん 自然の敵p haruna luna 春奈るな cover tv size japanese j-pop jpop anime davidminh0111 roger ][ -GH- ][
BeatmapID:2303836
BeatmapSetID:1099675

[Difficulty]
HPDrainRate:5
CircleSize:2
OverallDifficulty:5.5
ApproachRate:10
SliderMultiplier:1.4
SliderTickRate:1

[Events]
//Background and Video events
0,0,"bg.jpg",0,25
//Break Periods
//Storyboard Layer 0 (Background)
//Storyboard Layer 1 (Fail)
//Storyboard Layer 2 (Pass)
//Storyboard Layer 3 (Foreground)
//Storyboard Layer 4 (Overlay)
//Storyboard Sound Samples

[TimingPoints]
530,333.333333333333,4,1,0,60,1,0
530,-125,4,1,0,60,0,0
5863,-117.647058823529,4,1,0,65,0,0
8196,-116.279069767442,4,1,0,60,0,0
8363,-108.695652173913,4,1,0,65,0,0
8529,-100,4,1,0,70,0,0
21863,-105.263157894737,4,1,0,65,0,0
32363,-102.564102564103,4,1,0,65,0,0
32529,-100,4,1,0,70,0,0
42529,-102.040816326531,4,1,0,70,0,0
42696,-104.166666666667,4,1,0,70,0,0
42863,-106.382978723404,4,1,0,70,0,0
43029,-108.695652173913,4,1,0,70,0,0
43196,-111.111111111111,4,1,0,65,0,0
48196,-108.108108108108,4,1,0,65,0,0
48363,-103.626943005181,4,1,0,65,0,0
48529,-100,4,1,0,70,0,0
53863,-95.2380952380952,4,1,0,80,0,1
74863,-96.1538461538461,4,1,0,80,0,1
74946,-97.0873786407767,4,1,0,80,0,1
75029,-98.0392156862745,4,1,0,80,0,1
75196,-100,4,1,0,70,0,0
83113,-100,4,1,0,20,0,0
84113,-100,4,1,0,60,0,0
84363,-100,4,1,0,65,0,0
84529,-100,4,1,0,70,0,0
97863,-100,4,1,0,50,0,0

[HitObjects]
256,192,530,5,4,0:0:0:0:
256,192,1863,1,0,0:0:0:0:
256,192,2696,1,8,0:0:0:0:
256,192,2863,1,0,0:0:0:0:
256,192,3029,1,0,0:0:0:0:
256,192,3196,1,4,0:0:0:0:
256,192,4529,1,0,0:0:0:0:
256,192,5029,1,0,0:0:0:0:
256,192,5363,1,0,0:0:0:0:
256,192,5529,1,8,0:0:0:0:
256,192,5696,1,8,0:0:0:0:
256,192,5863,1,4,0:0:0:0:
256,192,6196,1,8,0:0:0:0:
256,192,6363,1,4,0:0:0:0:
256,192,6696,1,0,0:0:0:0:
256,192,6863,1,12,0:0:0:0:
256,192,8196,1,0,0:0:0:0:
256,192,8363,1,8,0:0:0:0:
256,192,8529,1,4,0:0:0:0:
256,192,8863,1,8,0:0:0:0:
256,192,9196,1,0,0:0:0:0:
256,192,9363,1,0,0:0:0:0:
256,192,9529,1,8,0:0:0:0:
256,192,9696,1,0,0:0:0:0:
256,192,9779,1,0,0:0:0:0:
256,192,9863,1,0,0:0:0:0:
256,192,10029,1,0,0:0:0:0:
256,192,10196,1,8,0:0:0:0:
256,192,10363,1,0,0:0:0:0:
256,192,10696,1,0,0:0:0:0:
256,192,10863,1,8,0:0:0:0:
256,192,11029,1,0,0:0:0:0:
256,192,11196,1,0,0:0:0:0:
256,192,11529,1,8,0:0:0:0:
256,192,11863,1,0,0:0:0:0:
256,192,12029,1,0,0:0:0:0:
256,192,12196,1,8,0:0:0:0:
256,192,12363,1,0,0:0:0:0:
256,192,12446,1,0,0:0:0:0:
256,192,12529,1,0,0:0:0:0:
256,192,12696,1,0,0:0:0:0:
256,192,12863,1,8,0:0:0:0:
256,192,13029,1,0,0:0:0:0:
256,192,13113,1,0,0:0:0:0:
256,192,13196,1,8,0:0:0:0:
256,192,13363,1,0,0:0:0:0:
256,192,13529,1,8,0:0:0:0:
256,192,13696,1,0,0:0:0:0:
256,192,13863,1,4,0:0:0:0:
256,192,14196,1,8,0:0:0:0:
256,192,14529,1,0,0:0:0:0:
256,192,14696,1,0,0:0:0:0:
256,192,14862,1,8,0:0:0:0:
256,192,15029,1,0,0:0:0:0:
256,192,15112,1,0,0:0:0:0:
256,192,15196,1,0,0:0:0:0:
256,192,15362,1,0,0:0:0:0:
256,192,15529,1,8,0:0:0:0:
256,192,15696,1,0,0:0:0:0:
256,192,16029,1,0,0:0:0:0:
256,192,16196,1,8,0:0:0:0:
256,192,16362,1,0,0:0:0:0:
256,192,16529,1,0,0:0:0:0:
256,192,16862,1,8,0:0:0:0:
256,192,17196,1,0,0:0:0:0:
256,192,17362,1,0,0:0:0:0:
256,192,17529,1,8,0:0:0:0:
256,192,17696,1,0,0:0:0:0:
256,192,17779,1,0,0:0:0:0:
256,192,17862,1,0,0:0:0:0:
256,192,18029,1,0,0:0:0:0:
256,192,18196,1,8,0:0:0:0:
256,192,18362,1,0,0:0:0:0:
256,192,18446,1,0,0:0:0:0:
256,192,18529,1,8,0:0:0:0:
256,192,18696,1,0,0:0:0:0:
256,192,18862,1,8,0:0:0:0:
256,192,19029,1,0,0:0:0:0:
256,192,19196,1,12,0:0:0:0:
256,192,19529,1,8,0:0:0:0:
256,192,19696,1,0,0:0:0:0:
256,192,20029,1,8,0:0:0:0:
256,192,20196,1,0,0:0:0:0:
256,192,20529,1,8,0:0:0:0:
256,192,20696,1,0,0:0:0:0:
256,192,21029,1,8,0:0:0:0:
256,192,21196,1,8,0:0:0:0:
256,192,21363,1,8,0:0:0:0:
256,192,21529,1,0,0:0:0:0:
256,192,21696,1,0,0:0:0:0:
256,192,21863,1,4,0:0:0:0:
256,192,22196,1,0,0:0:0:0:
256,192,22529,1,0,0:0:0:0:
256,192,22863,1,0,0:0:0:0:
256,192,23029,1,8,0:0:0:0:
256,192,23196,1,0,0:0:0:0:
256,192,23363,1,0,0:0:0:0:
256,192,23529,1,8,0:0:0:0:
256,192,23696,1,8,0:0:0:0:
256,192,24029,1,8,0:0:0:0:
256,192,24196,1,8,0:0:0:0:
256,192,24529,1,0,0:0:0:0:
256,192,24863,1,0,0:0:0:0:
256,192,25029,1,8,0:0:0:0:
256,192,25196,1,0,0:0:0:0:
256,192,25363,1,0,0:0:0:0:
256,192,25529,1,8,0:0:0:0:
256,192,25696,1,8,0:0:0:0:
256,192,25863,1,0,0:0:0:0:
256,192,26029,1,8,0:0:0:0:
256,192,26363,1,8,0:0:0:0:
256,192,26696,1,0,0:0:0:0:
256,192,26863,1,8,0:0:0:0:
256,192,27029,1,8,0:0:0:0:
256,192,27196,1,0,0:0:0:0:
256,192,27529,1,8,0:0:0:0:
256,192,27696,1,8,0:0:0:0:
256,192,28029,1,8,0:0:0:0:
256,192,28196,1,0,0:0:0:0:
256,192,28363,1,0,0:0:0:0:
256,192,28529,1,0,0:0:0:0:
256,192,28863,1,8,0:0:0:0:
256,192,29196,1,0,0:0:0:0:
256,192,29529,1,8,0:0:0:0:
256,192,29696,1,0,0:0:0:0:
256,192,29863,1,0,0:0:0:0:
256,192,30196,1,8,0:0:0:0:
256,192,30363,1,8,0:0:0:0:
256,192,30529,1,0,0:0:0:0:
256,192,30696,1,0,0:0:0:0:
256,192,30863,1,8,0:0:0:0:
256,192,31029,1,0,0:0:0:0:
256,192,31196,1,8,0:0:0:0:
256,192,31363,1,0,0:0:0:0:
256,192,31446,1,0,0:0:0:0:
256,192,31529,1,0,0:0:0:0:
256,192,31696,1,12,0:0:0:0:
256,192,32029,1,0,0:0:0:0:
256,192,32196,1,8,0:0:0:0:
256,192,32363,1,8,0:0:0:0:
256,192,32529,1,4,0:0:0:0:
256,192,32862,1,0,0:0:0:0:
256,192,33029,1,0,0:0:0:0:
256,192,33195,1,8,0:0:0:0:
256,192,33363,1,8,0:0:0:0:
256,192,33529,1,0,0:0:0:0:
256,192,33696,1,0,0:0:0:0:
256,192,33779,1,0,0:0:0:0:
256,192,33863,1,8,0:0:0:0:
256,192,34029,1,0,0:0:0:0:
256,192,34195,1,8,0:0:0:0:
256,192,34362,1,8,0:0:0:0:
256,192,34696,1,0,0:0:0:0:
256,192,34862,1,8,0:0:0:0:
256,192,35029,1,8,0:0:0:0:
256,192,35195,1,0,0:0:0:0:
256,192,35529,1,0,0:0:0:0:
256,192,35695,1,8,0:0:0:0:
256,192,35862,1,0,0:0:0:0:
256,192,36029,1,0,0:0:0:0:
256,192,36113,1,0,0:0:0:0:
256,192,36195,1,0,0:0:0:0:
256,192,36362,1,8,0:0:0:0:
256,192,36529,1,0,0:0:0:0:
256,192,36695,1,8,0:0:0:0:
256,192,37029,1,8,0:0:0:0:
256,192,37362,1,0,0:0:0:0:
256,192,37529,1,8,0:0:0:0:
256,192,37695,1,8,0:0:0:0:
256,192,37862,1,0,0:0:0:0:
256,192,38195,1,8,0:0:0:0:
256,192,38362,1,8,0:0:0:0:
256,192,38529,1,0,0:0:0:0:
256,192,38613,1,0,0:0:0:0:
256,192,38695,1,8,0:0:0:0:
256,192,38862,1,0,0:0:0:0:
256,192,39029,1,8,0:0:0:0:
256,192,39195,1,0,0:0:0:0:
256,192,39529,1,0,0:0:0:0:
256,192,39862,1,8,0:0:0:0:
256,192,40029,1,8,0:0:0:0:
256,192,40195,1,0,0:0:0:0:
256,192,40363,1,8,0:0:0:0:
256,192,40529,1,12,0:0:0:0:
256,192,40863,1,0,0:0:0:0:
256,192,41029,1,12,0:0:0:0:
256,192,41363,1,8,0:0:0:0:
256,192,41529,1,4,0:0:0:0:
256,192,41863,1,0,0:0:0:0:
256,192,42029,1,4,0:0:0:0:
256,192,42529,1,8,0:0:0:0:
256,192,42696,1,8,0:0:0:0:
256,192,42863,1,0,0:0:0:0:
256,192,43029,1,0,0:0:0:0:
256,192,43196,1,12,0:0:0:0:
256,192,43529,1,0,0:0:0:0:
256,192,43863,1,0,0:0:0:0:
256,192,44196,1,0,0:0:0:0:
256,192,44363,1,8,0:0:0:0:
256,192,44529,1,0,0:0:0:0:
256,192,44863,1,0,0:0:0:0:
256,192,45029,1,8,0:0:0:0:
256,192,45196,1,0,0:0:0:0:
256,192,45363,1,0,0:0:0:0:
256,192,45529,1,8,0:0:0:0:
256,192,45696,1,8,0:0:0:0:
256,192,45863,1,4,0:0:0:0:
256,192,46196,1,0,0:0:0:0:
256,192,46363,1,0,0:0:0:0:
256,192,46529,1,8,0:0:0:0:
256,192,46863,1,0,0:0:0:0:
256,192,47029,1,8,0:0:0:0:
256,192,47196,1,0,0:0:0:0:
256,192,47529,1,0,0:0:0:0:
256,192,47696,1,12,0:0:0:0:
256,192,48029,1,0,0:0:0:0:
256,192,48196,1,8,0:0:0:0:
256,192,48363,1,8,0:0:0:0:
256,192,48529,1,4,0:0:0:0:
256,192,48863,1,0,0:0:0:0:
256,192,49029,1,8,0:0:0:0:
256,192,49196,1,0,0:0:0:0:
256,192,49529,1,0,0:0:0:0:
256,192,49696,1,8,0:0:0:0:
256,192,49863,1,0,0:0:0:0:
256,192,50029,1,0,0:0:0:0:
256,192,50363,1,0,0:0:0:0:
256,192,50529,1,0,0:0:0:0:
256,192,50696,1,8,0:0:0:0:
256,192,50863,1,8,0:0:0:0:
256,192,51029,1,0,0:0:0:0:
256,192,51196,1,12,0:0:0:0:
256,192,51529,1,0,0:0:0:0:
256,192,51863,1,0,0:0:0:0:
256,192,52029,1,0,0:0:0:0:
256,192,52196,1,8,0:0:0:0:
256,192,52363,1,8,0:0:0:0:
256,192,52529,1,4,0:0:0:0:
256,192,52696,1,4,0:0:0:0:
256,192,53196,1,0,0:0:0:0:
256,192,53529,1,0,0:0:0:0:
256,192,53696,1,0,0:0:0:0:
256,192,53863,1,12,0:0:0:0:
256,192,54196,1,0,0:0:0:0:
256,192,54363,1,8,0:0:0:0:
256,192,54529,1,0,0:0:0:0:
256,192,54696,1,0,0:0:0:0:
256,192,54779,1,0,0:0:0:0:
256,192,54863,1,0,0:0:0:0:
256,192,55029,1,0,0:0:0:0:
256,192,55196,1,8,0:0:0:0:
256,192,55529,1,0,0:0:0:0:
256,192,55696,1,8,0:0:0:0:
256,192,55863,1,0,0:0:0:0:
256,192,55946,1,0,0:0:0:0:
256,192,56029,1,8,0:0:0:0:
256,192,56113,1,8,0:0:0:0:
256,192,56196,1,0,0:0:0:0:
256,192,56363,1,0,0:0:0:0:
256,192,56529,1,8,0:0:0:0:
256,192,56863,1,0,0:0:0:0:
256,192,57029,1,8,0:0:0:0:
256,192,57196,1,0,0:0:0:0:
256,192,57363,1,0,0:0:0:0:
256,192,57446,1,0,0:0:0:0:
256,192,57529,1,0,0:0:0:0:
256,192,57696,1,8,0:0:0:0:
256,192,58029,1,0,0:0:0:0:
256,192,58196,1,8,0:0:0:0:
256,192,58363,1,0,0:0:0:0:
256,192,58529,1,8,0:0:0:0:
256,192,58696,1,0,0:0:0:0:
256,192,58779,1,0,0:0:0:0:
256,192,58863,1,8,0:0:0:0:
256,192,59029,1,0,0:0:0:0:
256,192,59196,1,12,0:0:0:0:
256,192,59529,1,8,0:0:0:0:
256,192,59696,1,8,0:0:0:0:
256,192,59779,1,8,0:0:0:0:
256,192,59863,1,0,0:0:0:0:
256,192,60029,1,0,0:0:0:0:
256,192,60196,1,8,0:0:0:0:
256,192,60363,1,0,0:0:0:0:
256,192,60446,1,8,0:0:0:0:
256,192,60529,1,0,0:0:0:0:
256,192,60613,1,0,0:0:0:0:
256,192,60696,1,8,0:0:0:0:
256,192,60863,1,8,0:0:0:0:
256,192,61196,1,0,0:0:0:0:
256,192,61363,1,8,0:0:0:0:
256,192,61446,1,8,0:0:0:0:
256,192,61529,1,0,0:0:0:0:
256,192,61696,1,8,0:0:0:0:
256,192,61863,1,8,0:0:0:0:
256,192,62196,1,8,0:0:0:0:
256,192,62363,1,8,0:0:0:0:
256,192,62529,1,0,0:0:0:0:
256,192,62863,1,8,0:0:0:0:
256,192,63029,1,8,0:0:0:0:
256,192,63196,1,4,0:0:0:0:
256,192,63363,1,8,0:0:0:0:
256,192,63529,1,4,0:0:0:0:
256,192,63696,1,8,0:0:0:0:
256,192,63863,1,4,0:0:0:0:
256,192,64029,1,8,0:0:0:0:
256,192,64113,1,8,0:0:0:0:
256,192,64196,1,0,0:0:0:0:
256,192,64279,1,8,0:0:0:0:
256,192,64363,1,8,0:0:0:0:
256,192,64529,1,4,0:0:0:0:
256,192,64862,1,0,0:0:0:0:
256,192,65029,1,8,0:0:0:0:
256,192,65195,1,0,0:0:0:0:
256,192,65362,1,0,0:0:0:0:
256,192,65445,1,0,0:0:0:0:
256,192,65529,1,8,0:0:0:0:
256,192,65695,1,0,0:0:0:0:
256,192,65862,1,8,0:0:0:0:
256,192,66195,1,0,0:0:0:0:
256,192,66362,1,8,0:0:0:0:
256,192,66529,1,8,0:0:0:0:
256,192,66612,1,8,0:0:0:0:
256,192,66695,1,0,0:0:0:0:
256,192,66779,1,0,0:0:0:0:
256,192,66862,1,8,0:0:0:0:
256,192,67029,1,0,0:0:0:0:
256,192,67195,1,8,0:0:0:0:
256,192,67363,1,0,0:0:0:0:
256,192,67446,1,0,0:0:0:0:
256,192,67529,1,0,0:0:0:0:
256,192,67695,1,12,0:0:0:0:
256,192,68029,1,12,0:0:0:0:
256,192,68362,1,12,0:0:0:0:
256,192,68696,1,0,0:0:0:0:
256,192,68862,1,8,0:0:0:0:
256,192,69029,1,0,0:0:0:0:
256,192,69195,1,8,0:0:0:0:
256,192,69362,1,0,0:0:0:0:
256,192,69445,1,0,0:0:0:0:
256,192,69529,1,8,0:0:0:0:
256,192,69696,1,0,0:0:0:0:
256,192,69862,1,12,0:0:0:0:
256,192,70195,1,8,0:0:0:0:
256,192,70362,1,8,0:0:0:0:
256,192,70445,1,8,0:0:0:0:
256,192,70529,1,0,0:0:0:0:
256,192,70695,1,0,0:0:0:0:
256,192,70862,1,8,0:0:0:0:
256,192,71029,1,0,0:0:0:0:
256,192,71112,1,0,0:0:0:0:
256,192,71196,1,8,0:0:0:0:
256,192,71279,1,0,0:0:0:0:
256,192,71362,1,8,0:0:0:0:
256,192,71529,1,8,0:0:0:0:
256,192,71862,1,0,0:0:0:0:
256,192,72029,1,8,0:0:0:0:
256,192,72112,1,8,0:0:0:0:
256,192,72195,1,0,0:0:0:0:
256,192,72362,1,8,0:0:0:0:
256,192,72529,1,8,0:0:0:0:
256,192,72862,1,8,0:0:0:0:
256,192,73029,1,8,0:0:0:0:
256,192,73195,1,0,0:0:0:0:
256,192,73529,1,8,0:0:0:0:
256,192,73695,1,8,0:0:0:0:
256,192,73862,1,4,0:0:0:0:
256,192,74029,1,8,0:0:0:0:
256,192,74195,1,8,0:0:0:0:
256,192,74279,1,8,0:0:0:0:
256,192,74362,1,8,0:0:0:0:
256,192,74529,1,0,0:0:0:0:
256,192,74695,1,0,0:0:0:0:
256,192,74863,1,8,0:0:0:0:
256,192,74946,1,8,0:0:0:0:
256,192,75029,1,0,0:0:0:0:
256,192,75196,1,4,0:0:0:0:
256,192,75529,1,0,0:0:0:0:
256,192,75696,1,0,0:0:0:0:
256,192,75863,1,8,0:0:0:0:
256,192,76196,1,0,0:0:0:0:
256,192,76363,1,8,0:0:0:0:
256,192,76529,1,0,0:0:0:0:
256,192,76696,1,0,0:0:0:0:
256,192,77029,1,0,0:0:0:0:
256,192,77196,1,8,0:0:0:0:
256,192,77363,1,0,0:0:0:0:
256,192,77529,1,0,0:0:0:0:
256,192,77696,1,8,0:0:0:0:
256,192,77863,1,4,0:0:0:0:
256,192,78196,1,0,0:0:0:0:
256,192,78363,1,8,0:0:0:0:
256,192,78529,1,8,0:0:0:0:
256,192,78863,1,0,0:0:0:0:
256,192,79029,1,8,0:0:0:0:
256,192,79196,1,8,0:0:0:0:
256,192,79363,1,0,0:0:0:0:
256,192,79696,1,0,0:0:0:0:
256,192,79863,1,8,0:0:0:0:
256,192,80029,1,0,0:0:0:0:
256,192,80196,1,8,0:0:0:0:
256,192,80363,1,8,0:0:0:0:
256,192,80529,1,4,0:0:0:0:
256,192,80696,1,8,0:0:0:0:
256,192,80863,1,8,0:0:0:0:
256,192,81029,1,4,0:0:0:0:
256,192,81196,1,8,0:0:0:0:
256,192,81279,1,8,0:0:0:0:
256,192,81363,1,8,0:0:0:0:
256,192,81529,1,4,0:0:0:0:
256,192,81696,1,8,0:0:0:0:
256,192,81779,1,8,0:0:0:0:
256,192,81863,1,8,0:0:0:0:
256,192,82029,1,4,0:0:0:0:
256,192,83196,2,0,L|192:192,10,35
256,192,84196,1,0,0:0:0:0:
256,192,84363,1,8,0:0:0:0:
256,192,84529,1,4,0:0:0:0:
256,192,84863,1,8,0:0:0:0:
256,192,85196,1,0,0:0:0:0:
256,192,85363,1,0,0:0:0:0:
256,192,85529,1,8,0:0:0:0:
256,192,85696,1,0,0:0:0:0:
256,192,85779,1,0,0:0:0:0:
256,192,85863,1,0,0:0:0:0:
256,192,86029,1,0,0:0:0:0:
256,192,86196,1,8,0:0:0:0:
256,192,86363,1,0,0:0:0:0:
256,192,86696,1,0,0:0:0:0:
256,192,86863,1,8,0:0:0:0:
256,192,87029,1,0,0:0:0:0:
256,192,87196,1,0,0:0:0:0:
256,192,87529,1,8,0:0:0:0:
256,192,87863,1,0,0:0:0:0:
256,192,88029,1,0,0:0:0:0:
256,192,88196,1,8,0:0:0:0:
256,192,88363,1,0,0:0:0:0:
256,192,88446,1,0,0:0:0:0:
256,192,88529,1,0,0:0:0:0:
256,192,88696,1,0,0:0:0:0:
256,192,88863,1,8,0:0:0:0:
256,192,89029,1,0,0:0:0:0:
256,192,89113,1,0,0:0:0:0:
256,192,89196,1,8,0:0:0:0:
256,192,89363,1,0,0:0:0:0:
256,192,89529,1,8,0:0:0:0:
256,192,89696,1,0,0:0:0:0:
256,192,89863,1,4,0:0:0:0:
256,192,90196,1,8,0:0:0:0:
256,192,90529,1,0,0:0:0:0:
256,192,90696,1,0,0:0:0:0:
256,192,90862,1,8,0:0:0:0:
256,192,91029,1,0,0:0:0:0:
256,192,91112,1,0,0:0:0:0:
256,192,91196,1,0,0:0:0:0:
256,192,91362,1,0,0:0:0:0:
256,192,91529,1,8,0:0:0:0:
256,192,91696,1,0,0:0:0:0:
256,192,92029,1,0,0:0:0:0:
256,192,92196,1,8,0:0:0:0:
256,192,92362,1,0,0:0:0:0:
256,192,92529,1,0,0:0:0:0:
256,192,92862,1,8,0:0:0:0:
256,192,93196,1,0,0:0:0:0:
256,192,93362,1,0,0:0:0:0:
256,192,93529,1,8,0:0:0:0:
256,192,93696,1,0,0:0:0:0:
256,192,93779,1,0,0:0:0:0:
256,192,93862,1,0,0:0:0:0:
256,192,94029,1,0,0:0:0:0:
256,192,94196,1,8,0:0:0:0:
256,192,94362,1,0,0:0:0:0:
256,192,94446,1,0,0:0:0:0:
256,192,94529,1,8,0:0:0:0:
256,192,94696,1,0,0:0:0:0:
256,192,94862,1,8,0:0:0:0:
256,192,95029,1,12,0:0:0:0:
256,192,95363,1,0,0:0:0:0:
256,192,95529,1,8,0:0:0:0:
256,192,95696,1,0,0:0:0:0:
256,192,96029,1,0,0:0:0:0:
256,192,96196,1,0,0:0:0:0:
256,192,96363,1,8,0:0:0:0:
256,192,96696,1,0,0:0:0:0:
256,192,96863,1,8,0:0:0:0:
256,192,97029,1,8,0:0:0:0:
256,192,97196,1,0,0:0:0:0:
256,192,97363,1,8,0:0:0:0:
256,192,97529,1,8,0:0:0:0:
256,192,97696,1,12,0:0:0:0:
256,192,97863,12,0,100529,0:0:0:0:
