osu file format v14

[General]
AudioFilename: audio.mp3
AudioLeadIn: 0
PreviewTime: 53153
Countdown: 0
SampleSet: None
StackLeniency: 0.7
Mode: 0
LetterboxInBreaks: 0
WidescreenStoryboard: 0

[Editor]
DistanceSpacing: 1.8
BeatDivisor: 4
GridSize: 4
TimelineZoom: 2.7

[Metadata]
Title:Ai Wo Utae
TitleUnicode:アイヲウタエ
Artist:ClariS
ArtistUnicode:ClariS
Creator:Sotarks
Version:Sincerity
Source:〈物語〉シリーズ セカンドシーズン
Tags:Monogatari Series Second Season ending jin shizen no teki p じん 自然の敵p akitoshi corinn kin kyuukai yaleufeu hareimu toybot haruna luna 春菜るな
BeatmapID:1541907
BeatmapSetID:725480

[Difficulty]
HPDrainRate:5.5
CircleSize:3.8
OverallDifficulty:8.8
ApproachRate:9.1
SliderMultiplier:1.82
SliderTickRate:1

[Events]
//Background and Video events
0,0,"BG.jpg",0,0
//Break Periods
//Storyboard Layer 0 (Background)
//Storyboard Layer 1 (Fail)
//Storyboard Layer 2 (Pass)
//Storyboard Layer 3 (Foreground)
//Storyboard Sound Samples

[TimingPoints]
570,333.333333333333,4,2,22,42,1,0
8569,-98.0392156862745,4,2,22,52,0,0
8903,-81.9672131147541,4,2,22,52,0,0
9236,-98.0392156862745,4,2,22,52,0,0
14236,-81.9672131147541,4,2,22,52,0,0
14569,-98.0392156862745,4,2,22,52,0,0
19319,-98.0392156862745,4,2,22,42,0,0
19736,-98.0392156862745,4,2,22,32,0,0
21569,-98.0392156862745,4,2,22,22,0,0
21903,-108.695652173913,4,2,22,42,0,0
32569,-98.0392156862745,4,2,22,52,0,0
43236,-121.951219512195,4,2,22,42,0,0
48569,-108.695652173913,4,2,22,52,0,0
53236,-192.307692307692,4,2,22,22,0,0
53903,-81.967213114754,4,2,22,52,0,1
54153,-81.967213114754,4,2,22,5,0,1
54236,-81.967213114754,4,2,22,62,0,1
64819,-81.967213114754,4,2,22,5,0,1
64903,-81.967213114754,4,2,22,62,0,1
67986,-81.967213114754,4,2,22,5,0,1
68069,-81.967213114754,4,2,22,62,0,1
68319,-81.967213114754,4,2,22,5,0,1
68403,-81.967213114754,4,2,22,62,0,1
75236,-108.695652173913,4,2,22,52,0,0
80569,-89.2857142857143,4,2,22,52,0,0
82153,-89.2857142857143,4,2,22,42,0,0
82903,-138.888888888889,4,2,22,32,0,0
83236,-450.307692307692,4,2,22,22,0,0
84403,-450.307692307692,4,2,22,32,0,0
84569,-97.8406204037972,4,2,22,52,0,0
84903,-81.828347777467,4,2,22,52,0,0
85236,-97.8406204037971,4,2,22,52,0,0
90236,-81.828347777467,4,2,22,52,0,0
90569,-97.8406204037971,4,2,22,52,0,0
96403,-89.1209694607678,4,2,22,62,0,0
100569,-89.1209694607678,4,2,22,5,0,0

[Colours]
Combo1 : 187,167,245
Combo2 : 230,252,103
Combo3 : 169,211,254
Combo4 : 190,251,145

[HitObjects]
118,327,570,5,4,1:0:0:0:
439,56,1903,5,4,1:0:0:0:
312,321,2736,5,8,0:0:0:0:
328,236,2903,1,4,3:0:0:0:
397,289,3069,1,4,3:0:0:0:
192,369,3236,5,4,1:0:0:0:
78,44,4569,5,4,1:0:0:0:
146,327,5069,5,8,3:0:0:0:
228,53,5403,5,4,3:0:0:0:
266,133,5569,1,0,1:0:0:0:
317,53,5736,1,4,3:0:0:0:
193,247,5903,5,4,1:0:0:0:
313,216,6069,1,0,1:0:0:0:
313,216,6153,1,8,0:0:0:0:
313,216,6236,1,8,0:0:0:0:
91,278,6403,1,4,1:0:0:0:
397,191,6736,5,8,0:0:0:0:
91,278,6903,1,4,1:0:0:0:
297,34,8236,5,0,1:0:0:0:
317,119,8403,1,0,1:0:0:0:
317,119,8486,1,0,1:0:0:0:
317,119,8569,6,0,B|298:199|344:172|326:270,1,139.230000849792,4|0,1:0|0:0,0:0:0:0:
328,254,8903,2,0,P|271:227|162:323,1,222.039990852234,14|0,0:0|3:0,0:0:0:0:
217,130,9403,1,2,1:2:0:0:
259,326,9569,1,10,0:2:0:0:
134,165,9736,2,0,P|121:108|120:46,1,92.8200005665283,2|0,1:2|3:0,0:0:0:0:
92,243,10069,1,2,1:2:0:0:
217,130,10236,1,8,0:0:0:0:
162,316,10403,2,0,P|194:260|230:223,1,92.8200005665283,2|0,1:2|3:0,0:0:0:0:
80,336,10736,1,0,1:0:0:0:
259,326,10903,1,8,0:0:0:0:
212,238,11069,1,0,1:0:0:0:
378,324,11236,6,0,P|387:261|439:191,1,139.230000849792,0|0,1:0|0:0,0:0:0:0:
428,199,11569,2,0,P|435:140|318:89,1,185.640001133057,10|0,0:2|3:0,0:0:0:0:
203,101,12069,1,2,1:2:0:0:
358,158,12236,1,10,0:2:0:0:
132,158,12403,2,0,P|79:169|20:201,1,92.8200005665283,2|0,1:2|3:0,0:0:0:0:
270,190,12736,1,2,0:2:0:0:
114,254,12903,1,10,0:2:0:0:
347,236,13069,2,0,P|392:244|435:262,1,92.8200005665283,2|0,1:2|3:0,0:0:0:0:
214,268,13403,1,2,1:2:0:0:
417,169,13569,1,10,0:2:0:0:
299,329,13736,1,0,1:0:0:0:
299,329,13819,1,0,1:0:0:0:
299,329,13903,6,0,B|288:170,1,139.230000849792,4|0,1:0|0:0,0:0:0:0:
289,190,14236,2,0,P|254:117|122:148,1,222.039990852234,14|0,0:0|3:0,0:0:0:0:
317,56,14736,1,2,1:2:0:0:
200,187,14903,1,10,0:2:0:0:
89,44,15069,2,0,L|114:259,1,185.640001133057,2|2,1:2|1:2,0:0:0:0:
210,49,15569,1,8,0:0:0:0:
289,190,15736,2,0,L|284:306,1,92.8200005665283,2|0,1:2|3:0,0:0:0:0:
365,139,16069,1,0,1:0:0:0:
200,187,16236,1,8,0:0:0:0:
287,95,16403,1,0,1:0:0:0:
362,307,16569,6,0,P|320:359|217:340,1,139.230000849792,0|0,1:0|0:0,0:0:0:0:
251,363,16903,2,0,B|209:326|209:326|145:319|145:319|68:262,1,185.640001133057,10|0,0:2|3:0,0:0:0:0:
117,89,17403,1,2,1:2:0:0:
194,244,17569,1,10,0:2:0:0:
43,147,17736,2,0,P|25:92|23:46,1,92.8200005665283,2|0,1:2|3:0,0:0:0:0:
19,247,18069,1,2,0:2:0:0:
186,135,18236,1,10,0:2:0:0:
306,320,18403,2,0,P|360:335|405:334,1,92.8200005665283,2|0,1:2|3:0,0:0:0:0:
272,170,18736,1,2,1:2:0:0:
140,313,18903,2,0,P|86:328|41:327,1,92.8200005665283,10|4,0:2|3:0,0:0:0:0:
19,247,19153,1,4,3:0:0:0:
19,247,19236,6,0,L|26:137,1,92.8200005665283,6|0,1:2|0:0,0:0:0:0:
48,131,19486,1,8,0:0:0:0:
48,131,19569,1,8,0:0:0:0:
216,209,19736,6,0,P|161:235|112:212,1,92.8200005665283,8|0,3:0|0:0,0:0:0:0:
111,207,19986,1,8,0:0:0:0:
111,207,20069,1,8,0:0:0:0:
305,63,20236,6,0,L|294:181,1,92.8200005665283,12|0,3:0|0:0,0:0:0:0:
314,189,20486,1,8,0:0:0:0:
314,189,20569,1,8,0:0:0:0:
411,342,20736,6,0,P|434:292|428:240,1,92.8200005665283,4|0,3:0|0:0,0:0:0:0:
417,223,20986,1,8,0:0:0:0:
417,223,21069,1,8,0:0:0:0:
257,317,21236,5,8,0:0:0:0:
386,132,21403,1,8,0:0:0:0:
240,235,21569,1,4,3:0:0:0:
341,262,21736,1,4,3:0:0:0:
171,80,21903,5,0,1:0:0:0:
171,80,22236,2,0,L|149:281,2,167.439994379151,2|2|2,1:2|1:2|1:2,0:0:0:0:
277,104,23069,1,2,0:2:0:0:
425,25,23236,1,0,1:0:0:0:
365,108,23403,2,0,P|365:164|373:201,1,83.7199971895753,2|0,0:2|1:0,0:0:0:0:
269,269,23736,2,0,P|275:227|274:185,1,83.7199971895753,2|0,0:2|1:0,0:0:0:0:
201,319,24069,1,2,0:2:0:0:
349,284,24236,1,2,1:2:0:0:
192,239,24403,1,0,3:0:0:0:
192,239,24486,1,0,3:0:0:0:
192,239,24569,6,0,P|104:239|91:241,1,83.7199971895753,2|0,1:2|0:0,0:0:0:0:
10,152,24903,2,0,P|51:149|93:151,1,83.7199971895753,2|0,1:2|0:0,0:0:0:0:
243,157,25236,2,0,P|195:127|163:91,1,83.7199971895753,2|0,1:2|0:0,0:0:0:0:
322,102,25569,1,2,1:2:0:0:
293,226,25736,1,2,0:2:0:0:
245,59,25903,1,0,1:0:0:0:
365,171,26069,2,0,P|418:160|462:146,1,83.7199971895753,2|0,0:2|1:0,0:0:0:0:
243,157,26403,2,0,P|190:168|146:182,1,83.7199971895753,2|0,0:2|1:0,0:0:0:0:
293,226,26736,1,2,0:2:0:0:
142,261,26903,1,2,1:2:0:0:
349,302,27069,1,2,3:2:0:0:
349,302,27153,1,0,3:0:0:0:
349,302,27236,6,0,P|398:293|440:271,1,83.7199971895753,2|0,1:2|0:0,0:0:0:0:
449,120,27569,1,2,1:2:0:0:
309,213,27736,2,0,P|267:206|229:189,1,83.7199971895753,2|0,0:2|1:0,0:0:0:0:
132,60,28069,2,0,P|90:66|52:83,1,83.7199971895753,2|0,0:2|1:0,0:0:0:0:
18,231,28403,1,2,0:2:0:0:
183,123,28569,2,0,P|252:99|359:99,2,167.439994379151,0|2|2,1:0|1:2|1:2,0:0:0:0:
112,203,29403,1,0,0:0:0:0:
229,189,29569,1,2,1:2:0:0:
123,296,29736,1,2,3:2:0:0:
123,296,29819,1,0,3:0:0:0:
123,296,29903,6,0,B|216:278|184:344|309:328,1,167.439994379151,2|0,1:2|1:0,0:0:0:0:
459,297,30403,2,0,P|405:310|352:300,1,83.7199971895753,2|0,0:2|1:0,0:0:0:0:
238,202,30736,1,8,3:0:0:0:
304,351,30903,1,2,1:2:0:0:
311,164,31069,1,8,3:0:0:0:
221,365,31236,5,10,0:2:0:0:
211,170,31403,1,8,0:0:0:0:
211,170,31486,1,8,0:0:0:0:
211,170,31569,1,8,3:0:0:0:
323,353,31736,6,0,B|303:252|359:293|323:153,1,167.439994379151,6|0,1:2|1:0,0:0:0:0:
408,349,32236,1,8,0:0:0:0:
231,276,32403,1,8,0:0:0:0:
231,276,32486,1,8,0:0:0:0:
231,276,32569,6,0,B|196:256|162:268|162:268|119:332|49:314,1,185.640001133057,6|10,1:2|0:2,0:0:0:0:
190,174,33069,1,2,3:2:0:0:
80,238,33236,2,0,P|68:175|69:128,1,92.8200005665283,2|0,1:2|0:0,0:0:0:0:
221,91,33569,1,10,0:2:0:0:
256,243,33736,6,0,P|253:289|243:334,1,92.8200005665283,2|0,3:2|1:0,0:0:0:0:
190,174,34069,1,2,0:2:0:0:
341,264,34236,1,10,0:2:0:0:
353,115,34403,2,0,P|355:68|365:23,1,92.8200005665283,2|0,3:2|1:0,0:0:0:0:
419,184,34736,1,0,0:2:0:0:
268,94,34903,1,10,0:2:0:0:
350,242,35069,5,0,3:0:0:0:
350,243,35153,1,0,3:0:0:0:
350,243,35236,2,0,B|359:269|375:293|375:293|299:250|217:306,1,185.640001133057,6|10,1:2|0:2,0:0:0:0:
139,352,35736,1,2,3:2:0:0:
230,203,35903,1,2,1:2:0:0:
311,362,36069,1,2,0:2:0:0:
139,269,36236,1,10,0:2:0:0:
232,120,36403,6,0,P|279:78|338:61,1,92.8200005665283,2|0,3:2|1:0,0:0:0:0:
373,247,36736,2,0,P|329:203|310:161,1,92.8200005665283,2|8,0:2|0:0,0:0:0:0:
474,237,37069,2,0,P|465:307|427:361,1,92.8200005665283,2|0,3:2|1:0,0:0:0:0:
408,153,37403,1,2,0:2:0:0:
368,336,37569,1,8,0:0:0:0:
318,156,37736,1,2,3:2:0:0:
279,347,37903,6,0,B|236:363|203:337|198:334|193:332|148:306|101:343,1,185.640001133057,6|10,1:2|0:2,0:0:0:0:
76,165,38403,2,0,P|110:221|120:266,1,92.8200005665283,2|0,3:2|1:0,0:0:0:0:
188,104,38736,1,2,0:2:0:0:
231,259,38903,1,10,0:2:0:0:
340,73,39069,5,2,3:2:0:0:
134,45,39236,2,0,P|56:58|20:81,1,92.8200005665283,0|0,1:0|0:0,0:0:0:0:
239,175,39569,2,0,P|317:162|353:139,1,92.8200005665283,10|0,0:2|3:0,0:0:0:0:
141,274,39903,1,2,1:2:0:0:
338,291,40069,1,2,0:2:0:0:
140,187,40236,1,10,0:2:0:0:
262,89,40403,1,0,1:0:0:0:
191,345,40569,5,14,0:2:0:0:
140,98,40736,1,0,1:0:0:0:
368,199,40903,1,0,1:0:0:0:
107,319,41069,5,14,0:2:0:0:
211,160,41236,1,0,1:0:0:0:
278,335,41403,1,0,1:0:0:0:
66,163,41569,5,14,0:2:0:0:
66,163,41903,1,0,1:0:0:0:
354,208,42069,2,0,B|240:190|293:265|167:246,1,185.640001133057,14|0,0:2|1:0,0:0:0:0:
417,148,42569,5,8,0:0:0:0:
204,166,42736,1,8,3:0:0:0:
411,273,42903,1,4,3:0:0:0:
262,321,43069,1,4,3:0:0:0:
320,192,43236,6,0,P|323:132|291:35,1,149.240002277222,6|0,1:2|1:0,0:0:0:0:
136,38,43736,1,2,0:2:0:0:
88,118,43903,2,0,P|114:175|127:271,1,149.240002277222,2|0,1:2|1:0,0:0:0:0:
262,360,44403,1,2,0:2:0:0:
311,288,44569,2,0,P|354:265|466:258,1,149.240002277222,2|0,1:2|1:0,0:0:0:0:
298,196,45069,1,0,3:3:0:0:
457,113,45236,1,2,1:2:0:0:
401,332,45403,1,10,0:2:0:0:
383,180,45569,1,2,1:2:0:0:
485,346,45736,5,4,3:0:0:0:
485,346,45819,1,4,3:0:0:0:
485,346,45903,2,0,P|411:324|314:314,1,149.240002277222,6|0,1:2|1:0,0:0:0:0:
132,353,46403,1,2,0:2:0:0:
192,278,46569,2,0,P|212:226|219:114,1,149.240002277222,2|0,1:2|1:0,0:0:0:0:
34,21,47069,1,2,0:2:0:0:
101,80,47236,2,0,P|125:150|130:224,1,149.240002277222,2|0,1:2|1:0,0:0:0:0:
262,55,47736,1,8,0:2:0:0:
334,215,47903,5,2,1:2:0:0:
246,154,48069,1,0,0:0:0:0:
424,63,48236,1,2,1:2:0:0:
393,310,48403,5,4,3:0:0:0:
393,310,48486,1,4,3:0:0:0:
393,310,48569,2,0,P|324:328|233:266,1,167.439994379151,6|0,1:2|0:0,0:0:0:0:
45,339,49069,1,2,1:2:0:0:
117,264,49236,2,0,P|138:209|88:97,1,167.439994379151,10|0,0:2|0:0,0:0:0:0:
230,262,49736,5,10,0:2:0:0:
289,80,49903,1,2,1:2:0:0:
165,180,50069,1,8,0:0:0:0:
355,146,50236,2,0,P|408:156|443:178,1,83.7199971895753,0|2,1:0|0:2,0:0:0:0:
255,246,50569,5,10,0:2:0:0:
321,63,50736,1,2,0:2:0:0:
418,256,50903,1,2,1:2:0:0:
456,96,51069,1,8,0:0:0:0:
336,316,51236,5,6,1:2:0:0:
201,37,51569,5,8,0:0:0:0:
126,326,51903,5,10,0:2:0:0:
293,234,52069,1,8,3:0:0:0:
77,184,52236,1,8,3:0:0:0:
351,154,52403,1,4,3:0:0:0:
379,183,52486,1,4,3:0:0:0:
390,223,52569,1,10,0:2:0:0:
157,85,52736,1,10,0:2:0:0:
157,85,53236,6,0,P|207:73|254:109,1,94.6399994223633,2|2,0:0|0:0,0:0:0:0:
270,169,53736,1,2,0:0:0:0:
479,46,53903,6,0,P|416:73|375:179,1,166.529993139176,6|0,1:2|0:0,0:0:0:0:
378,180,54236,5,8,0:0:0:0:
306,37,54403,1,2,3:2:0:0:
298,246,54569,5,2,1:2:0:0:
488,161,54736,1,2,1:2:0:0:
266,108,54903,5,10,0:2:0:0:
339,321,55069,1,2,3:2:0:0:
169,148,55236,6,0,P|105:127|37:132,1,111.019995426117,2|0,1:2|0:0,0:0:0:0:
271,225,55569,5,8,0:0:0:0:
55,274,55736,1,2,3:2:0:0:
253,134,55903,5,2,1:2:0:0:
168,312,56069,1,2,1:2:0:0:
171,55,56236,5,10,0:2:0:0:
289,316,56403,1,2,3:2:0:0:
338,63,56569,6,0,P|400:41|468:43,1,111.019995426117,6|0,1:2|0:0,0:0:0:0:
488,256,56903,1,10,0:2:0:0:
265,123,57069,2,0,P|203:101|135:103,1,111.019995426117,2|0,0:2|1:0,0:0:0:0:
55,303,57403,2,0,P|110:299|161:279,1,111.019995426117,2|8,1:2|0:0,0:0:0:0:
91,9,57736,6,0,P|66:75|125:262,1,222.039990852234,2|0,1:2|1:0,0:0:0:0:
274,357,58236,2,0,P|256:289|258:228,1,111.019995426117,8|0,0:0|0:0,0:0:0:0:
395,57,58569,2,0,P|392:112|376:165,1,111.019995426117,2|0,1:2|1:0,0:0:0:0:
172,185,58903,1,10,0:2:0:0:
303,87,59069,1,2,3:2:0:0:
437,290,59236,6,0,P|376:258|324:249,1,111.019995426117,6|0,1:2|3:0,0:0:0:0:
72,245,59569,2,0,P|120:272|173:285,1,111.019995426117,10|0,0:2|3:0,0:0:0:0:
345,162,59903,1,2,1:2:0:0:
157,191,60069,1,0,1:0:0:0:
301,359,60236,2,0,P|315:279|308:224,1,111.019995426117,10|0,0:2|3:0,0:0:0:0:
213,45,60569,5,2,1:2:0:0:
219,280,60736,1,2,3:2:0:0:
360,101,60903,1,10,0:2:0:0:
430,327,61069,2,0,P|423:271|406:219,1,111.019995426117,0|0,3:0|1:0,0:0:0:0:
239,70,61403,5,2,1:2:0:0:
328,286,61569,1,10,0:2:0:0:
428,43,61736,1,2,3:2:0:0:
237,275,61903,6,0,B|185:307|185:307|77:300|67:198,1,222.039990852234,6|8,1:2|0:0,0:0:0:0:
210,59,62403,1,2,3:2:0:0:
327,263,62569,2,0,P|390:252|436:200,1,111.019995426117,2|0,1:2|1:0,0:0:0:0:
171,212,62903,5,8,0:0:0:0:
339,174,63069,1,2,1:2:0:0:
108,134,63236,5,14,0:2:0:0:
414,225,63403,1,0,1:0:0:0:
70,244,63569,5,10,0:2:0:0:
442,136,63736,1,0,1:0:0:0:
152,350,63903,5,10,0:2:0:0:
235,121,64069,1,10,0:2:0:0:
289,122,64152,1,8,0:0:0:0:
335,153,64236,1,10,0:2:0:0:
369,197,64320,1,8,0:0:0:0:
414,225,64404,1,10,0:2:0:0:
469,224,64487,1,8,0:0:0:0:
512,191,64569,6,0,B|507:138|477:86|477:86|387:52,1,166.529993139176,6|0,1:2|0:0,0:0:0:0:
389,73,64903,5,8,0:0:0:0:
276,227,65069,1,2,3:2:0:0:
171,66,65236,5,2,1:2:0:0:
79,266,65403,1,2,1:2:0:0:
269,93,65569,5,10,0:2:0:0:
397,328,65736,1,2,3:2:0:0:
149,148,65903,6,0,P|72:139|20:147,1,111.019995426117,2|0,1:2|0:0,0:0:0:0:
208,308,66236,5,8,0:0:0:0:
393,131,66403,1,2,3:2:0:0:
142,240,66569,5,2,1:2:0:0:
426,264,66736,1,2,1:2:0:0:
237,60,66903,5,10,0:2:0:0:
276,365,67069,1,2,3:2:0:0:
338,99,67236,6,0,P|397:59|443:55,1,111.019995426117,6|0,1:2|0:0,0:0:0:0:
463,68,67486,1,8,0:0:0:0:
463,68,67569,1,10,0:2:0:0:
331,231,67736,6,0,B|288:253|256:225|251:223|247:221|212:195|156:229,1,166.529993139176,6|0,1:2|0:0,0:0:0:0:
171,230,68069,6,0,B|214:252|245:224|250:222|254:220|290:194|346:228,1,166.529993139176,6|0,1:2|0:0,0:0:0:0:
367,311,68403,6,0,L|344:71,1,222.039990852234,2|0,1:2|1:0,0:0:0:0:
267,329,68903,5,8,0:0:0:0:
271,67,69069,1,0,0:0:0:0:
178,310,69236,5,10,0:2:0:0:
98,93,69402,1,0,1:0:0:0:
93,293,69569,5,10,0:2:0:0:
184,64,69735,1,2,3:2:0:0:
184,64,69819,1,0,0:0:0:0:
184,64,69903,6,0,B|211:164|139:129|186:268,1,166.529993139176,6|0,1:2|0:0,0:0:0:0:
190,251,70236,2,0,P|256:226|316:234,1,111.019995426117,10|0,0:2|3:0,0:0:0:0:
458,306,70569,2,0,P|402:305|352:283,1,111.019995426117,2|0,1:2|1:0,0:0:0:0:
343,104,70903,2,0,P|371:176|370:235,1,111.019995426117,10|0,0:2|3:0,0:0:0:0:
431,48,71236,5,2,1:2:0:0:
249,115,71403,1,2,3:2:0:0:
456,146,71569,1,10,0:2:0:0:
283,39,71736,2,0,P|211:24|149:30,1,111.019995426117,0|0,3:0|1:0,0:0:0:0:
54,217,72069,1,2,1:2:0:0:
260,131,72236,1,10,0:2:0:0:
60,75,72403,1,2,3:2:0:0:
260,233,72569,6,0,P|326:220|373:183,1,111.019995426117,6|0,1:2|3:0,0:0:0:0:
176,54,72903,1,8,0:0:0:0:
132,261,73069,1,2,3:2:0:0:
258,44,73236,2,0,P|324:57|371:94,1,111.019995426117,2|0,1:2|1:0,0:0:0:0:
346,286,73569,5,8,0:0:0:0:
260,131,73736,1,2,1:2:0:0:
171,323,73903,5,14,0:2:0:0:
235,52,74069,1,0,1:0:0:0:
304,359,74236,5,10,0:2:0:0:
156,69,74403,1,0,1:0:0:0:
87,352,74569,5,10,0:2:0:0:
178,152,74736,1,8,3:0:0:0:
258,287,74903,1,4,3:0:0:0:
123,274,75069,1,4,3:0:0:0:
266,161,75236,6,0,B|362:154|321:208|434:204,1,167.439994379151,6|0,1:2|0:0,0:0:0:0:
287,64,75736,1,2,1:2:0:0:
199,86,75903,2,0,P|167:136|142:250,1,167.439994379151,10|2,0:2|0:2,0:0:0:0:
291,336,76403,1,10,0:2:0:0:
235,219,76569,1,0,1:0:0:0:
179,333,76736,1,8,0:0:0:0:
329,249,76903,2,0,P|387:243|439:245,1,83.7199971895753,0|0,1:0|1:0,0:0:0:0:
276,141,77236,2,0,P|234:135|192:135,1,83.7199971895753,8|2,0:0|0:2,0:0:0:0:
136,249,77569,1,2,0:2:0:0:
235,219,77736,1,2,0:2:0:0:
111,9,77903,6,0,B|153:114|84:78|122:181,1,167.439994379151,6|0,1:2|0:0,0:0:0:0:
264,326,78403,1,2,1:2:0:0:
321,257,78569,2,0,P|341:199|321:89,1,167.439994379151,10|0,0:2|0:0,0:0:0:0:
191,279,79069,5,10,0:2:0:0:
238,55,79236,1,2,1:2:0:0:
134,205,79403,2,0,P|85:232|37:237,2,83.7199971895753,8|0|0,0:0|1:0|1:0,0:0:0:0:
156,57,79903,1,8,0:0:0:0:
222,212,80069,5,2,0:2:0:0:
91,115,80236,1,2,0:2:0:0:
167,285,80403,1,2,0:2:0:0:
304,100,80569,6,0,P|369:82|423:85,1,101.920001244141,6|0,1:2|0:0,0:0:0:0:
477,269,80903,1,10,0:2:0:0:
183,118,81069,6,0,P|216:59|256:23,1,101.920001244141,6|0,1:2|0:0,0:0:0:0:
269,27,81319,1,8,0:0:0:0:
269,27,81403,1,8,0:0:0:0:
305,278,81569,5,6,1:2:0:0:
117,178,81736,1,2,1:2:0:0:
99,141,81819,1,8,0:0:0:0:
96,101,81902,1,8,0:0:0:0:
40,332,82069,5,6,1:2:0:0:
108,274,82236,1,2,0:2:0:0:
196,276,82403,1,2,0:2:0:0:
256,347,82569,1,2,0:2:0:0:
350,360,82736,1,2,0:2:0:0:
413,303,82903,2,0,P|427:262|423:227,1,65.5200015996094,2|0,0:2|0:0,0:0:0:0:
320,132,83236,6,0,P|345:187|346:248,1,121.250430850977,2|0,0:2|0:0,0:0:0:0:
153,318,84403,1,4,1:1:0:0:
153,318,84486,1,4,1:1:0:0:
153,318,84569,6,0,B|144:267|144:267|157:233|157:233|144:167,1,139.512604562355,4|0,1:0|0:0,0:0:0:0:
147,182,84903,2,0,P|204:209|313:113,1,222.039990852234,14|0,0:0|3:0,0:0:0:0:
253,307,85403,1,2,1:2:0:0:
211,111,85569,1,10,0:2:0:0:
336,272,85736,2,0,L|350:391,1,93.0084030415701,2|0,1:2|3:0,0:0:0:0:
378,194,86069,1,2,1:2:0:0:
253,307,86236,1,8,0:0:0:0:
308,121,86403,2,0,L|240:214,1,93.0084030415701,2|0,1:2|3:0,0:0:0:0:
390,101,86736,1,0,1:0:0:0:
211,111,86903,1,8,0:0:0:0:
253,196,87069,1,0,1:0:0:0:
93,116,87236,6,0,B|93:174|93:174|32:249,1,139.512604562355,0|0,1:0|0:0,0:0:0:0:
42,238,87569,2,0,P|35:297|140:352,1,186.01680608314,10|0,0:2|3:0,0:0:0:0:
267,336,88069,1,2,1:2:0:0:
112,279,88236,1,10,0:2:0:0:
338,279,88403,2,0,L|450:236,1,93.0084030415701,2|0,1:2|3:0,0:0:0:0:
200,247,88736,1,2,0:2:0:0:
356,183,88903,1,10,0:2:0:0:
123,201,89069,2,0,L|29:174,1,93.0084030415701,2|0,1:2|3:0,0:0:0:0:
256,169,89403,1,2,1:2:0:0:
53,268,89569,1,10,0:2:0:0:
171,108,89736,1,0,1:0:0:0:
171,108,89819,1,0,1:0:0:0:
171,108,89903,6,0,B|178:165|178:165|169:194|169:194|182:267,1,139.512604562355,4|0,1:0|0:0,0:0:0:0:
178,244,90236,2,0,P|213:317|345:286,1,222.039990852234,14|0,0:0|3:0,0:0:0:0:
152,364,90736,1,2,1:2:0:0:
269,233,90903,1,10,0:2:0:0:
380,376,91069,2,0,L|355:161,1,186.01680608314,2|2,1:2|1:2,0:0:0:0:
259,371,91569,1,8,0:0:0:0:
180,230,91736,2,0,L|185:114,1,92.8200005665283,2|0,1:2|3:0,0:0:0:0:
104,281,92069,1,0,1:0:0:0:
269,233,92236,1,8,0:0:0:0:
182,325,92403,1,0,1:0:0:0:
107,113,92569,6,0,P|149:61|252:80,1,139.230000849792,0|0,1:0|0:0,0:0:0:0:
218,57,92903,2,0,B|260:94|260:94|324:101|324:101|401:158,1,185.640001133057,10|0,0:2|3:0,0:0:0:0:
352,331,93403,1,2,1:2:0:0:
275,176,93569,1,10,0:2:0:0:
216,355,93736,2,0,L|246:254,1,93.0084030415701,2|0,1:2|3:0,0:0:0:0:
366,355,94069,1,2,1:2:0:0:
267,158,94236,1,10,0:2:0:0:
124,357,94403,2,0,L|154:256,1,93.0084030415701,2|0,1:2|3:0,0:0:0:0:
281,354,94736,1,2,1:2:0:0:
184,154,94903,1,10,0:2:0:0:
47,307,95069,6,0,L|251:282,1,186.01680608314,6|2,1:2|3:2,0:0:0:0:
30,221,95569,1,10,0:2:0:0:
368,176,95736,2,0,L|164:151,1,186.01680608314,6|2,1:2|1:2,0:0:0:0:
391,96,96236,1,10,0:2:0:0:
452,332,96403,6,0,L|350:317,1,102.108401967458,14|0,0:2|0:0,0:0:0:0:
268,77,96736,5,8,3:0:0:0:
183,340,96903,1,10,0:2:0:0:
441,238,97069,5,10,0:2:0:0:
146,99,97236,1,8,0:0:0:0:
289,370,97403,5,8,3:0:0:0:
394,48,97569,1,8,3:0:0:0:
46,280,97736,5,6,1:2:0:0:
256,192,97819,12,0,100569,0:0:0:0:
