osu file format v14

[General]
AudioFilename: audio.mp3
AudioLeadIn: 0
PreviewTime: 127859
Countdown: 0
SampleSet: Soft
StackLeniency: 1
Mode: 0
LetterboxInBreaks: 0
WidescreenStoryboard: 1

[Editor]
Bookmarks: 18859,53859,75192,83192,128525,157859,192525,223192
DistanceSpacing: 1.5
BeatDivisor: 4
GridSize: 8
TimelineZoom: 1

[Metadata]
Title:Ai Wo Utae
TitleUnicode:アイヲウタエ
Artist:ClariS
ArtistUnicode:ClariS
Creator:SolariS
Version:Purity
Source:
Tags:
BeatmapID:1737448
BeatmapSetID:829278

[Difficulty]
HPDrainRate:5.8
CircleSize:4
OverallDifficulty:8.8
ApproachRate:9.2
SliderMultiplier:1.5
SliderTickRate:1

[Events]
//Background and Video events
0,0,"69817346_p0_master1200.jpg",0,0
//Break Periods
//Storyboard Layer 0 (Background)
//Storyboard Layer 1 (Fail)
//Storyboard Layer 2 (Pass)
//Storyboard Layer 3 (Foreground)
//Storyboard Sound Samples

[TimingPoints]
526,333.333333333333,4,2,0,100,1,0
526,-133.333333333333,4,2,0,75,0,0
5859,-100,4,2,0,100,0,0
96525,-100,4,2,0,50,0,0
126192,-100,4,2,0,75,0,0
128525,-100,4,2,0,100,0,1
149859,-100,4,2,0,75,0,0
181192,-133.333333333333,4,2,0,40,0,0
189859,-100,4,2,0,75,0,0
191859,-66.6666666666667,4,2,0,75,0,0
192525,-100,4,2,0,100,0,1
192525,-100,4,2,0,100,0,1
221859,-200,4,2,0,75,0,0
223192,-100,4,2,0,100,0,0
223192,-100,4,2,0,100,0,0

[Colours]
Combo1 : 255,230,151
Combo2 : 45,255,45
Combo3 : 125,184,255
Combo4 : 251,174,186

[HitObjects]
281,95,526,5,4,0:0:0:0:
281,95,859,2,0,P|332:90|380:131,2,112.500004291535
136,182,1692,2,0,P|100:184|40:135,2,112.500004291535
406,197,2692,1,0,0:0:0:0:
406,197,2859,2,0,P|390:214|341:231,1,56.2500021457673
203,252,3192,5,4,0:0:0:0:
333,275,3525,2,0,P|370:299|375:374,2,112.500004291535
203,252,4359,2,0,P|135:210|129:157,1,112.500004291535,4|0,0:0|0:0,0:0:0:0:
264,77,5025,1,0,0:0:0:0:
420,140,5359,1,0,0:0:0:0:
422,143,5525,2,0,L|411:213,1,56.2500021457673
323,317,5859,6,0,L|415:316,1,75,2|0,0:0|0:0,0:0:0:0:
397,316,6109,1,0,0:0:0:0:
397,316,6192,1,0,0:0:0:0:
170,118,6359,2,0,L|66:118,1,75,2|0,0:0|0:0,0:0:0:0:
395,136,6692,5,0,0:0:0:0:
126,270,6859,1,8,0:0:0:0:
318,68,8192,5,0,0:0:0:0:
439,124,8358,1,0,0:0:0:0:
439,124,8442,1,0,0:0:0:0:
439,124,8525,6,0,P|469:162|456:266,1,150,0|8,0:0|0:0,0:0:0:0:
398,349,9025,1,0,0:0:0:0:
285,360,9192,2,0,P|255:359|195:324,2,75,0|0|8,0:0|0:0|0:0,0:0:0:0:
280,247,9692,2,0,P|264:169|180:140,1,150
105,88,10192,2,0,P|71:96|48:151,1,75,8|0,0:0|0:0,0:0:0:0:
128,338,10692,1,0,0:0:0:0:
217,269,10859,1,8,0:0:0:0:
110,229,11025,1,0,0:0:0:0:
315,73,11192,6,0,P|368:80|403:182,1,150,0|8,0:0|0:0,0:0:0:0:
365,263,11692,1,0,0:0:0:0:
292,176,11859,2,0,P|224:182|213:193,2,75,0|0|8,0:0|0:0|0:0,0:0:0:0:
261,284,12359,1,0,0:0:0:0:
261,284,12692,2,0,P|254:309|190:332,1,75,0|8,0:0|0:0,0:0:0:0:
107,299,13025,1,0,0:0:0:0:
227,108,13359,2,0,P|234:143|224:183,1,75,0|8,0:0|0:0,0:0:0:0:
117,216,13692,1,0,0:0:0:0:
117,216,13775,1,0,0:0:0:0:
117,216,13859,6,0,P|76:199|66:91,1,150,0|8,0:0|0:0,0:0:0:0:
57,103,14359,1,0,0:0:0:0:
165,76,14525,2,0,P|200:89|245:72,1,75
340,31,14859,5,8,0:0:0:0:
340,31,15025,2,0,P|394:64|392:146,1,150
294,198,15525,6,0,P|248:208|232:240,1,75,8|0,0:0|0:0,0:0:0:0:
430,339,16025,1,0,0:0:0:0:
453,228,16192,1,8,0:0:0:0:
348,271,16359,1,0,0:0:0:0:
170,97,16525,5,0,0:0:0:0:
170,97,16859,2,0,B|142:201,2,75,8|0|0,0:0|0:0|0:0,0:0:0:0:
259,28,17359,1,0,0:0:0:0:
350,92,17525,1,8,0:0:0:0:
247,139,17692,2,0,P|264:191|369:202,1,150
450,164,18192,1,8,0:0:0:0:
450,164,18359,2,0,L|411:328,1,150
316,365,18859,1,8,0:0:0:0:
203,167,19192,5,0,0:0:0:0:
232,58,19359,1,0,0:0:0:0:
232,58,19442,1,0,0:0:0:0:
232,58,19525,1,0,0:0:0:0:
306,211,19692,5,0,0:0:0:0:
407,259,19859,1,0,0:0:0:0:
407,259,19942,1,0,0:0:0:0:
407,259,20025,1,0,0:0:0:0:
219,282,20192,5,0,0:0:0:0:
144,366,20359,1,0,0:0:0:0:
144,366,20442,1,0,0:0:0:0:
144,366,20525,1,0,0:0:0:0:
87,268,20692,5,0,0:0:0:0:
59,158,20859,2,0,L|66:104,2,37.5
166,191,21192,1,0,0:0:0:0:
178,78,21359,2,0,P|203:62|258:63,1,75
359,92,21692,1,0,0:0:0:0:
291,192,21859,5,2,0:0:0:0:
291,192,22192,6,0,P|321:200|372:190,1,75,2|0,0:0|0:0,0:0:0:0:
359,92,22525,2,0,P|388:83|438:97,2,75,2|0|2,0:0|0:0|0:0,0:0:0:0:
246,90,23025,1,0,0:0:0:0:
143,136,23192,6,0,P|103:160|149:261,1,150,2|2,0:0|0:0,0:0:0:0:
225,216,23692,1,0,0:0:0:0:
225,216,23859,2,0,P|239:256|275:272,2,75,2|0|2,0:0|0:0|0:0,0:0:0:0:
268,112,24359,1,0,0:0:0:0:
343,195,24525,6,0,P|393:201|441:108,1,150,2|2,0:0|0:0,0:0:0:0:
376,37,25025,1,0,0:0:0:0:
264,20,25192,2,0,L|154:3,1,75,2|0,0:0|0:0,0:0:0:0:
250,103,25525,2,0,L|341:118,1,75,2|0,0:0|0:0,0:0:0:0:
436,132,25859,2,0,L|314:241,1,150,2|2,0:0|0:0,0:0:0:0:
225,261,26359,1,0,0:0:0:0:
225,261,26525,2,0,P|190:240|172:201,1,75,2|0,0:0|0:0,0:0:0:0:
106,119,26859,1,2,0:0:0:0:
34,203,27025,1,0,0:0:0:0:
34,203,27109,1,0,0:0:0:0:
34,203,27192,6,0,P|74:225|187:199,1,150,2|2,0:0|0:0,0:0:0:0:
258,136,27692,1,0,0:0:0:0:
258,136,27859,2,0,P|291:128|347:151,1,75,2|0,0:0|0:0,0:0:0:0:
428,192,28192,1,2,0:0:0:0:
343,266,28359,1,0,0:0:0:0:
239,307,28525,6,0,P|214:276|177:266,1,75,2|0,0:0|0:0,0:0:0:0:
149,157,28859,2,0,P|133:209|148:245,1,75,2|0,0:0|0:0,0:0:0:0:
75,321,29192,2,0,P|98:319|133:274,2,75,2|0|2,0:0|0:0|0:0,0:0:0:0:
29,218,29692,1,0,0:0:0:0:
49,107,29859,6,0,P|68:67|106:47,1,75,2|0,0:0|0:0,0:0:0:0:
200,82,30192,2,0,P|226:79|278:110,1,75,2|0,0:0|0:0,0:0:0:0:
214,203,30525,1,2,0:0:0:0:
305,268,30692,1,0,0:0:0:0:
202,315,30859,1,2,0:0:0:0:
214,203,31025,1,0,0:0:0:0:
319,163,31192,6,0,P|364:150|388:122,1,75,2|0,0:0|0:0,0:0:0:0:
383,130,31442,1,0,0:0:0:0:
383,130,31525,1,2,0:0:0:0:
466,54,31692,2,0,L|499:222,1,150
464,309,32192,5,0,0:0:0:0:
360,339,32359,1,0,0:0:0:0:
360,339,32442,1,0,0:0:0:0:
360,339,32525,6,0,P|316:338|284:239,1,150
312,184,33025,1,0,0:0:0:0:
194,42,33192,2,0,P|142:47|124:70,1,75
193,153,33525,2,0,P|202:194|185:227,1,75
122,186,33859,2,0,P|93:211|49:213,2,75
63,139,34359,1,0,0:0:0:0:
63,139,34525,6,0,L|100:237,1,75
119,278,34859,2,0,P|181:303|194:300,1,75
349,106,35192,5,0,0:0:0:0:
349,106,35525,2,0,P|370:119|377:180,1,75
352,234,35859,2,0,P|353:281|378:312,2,75
427,231,36359,2,0,P|472:210|489:185,1,75
464,118,36692,2,0,L|380:92,1,75
320,73,37025,1,0,0:0:0:0:
320,73,37192,2,0,P|297:97|238:105,1,75
185,86,37525,2,0,P|162:80|109:96,1,75
91,205,37859,6,0,P|51:224|46:325,1,150
174,291,38359,2,0,P|197:281|257:297,1,75
322,177,38692,1,0,0:0:0:0:
204,109,38859,2,0,P|189:104|116:118,1,75
307,74,39192,6,0,L|392:70,1,75
380,142,39525,2,0,L|470:160,1,75
438,259,39859,5,0,0:0:0:0:
376,324,40025,1,0,0:0:0:0:
343,239,40192,2,0,L|186:239,1,150
193,239,40692,1,0,0:0:0:0:
193,239,40859,1,0,0:0:0:0:
167,68,41025,2,0,P|113:72|86:107,1,75
69,170,41359,1,0,0:0:0:0:
158,159,41525,6,0,P|189:188|135:287,1,150
82,234,42025,2,0,L|254:182,1,150
374,129,42525,5,0,0:0:0:0:
321,269,42692,1,0,0:0:0:0:
266,128,42859,1,0,0:0:0:0:
398,196,43025,1,0,0:0:0:0:
445,37,43192,2,0,P|397:39|371:53,1,75,4|0,0:0|0:0,0:0:0:0:
312,188,43525,5,2,0:0:0:0:
298,207,43859,1,2,0:0:0:0:
285,189,44192,1,2,0:0:0:0:
267,202,44525,1,2,0:0:0:0:
227,178,44859,1,2,0:0:0:0:
218,285,45192,5,0,0:0:0:0:
218,285,45359,1,0,0:0:0:0:
360,241,45525,2,0,P|369:267|355:318,1,75
358,312,45775,1,0,0:0:0:0:
358,312,45859,1,4,0:0:0:0:
192,93,46192,5,2,0:0:0:0:
207,75,46525,1,2,0:0:0:0:
218,98,46859,1,2,0:0:0:0:
263,78,47192,1,2,0:0:0:0:
367,140,47525,5,2,0:0:0:0:
367,140,47692,1,4,0:0:0:0:
237,214,47859,6,0,P|190:233|167:282,1,75
101,381,48192,1,0,0:0:0:0:
36,245,48359,1,0,0:0:0:0:
113,90,48525,6,0,P|157:51|254:62,1,150
243,55,49025,1,0,0:0:0:0:
281,201,49192,6,0,L|366:77,1,150
365,77,49692,1,0,0:0:0:0:
411,219,49859,6,0,L|440:307,1,75
434,290,50192,1,0,0:0:0:0:
216,235,50525,6,0,P|164:250|144:289,1,75
279,346,50859,1,0,0:0:0:0:
339,208,51192,1,0,0:0:0:0:
339,208,51525,6,0,P|341:175|298:126,1,75
231,221,51859,2,0,P|226:258|265:301,1,75
330,324,52192,2,0,L|364:232,1,75
396,148,52525,5,0,0:0:0:0:
172,179,52692,1,0,0:0:0:0:
269,40,53192,5,0,0:0:0:0:
269,40,53525,2,0,P|281:86|272:113,1,75
172,179,53859,6,0,P|136:184|143:291,1,150
233,302,54359,1,0,0:0:0:0:
286,203,54525,2,0,P|323:229|357:222,1,75
451,174,54859,2,0,L|438:280,1,75
367,353,55192,2,0,P|336:306|246:342,1,150
254,324,55692,1,0,0:0:0:0:
190,128,55859,5,0,0:0:0:0:
162,335,56025,1,0,0:0:0:0:
304,179,56192,1,0,0:0:0:0:
104,245,56359,1,0,0:0:0:0:
323,290,56525,6,0,P|290:307|251:298,2,75
375,236,57025,2,0,P|392:210|446:195,2,75
300,224,57525,2,0,P|281:217|256:165,1,75
286,102,57859,5,0,0:0:0:0:
424,278,58025,1,0,0:0:0:0:
207,216,58192,1,0,0:0:0:0:
420,144,58359,1,0,0:0:0:0:
288,325,58525,6,0,P|278:357|232:389,2,75
288,325,59025,1,0,0:0:0:0:
97,190,59192,6,0,P|88:225|100:261,1,75
261,106,59525,2,0,P|269:69|260:34,1,75
373,230,59859,6,0,P|397:222|450:232,1,75
253,350,60192,2,0,P|234:354|179:346,1,75
362,116,60525,6,0,P|394:103|444:121,2,75
372,221,61025,2,0,P|379:250|359:302,1,75
265,230,61359,5,0,0:0:0:0:
362,116,61525,1,0,0:0:0:0:
486,207,61692,1,0,0:0:0:0:
265,230,61859,6,0,P|205:208|117:232,1,150
123,227,62359,1,0,0:0:0:0:
273,103,62525,6,0,P|346:84|425:107,1,150
416,102,63025,1,0,0:0:0:0:
174,243,63192,5,0,0:0:0:0:
388,174,63359,1,0,0:0:0:0:
114,163,63525,5,0,0:0:0:0:
446,258,63692,1,0,0:0:0:0:
99,224,63859,5,0,0:0:0:0:
464,202,64025,1,0,0:0:0:0:
279,122,64192,5,0,0:0:0:0:
293,156,64275,1,0,0:0:0:0:
299,193,64358,1,0,0:0:0:0:
296,230,64442,1,0,0:0:0:0:
287,266,64525,6,0,P|328:287|432:275,1,150
428,276,65025,1,0,0:0:0:0:
404,124,65192,2,0,P|360:115|305:142,1,75
224,202,65525,2,0,P|207:208|138:188,1,75
96,75,65859,6,0,P|152:63|184:153,1,150
192,134,66359,1,0,0:0:0:0:
141,352,66525,5,0,0:0:0:0:
88,132,66692,1,0,0:0:0:0:
273,260,66859,1,0,0:0:0:0:
49,256,67025,1,0,0:0:0:0:
352,89,67192,6,0,L|391:174,1,75
383,157,67442,1,0,0:0:0:0:
383,157,67525,1,0,0:0:0:0:
431,270,67692,5,0,0:0:0:0:
110,159,68025,1,0,0:0:0:0:
110,159,68359,2,0,L|186:303,1,150
180,291,68859,2,0,L|256:243,1,75
415,155,69192,2,0,P|402:137|330:131,2,75
341,240,69692,1,0,0:0:0:0:
104,182,69859,6,0,P|74:139|87:92,1,75
205,152,70192,2,0,P|223:172|227:223,1,75
138,319,70525,6,0,P|87:324|63:313,1,75
156,217,70859,2,0,P|174:210|235:222,1,75
293,335,71192,5,0,0:0:0:0:
322,111,71359,1,0,0:0:0:0:
469,279,71525,2,0,P|416:260|449:163,1,150
236,46,72025,5,0,0:0:0:0:
121,118,72192,1,0,0:0:0:0:
155,248,72359,1,0,0:0:0:0:
288,180,72525,6,0,P|319:159|434:192,1,150
423,179,73025,1,0,0:0:0:0:
323,291,73192,6,0,P|285:273|174:300,1,150
182,292,73692,1,0,0:0:0:0:
336,126,73859,5,0,0:0:0:0:
126,204,74025,1,0,0:0:0:0:
396,215,74192,5,0,0:0:0:0:
93,123,74359,1,0,0:0:0:0:
427,146,74525,5,0,0:0:0:0:
83,186,74692,1,0,0:0:0:0:
427,146,74859,2,0,L|385:238,1,75
147,90,75192,6,0,P|96:100|97:200,1,150
163,274,75692,1,0,0:0:0:0:
271,222,75859,2,0,L|342:178,1,75
421,266,76192,2,0,L|397:356,1,75
284,310,76525,6,0,P|286:279|232:235,1,75
147,284,76859,2,0,P|128:265|129:211,1,75
212,136,77192,2,0,P|229:88|216:60,2,75
124,218,77692,1,0,0:0:0:0:
231,252,77859,6,0,P|305:278|386:239,1,150
350,143,78359,1,0,0:0:0:0:
280,54,78525,2,0,P|246:70|246:132,2,75
350,143,79025,1,0,0:0:0:0:
406,240,79192,6,0,P|480:225|500:158,1,150
452,58,79692,1,0,0:0:0:0:
345,29,79859,2,0,P|290:41|271:72,2,75
350,143,80359,1,0,0:0:0:0:
351,262,80525,6,0,P|355:309|386:338,1,75
371,329,80775,1,0,0:0:0:0:
371,329,80859,1,0,0:0:0:0:
464,256,81025,1,0,0:0:0:0:
350,143,81359,5,0,0:0:0:0:
113,182,81525,1,0,0:0:0:0:
120,49,82859,5,0,0:0:0:0:
78,176,83025,1,0,0:0:0:0:
78,176,83108,1,0,0:0:0:0:
78,176,83192,6,0,P|99:225|192:246,1,150
261,164,83692,1,0,0:0:0:0:
359,218,83859,2,0,P|389:227|445:192,2,75
381,109,84359,2,0,P|411:57|501:55,1,150
489,163,84859,2,0,L|480:260,1,75
245,228,85359,1,0,0:0:0:0:
262,338,85525,1,0,0:0:0:0:
356,277,85692,1,0,0:0:0:0:
225,66,85859,6,0,P|151:84|141:154,1,150
248,174,86359,1,0,0:0:0:0:
255,285,86525,2,0,P|218:314|184:313,2,75
348,222,87025,2,0,P|401:217|431:300,1,150
328,336,87525,1,0,0:0:0:0:
258,247,87692,2,0,P|238:201|311:143,1,150
446,192,88192,1,0,0:0:0:0:
234,105,88359,1,0,0:0:0:0:
234,105,88442,1,0,0:0:0:0:
234,105,88525,6,0,P|257:156|173:218,1,150
113,116,89025,1,0,0:0:0:0:
64,242,89192,2,0,P|48:289|64:325,1,75
184,350,89525,1,0,0:0:0:0:
201,219,89692,6,0,P|196:139|283:116,1,150
322,222,90192,2,0,P|360:227|394:204,1,75
424,38,90692,1,0,0:0:0:0:
349,122,90859,1,0,0:0:0:0:
456,154,91025,1,0,0:0:0:0:
371,228,91192,5,0,0:0:0:0:
371,228,91525,2,0,L|386:318,2,75
281,159,92025,1,0,0:0:0:0:
171,139,92192,1,0,0:0:0:0:
195,259,92359,2,0,P|179:302|79:299,1,150
36,217,92859,1,0,0:0:0:0:
112,135,93025,6,0,L|201:267,1,150
195,259,93525,1,0,0:0:0:0:
362,136,93859,5,0,0:0:0:0:
322,91,94025,1,0,0:0:0:0:
249,72,94192,1,0,0:0:0:0:
159,82,94359,1,0,0:0:0:0:
54,166,94525,5,0,0:0:0:0:
103,291,94692,1,0,0:0:0:0:
103,291,94859,2,0,P|141:290|173:267,1,75
257,189,95192,1,0,0:0:0:0:
332,272,95359,6,0,L|379:207,1,75
439,118,95692,1,0,0:0:0:0:
227,30,95859,5,0,0:0:0:0:
197,138,96025,1,0,0:0:0:0:
304,105,96192,1,0,0:0:0:0:
288,216,96359,5,0,0:0:0:0:
288,216,96442,1,0,0:0:0:0:
288,216,96525,2,0,P|344:240|433:212,1,150
486,121,97025,1,0,0:0:0:0:
373,124,97192,2,0,L|264:126,2,75
422,22,97692,1,0,0:0:0:0:
286,21,97859,6,0,L|192:65,1,75
140,134,98192,2,0,L|184:203,1,75
280,249,98525,2,0,P|326:241|365:252,2,75
318,354,99025,1,0,0:0:0:0:
210,316,99192,6,0,P|177:252|223:180,1,150
310,113,99692,1,0,0:0:0:0:
229,33,99859,2,0,P|178:28|151:44,1,75
111,140,100192,1,0,0:0:0:0:
223,147,100359,2,0,P|255:169|232:277,1,150
124,310,101025,1,0,0:0:0:0:
124,310,101359,1,0,0:0:0:0:
124,310,101525,2,0,P|118:284|152:216,1,75
334,99,101859,6,0,P|377:89|426:113,1,75
335,212,102192,2,0,P|311:218|235:197,1,75
160,122,102525,6,0,P|153:93|167:39,1,75
262,140,102859,2,0,P|271:172|257:219,1,75
207,310,103192,6,0,P|149:275|165:198,1,150
260,211,103692,1,0,0:0:0:0:
333,324,103859,2,0,L|357:245,1,75
388,121,104192,1,0,0:0:0:0:
464,232,104359,1,0,0:0:0:0:
178,67,104525,1,0,0:0:0:0:
178,67,104859,5,0,0:0:0:0:
157,260,105025,1,0,0:0:0:0:
293,120,105192,1,0,0:0:0:0:
272,314,105359,1,0,0:0:0:0:
409,176,105525,1,0,0:0:0:0:
394,370,105692,1,0,0:0:0:0:
394,370,105859,6,0,P|378:296|354:289,1,75
272,229,106192,1,0,0:0:0:0:
151,289,106359,2,0,P|100:250|103:158,1,150
150,70,106859,1,0,0:0:0:0:
208,165,107025,1,0,0:0:0:0:
208,165,107109,1,0,0:0:0:0:
208,165,107192,6,0,L|215:334,1,150
328,309,107692,1,0,0:0:0:0:
410,232,107859,2,0,P|457:242|477:271,2,75
328,309,108359,1,0,0:0:0:0:
306,199,108525,6,0,P|282:169|241:161,1,75
193,265,108859,2,0,L|188:343,1,75
81,256,109192,2,0,L|87:175,1,75
102,69,109525,1,0,0:0:0:0:
188,141,109692,1,0,0:0:0:0:
188,141,109775,1,0,0:0:0:0:
188,141,109859,6,0,L|314:39,1,150
409,86,110359,1,0,0:0:0:0:
427,196,110525,2,0,L|467:275,2,75
318,166,111025,1,0,0:0:0:0:
299,277,111192,6,0,P|257:265|216:288,1,75
141,192,111525,2,0,P|165:181|231:205,1,75
122,106,111859,2,0,P|89:94|33:129,2,75
211,188,112359,1,0,0:0:0:0:
96,220,112525,6,0,P|51:244|69:338,1,150
178,311,113025,1,0,0:0:0:0:
178,311,113192,2,0,P|213:323|273:316,1,75
369,307,113525,2,0,L|414:233,1,75
483,119,113859,6,0,P|446:74|415:71,1,75
375,140,114192,2,0,P|325:145|306:164,1,75
358,270,114525,5,0,0:0:0:0:
304,376,114692,1,0,0:0:0:0:
219,279,114859,2,0,L|143:115,1,150
155,142,115359,1,0,0:0:0:0:
155,142,115525,1,0,0:0:0:0:
38,170,115692,2,0,P|24:194|39:253,1,75
113,324,116025,1,0,0:0:0:0:
222,273,116192,6,0,P|261:233|373:267,1,150
309,353,116692,2,0,L|265:183,1,150
254,134,117192,5,0,0:0:0:0:
307,34,117359,1,0,0:0:0:0:
405,88,117525,1,0,0:0:0:0:
349,185,117692,1,0,0:0:0:0:
307,321,117859,6,0,P|281:330|219:306,1,75
112,234,118192,5,0,0:0:0:0:
126,245,118525,1,0,0:0:0:0:
144,230,118859,1,0,0:0:0:0:
190,249,119192,1,0,0:0:0:0:
238,234,119525,1,0,0:0:0:0:
370,111,119859,5,0,0:0:0:0:
370,111,120025,1,0,0:0:0:0:
415,207,120192,2,0,L|362:271,1,75
367,264,120442,1,0,0:0:0:0:
367,264,120525,1,0,0:0:0:0:
293,181,120859,5,0,0:0:0:0:
256,206,121192,1,0,0:0:0:0:
221,177,121525,1,0,0:0:0:0:
177,188,121859,1,0,0:0:0:0:
313,241,122192,5,0,0:0:0:0:
313,241,122359,1,0,0:0:0:0:
182,276,122525,6,0,P|169:250|192:193,1,75
264,132,122859,1,0,0:0:0:0:
309,237,123025,1,0,0:0:0:0:
309,237,123109,1,0,0:0:0:0:
309,237,123192,6,0,P|352:253|456:231,1,150
408,105,123692,1,0,0:0:0:0:
279,64,123859,2,0,P|241:46|130:76,1,150
139,67,124359,1,0,0:0:0:0:
125,232,124525,6,0,P|139:275|178:292,1,75
267,202,124859,1,0,0:0:0:0:
408,271,125192,2,0,L|441:341,2,75
226,70,125859,6,0,P|178:64|138:98,1,75
143,195,126192,2,0,L|138:257,2,50
367,170,126525,2,0,L|370:106,2,50
257,288,126859,1,0,0:0:0:0:
257,288,126942,1,0,0:0:0:0:
257,288,127025,1,0,0:0:0:0:
367,170,127192,5,0,0:0:0:0:
143,195,127359,1,0,0:0:0:0:
306,47,127859,5,0,0:0:0:0:
306,47,128192,2,0,P|316:71|295:133,1,75
143,195,128525,6,0,P|126:237|217:290,1,150
266,210,129025,1,0,0:0:0:0:
366,261,129192,2,0,P|386:241|389:190,1,75
441,66,129525,2,0,L|480:156,1,75
344,82,129859,6,0,P|293:66|180:95,1,150
199,82,130359,1,0,0:0:0:0:
233,303,130525,5,0,0:0:0:0:
86,131,130692,1,0,0:0:0:0:
308,165,130859,1,0,0:0:0:0:
98,244,131025,1,0,0:0:0:0:
199,82,131192,6,0,P|232:59|290:71,2,75
174,153,131692,2,0,P|170:193|130:219,2,75
248,140,132192,2,0,P|253:158|306:187,1,75
251,322,132525,5,0,0:0:0:0:
287,99,132692,1,0,0:0:0:0:
158,284,132859,1,0,0:0:0:0:
365,199,133025,1,0,0:0:0:0:
142,124,133192,6,0,P|111:153|108:192,2,75
142,124,133692,1,0,0:0:0:0:
392,57,133859,6,0,P|417:73|428:118,1,75
381,335,134192,2,0,P|360:312|359:254,1,75
220,70,134525,6,0,P|200:62|132:88,1,75
29,264,134859,2,0,P|65:272|114:254,1,75
324,290,135192,6,0,P|336:322|319:375,2,75
225,275,135692,2,0,P|209:248|232:182,1,75
262,63,136025,5,0,0:0:0:0:
404,15,136192,1,0,0:0:0:0:
488,139,136359,1,0,0:0:0:0:
280,123,136525,6,0,P|233:100|124:137,1,150
141,120,137025,1,0,0:0:0:0:
289,289,137192,6,0,P|328:269|441:302,1,150
427,289,137692,1,0,0:0:0:0:
151,231,137859,5,0,0:0:0:0:
367,172,138025,1,0,0:0:0:0:
77,158,138192,5,0,0:0:0:0:
412,240,138359,1,0,0:0:0:0:
74,211,138525,5,0,0:0:0:0:
441,192,138692,1,0,0:0:0:0:
196,135,138859,5,0,0:0:0:0:
190,171,138942,1,0,0:0:0:0:
193,209,139025,1,0,0:0:0:0:
207,244,139109,1,0,0:0:0:0:
225,276,139192,6,0,P|181:295|70:273,1,150
82,280,139692,1,0,0:0:0:0:
145,128,139859,2,0,P|161:172|151:204,2,75
49,55,140359,1,0,0:0:0:0:
33,171,140525,6,0,L|187:170,1,150
182,170,141025,1,0,0:0:0:0:
425,69,141192,5,0,0:0:0:0:
372,326,141359,1,0,0:0:0:0:
259,90,141525,1,0,0:0:0:0:
485,223,141692,1,0,0:0:0:0:
222,210,141859,6,0,L|190:285,1,75
192,278,142109,1,0,0:0:0:0:
192,278,142192,1,0,0:0:0:0:
92,165,142359,1,0,0:0:0:0:
374,87,142692,1,0,0:0:0:0:
374,87,143025,2,0,B|391:262,1,150
388,236,143525,2,0,L|303:165,1,75
178,75,143859,6,0,P|154:87|146:147,2,75
249,189,144359,1,0,0:0:0:0:
262,324,144525,6,0,P|292:336|341:314,1,75
497,169,144859,2,0,P|451:159|409:187,1,75
234,50,145192,6,0,P|221:84|241:134,1,75
331,323,145525,2,0,P|339:279|328:251,1,75
182,131,145859,5,0,0:0:0:0:
189,317,146025,1,0,0:0:0:0:
361,241,146192,2,0,P|437:233|448:152,1,150
310,131,146692,5,0,0:0:0:0:
198,29,146859,1,0,0:0:0:0:
80,121,147025,1,0,0:0:0:0:
303,229,147192,6,0,P|361:208|448:232,1,150
444,229,147692,1,0,0:0:0:0:
203,142,147859,6,0,P|150:126|54:148,1,150
59,144,148359,1,0,0:0:0:0:
341,169,148525,5,0,0:0:0:0:
124,231,148692,1,0,0:0:0:0:
383,272,148859,5,0,0:0:0:0:
97,142,149025,1,0,0:0:0:0:
411,200,149192,5,0,0:0:0:0:
65,201,149359,1,0,0:0:0:0:
411,200,149525,2,0,P|419:241|401:278,1,75
195,293,149859,6,0,P|127:294|117:226,1,150
191,130,150359,1,0,0:0:0:0:
298,77,150525,2,0,L|308:170,1,75
426,166,150859,2,0,L|392:244,1,75
308,317,151192,6,0,P|282:324|226:311,2,75
306,196,151692,1,0,0:0:0:0:
247,91,151859,2,0,P|191:90|168:110,1,75
134,212,152192,2,0,P|197:203|212:187,1,75
97,140,152525,6,0,L|134:301,1,150
130,286,153025,1,0,0:0:0:0:
246,316,153192,2,0,P|286:342|317:339,2,75
321,222,153692,1,0,0:0:0:0:
363,109,153859,6,0,P|323:71|226:89,1,150
234,81,154359,1,0,0:0:0:0:
203,196,154525,2,0,L|143:141,2,75
161,308,155025,1,0,0:0:0:0:
63,238,155192,6,0,P|71:160|77:153,1,75
66,166,155442,1,0,0:0:0:0:
66,166,155525,1,0,0:0:0:0:
174,114,155692,2,0,P|225:100|258:112,1,75
245,105,156025,1,0,0:0:0:0:
292,231,156192,6,0,P|287:303|375:293,1,150
401,191,156692,2,0,B|416:233|416:233|474:129,1,150
467,140,157109,1,0,0:0:0:0:
467,140,157192,5,0,0:0:0:0:
398,50,157359,1,0,0:0:0:0:
343,26,157525,1,0,0:0:0:0:
267,30,157692,1,0,0:0:0:0:
193,82,157859,1,0,0:0:0:0:
133,286,158192,6,0,P|93:318|69:321,2,75
124,173,158692,1,0,0:0:0:0:
193,82,158859,2,0,P|226:112|227:151,1,75
230,253,159192,6,0,B|280:262|331:217|331:217|338:285,1,150
334,255,159692,1,0,0:0:0:0:
443,282,159859,2,0,P|471:270|486:215,2,75
404,176,160359,1,0,0:0:0:0:
340,83,160525,6,0,P|310:73|264:86,1,75
200,173,160859,2,0,P|175:164|119:182,1,75
212,249,161192,2,0,P|247:237|299:260,1,75
232,346,161525,1,0,0:0:0:0:
232,346,161692,1,0,0:0:0:0:
232,346,161859,6,0,B|191:307|133:329|133:329|110:285,1,150
140,181,162359,1,0,0:0:0:0:
241,132,162525,2,0,P|286:137|314:186,1,75
410,256,162859,2,0,P|406:303|420:337,1,75
415,328,163192,6,0,P|454:300|448:188,1,150
379,140,163692,1,0,0:0:0:0:
266,134,163859,2,0,L|250:56,2,75
286,244,164359,1,0,0:0:0:0:
192,306,164525,2,0,P|158:311|109:292,1,75
82,192,164859,2,0,P|131:187|160:203,1,75
192,306,165192,1,0,0:0:0:0:
228,103,165525,6,0,P|257:93|305:113,1,75
281,210,165859,2,0,B|336:197|375:244|375:244|392:203,1,150
435,99,166359,1,0,0:0:0:0:
483,199,166525,2,0,L|475:285,1,75
405,362,166859,2,0,P|376:360|338:330,1,75
331,220,167192,6,0,P|318:185|259:162,2,75
242,289,167692,1,0,0:0:0:0:
191,188,167859,2,0,P|163:186|112:224,1,75
138,323,168192,2,0,L|102:347,3,37.5
68,303,168525,6,0,B|40:249|86:202|86:202|50:153,1,150
90,61,169025,1,0,0:0:0:0:
190,113,169192,2,0,P|240:99|261:74,1,75
401,138,169525,2,0,L|444:207,1,75
441,315,169859,6,0,B|373:340|343:273|343:273|319:291,1,150
243,207,170359,1,0,0:0:0:0:
187,109,170525,2,0,L|113:141,2,75
293,71,171025,1,0,0:0:0:0:
395,116,171192,6,0,P|420:149|425:187,1,75
400,300,171525,2,0,P|382:283|372:232,1,75
291,157,171859,2,0,P|260:149|210:173,1,75
139,207,172192,5,0,0:0:0:0:
139,207,172359,1,0,0:0:0:0:
139,207,172525,2,0,B|164:254|146:317|146:317|188:336,1,150
242,238,173025,1,0,0:0:0:0:
291,157,173192,2,0,L|334:227,1,75
397,311,173525,1,0,0:0:0:0:
471,226,173692,1,0,0:0:0:0:
471,226,173775,1,0,0:0:0:0:
471,226,173859,6,0,B|388:98,1,150
295,37,174359,1,0,0:0:0:0:
213,113,174525,2,0,P|189:158|139:179,1,75
101,80,174859,2,0,P|56:57|28:61,1,75
56,169,175192,2,0,P|42:215|90:303,2,150
263,81,176192,5,0,0:0:0:0:
263,81,176359,1,0,0:0:0:0:
263,81,176525,2,0,P|284:131|391:127,1,150
361,30,177025,1,0,0:0:0:0:
467,68,177192,2,0,P|496:121|467:217,1,150
160,161,177859,5,0,0:0:0:0:
375,222,178025,1,0,0:0:0:0:
104,227,178192,1,0,0:0:0:0:
409,149,178359,1,0,0:0:0:0:
197,44,178692,5,0,0:0:0:0:
290,345,178859,1,0,0:0:0:0:
388,47,179025,1,0,0:0:0:0:
134,235,179192,1,0,0:0:0:0:
256,192,179275,12,0,181192,0:0:0:0:
123,71,181859,5,0,0:0:0:0:
430,170,183192,1,0,0:0:0:0:
98,201,184525,5,0,0:0:0:0:
435,190,185192,1,0,0:0:0:0:
114,84,185859,1,0,0:0:0:0:
336,313,186525,5,0,0:0:0:0:
336,313,186859,2,0,P|337:269|324:240,1,56.2500021457673
186,183,187192,6,0,P|157:153|78:163,2,112.500004291535
232,285,188192,1,0,0:0:0:0:
344,290,188525,6,0,B|374:316|375:369|375:369|406:232,1,225.000008583069
383,152,189359,1,0,0:0:0:0:
383,152,189525,2,0,P|375:118|348:90,1,56.2500021457673
173,58,189859,5,0,0:0:0:0:
172,282,190025,1,0,0:0:0:0:
284,86,190192,1,0,0:0:0:0:
100,216,190359,5,0,0:0:0:0:
320,173,190525,1,0,0:0:0:0:
106,111,190692,1,0,0:0:0:0:
331,101,190859,5,0,0:0:0:0:
118,170,191025,1,0,0:0:0:0:
331,242,191192,1,0,0:0:0:0:
182,72,191359,5,0,0:0:0:0:
154,294,191525,1,0,0:0:0:0:
348,179,191692,1,0,0:0:0:0:
348,179,191859,2,0,L|361:228,10,37.5
355,89,192525,6,0,P|421:104|422:205,1,150,0|8,0:0|0:0,0:0:0:0:
372,267,193025,1,0,0:0:0:0:
280,201,193192,2,0,L|276:281,1,75
173,321,193525,2,0,L|171:237,1,75,8|0,0:0|0:0,0:0:0:0:
170,132,193859,6,0,P|130:98|75:184,1,150,0|8,0:0|0:0,0:0:0:0:
64,149,194359,1,0,0:0:0:0:
307,33,194525,5,0,0:0:0:0:
219,288,194692,1,0,0:0:0:0:
430,119,194859,1,8,0:0:0:0:
165,169,195025,1,0,0:0:0:0:
385,214,195192,6,0,P|380:263|404:287,2,75,0|0|8,0:0|0:0|0:0,0:0:0:0:
366,141,195692,2,0,P|371:119|428:81,2,75
319,199,196192,2,0,P|291:220|246:215,1,75,8|0,0:0|0:0,0:0:0:0:
77,76,196525,5,0,0:0:0:0:
172,280,196692,1,0,0:0:0:0:
206,57,196859,1,8,0:0:0:0:
61,228,197025,1,0,0:0:0:0:
267,137,197192,6,0,P|312:112|321:88,2,75,0|0|8,0:0|0:0|0:0,0:0:0:0:
267,137,197692,1,0,0:0:0:0:
268,255,197859,6,0,P|249:305|271:345,1,75,4|0,0:0|0:0,0:0:0:0:
398,149,198192,2,0,P|417:112|405:56,1,75,8|0,0:0|0:0,0:0:0:0:
184,83,198525,6,0,P|163:74|110:84,1,75,2|0,0:0|0:0,0:0:0:0:
302,195,198859,2,0,P|337:205|372:192,1,75,8|0,0:0|0:0,0:0:0:0:
376,41,199192,2,0,P|405:29|450:45,2,75,2|0|8,0:0|0:0|0:0,0:0:0:0:
410,127,199692,2,0,L|400:210,1,75,0|2,0:0|0:0,0:0:0:0:
253,231,200025,5,0,0:0:0:0:
166,107,200192,1,8,0:0:0:0:
42,192,200359,1,0,0:0:0:0:
335,176,200525,6,0,P|392:154|475:178,1,150,2|8,0:0|0:0,0:0:0:0:
474,177,201025,1,0,0:0:0:0:
219,110,201192,6,0,P|164:87|69:129,1,150,2|8,0:0|0:0,0:0:0:0:
81,114,201692,1,0,0:0:0:0:
395,149,201859,5,2,0:0:0:0:
135,219,202025,1,0,0:0:0:0:
431,233,202192,5,2,0:0:0:0:
95,149,202359,1,0,0:0:0:0:
467,167,202525,5,2,0:0:0:0:
57,214,202692,1,0,0:0:0:0:
308,108,202859,1,0,0:0:0:0:
298,144,202942,1,0,0:0:0:0:
296,181,203025,1,0,0:0:0:0:
302,218,203109,1,0,0:0:0:0:
321,250,203192,6,0,P|371:236|486:262,1,150,0|8,0:0|0:0,0:0:0:0:
466,251,203692,1,0,0:0:0:0:
329,72,203859,2,0,P|296:63|249:78,1,75,2|0,0:0|0:0,0:0:0:0:
165,278,204192,1,8,0:0:0:0:
130,55,204359,1,0,0:0:0:0:
322,169,204525,6,0,P|340:222|248:255,1,150,2|8,0:0|0:0,0:0:0:0:
413,80,205025,1,0,0:0:0:0:
417,305,205192,2,0,P|440:336|490:345,2,75,2|0|8,0:0|0:0|0:0,0:0:0:0:
315,194,205692,1,0,0:0:0:0:
171,148,205859,6,0,P|148:164|137:216,1,75,4|0,0:0|0:0,0:0:0:0:
135,207,206109,1,0,0:0:0:0:
135,207,206192,1,0,0:0:0:0:
250,303,206359,1,2,0:0:0:0:
415,53,206692,1,2,0:0:0:0:
415,53,207025,2,0,L|407:213,1,150,4|0,0:0|0:0,0:0:0:0:
407,202,207525,2,0,L|316:161,1,75,8|0,0:0|0:0,0:0:0:0:
127,98,207859,6,0,P|96:111|88:158,2,75,2|0|8,0:0|0:0|0:0,0:0:0:0:
159,205,208359,1,0,0:0:0:0:
251,163,208525,6,0,P|246:110|260:78,1,75,4|0,0:0|0:0,0:0:0:0:
450,202,208859,2,0,P|459:246|441:283,1,75,8|0,0:0|0:0,0:0:0:0:
352,69,209192,6,0,P|400:60|430:73,1,75,2|0,0:0|0:0,0:0:0:0:
274,237,209525,2,0,P|247:244|180:224,1,75,8|0,0:0|0:0,0:0:0:0:
85,41,209859,5,2,0:0:0:0:
299,105,210025,1,0,0:0:0:0:
93,198,210192,2,0,P|81:248|169:281,1,150,8|2,0:0|0:0,0:0:0:0:
192,141,210692,5,0,0:0:0:0:
331,84,210859,1,8,0:0:0:0:
427,198,211025,1,0,0:0:0:0:
158,208,211192,6,0,P|111:193|5:217,1,150,2|8,0:0|0:0,0:0:0:0:
14,211,211692,1,0,0:0:0:0:
226,134,211859,6,0,P|271:113|381:141,1,150,2|8,0:0|0:0,0:0:0:0:
366,130,212359,1,0,0:0:0:0:
144,157,212525,5,2,0:0:0:0:
339,269,212692,1,0,0:0:0:0:
103,251,212859,5,2,0:0:0:0:
405,169,213025,1,0,0:0:0:0:
65,190,213192,5,2,0:0:0:0:
435,223,213359,1,0,0:0:0:0:
65,190,213525,2,0,P|96:199|144:183,1,75,2|0,0:0|0:0,0:0:0:0:
126,47,213859,6,0,P|181:28|252:84,1,150
250,78,214359,1,0,0:0:0:0:
297,179,214525,2,0,L|224:225,1,75
265,327,214859,2,0,L|172:336,1,75
23,245,215192,6,0,P|7:195|21:150,2,75
115,157,215692,1,0,0:0:0:0:
169,58,215859,2,0,P|212:42|243:49,1,75
350,28,216192,2,0,P|388:55|395:85,1,75
299,153,216525,6,0,P|282:195|381:213,1,150
440,149,217025,1,0,0:0:0:0:
477,263,217192,2,0,P|496:310|491:340,2,75
357,237,217692,1,0,0:0:0:0:
317,123,217859,6,0,P|246:106|201:187,1,150
292,236,218359,1,0,0:0:0:0:
292,236,218525,6,0,L|253:320,1,75
141,210,218859,1,0,0:0:0:0:
284,169,219025,1,0,0:0:0:0:
284,169,219109,1,0,0:0:0:0:
284,169,219192,6,0,P|262:226|293:320,1,150
423,253,219692,2,0,P|474:258|500:159,1,150
411,50,220192,1,0,0:0:0:0:
298,44,220359,2,0,P|249:53|208:146,2,150
331,151,221192,5,0,0:0:0:0:
228,351,221359,1,0,0:0:0:0:
77,184,221525,1,0,0:0:0:0:
184,218,221859,2,0,B|243:266|302:214|302:214|325:296|405:291,1,262.5
396,291,223192,5,0,0:0:0:0:
396,291,223525,2,0,P|406:248|399:205,1,75,8|0,0:0|0:0,0:0:0:0:
377,107,223859,1,0,0:0:0:0:
296,185,224025,1,0,0:0:0:0:
258,78,224192,1,8,0:0:0:0:
147,57,224359,6,0,P|117:96|170:177,1,150
273,177,224859,2,0,P|303:219|295:252,1,75,8|0,0:0|0:0,0:0:0:0:
75,237,225359,1,0,0:0:0:0:
41,344,225525,1,8,0:0:0:0:
151,320,225692,1,0,0:0:0:0:
202,108,225859,5,0,0:0:0:0:
202,108,226192,2,0,P|272:80|336:144,1,150,8|0,0:0|0:0,0:0:0:0:
399,251,226692,1,0,0:0:0:0:
270,329,226859,1,8,0:0:0:0:
223,187,227025,6,0,P|239:139|332:125,1,150
399,251,227525,1,8,0:0:0:0:
270,329,227692,2,0,P|226:294|139:326,1,150
143,320,228192,1,8,0:0:0:0:
86,172,228359,1,0,0:0:0:0:
86,172,228442,1,0,0:0:0:0:
86,172,228525,6,0,P|82:121|173:98,1,150,0|8,0:0|0:0,0:0:0:0:
228,226,229025,1,0,0:0:0:0:
331,117,229192,1,0,0:0:0:0:
385,257,229359,1,0,0:0:0:0:
385,257,229525,1,8,0:0:0:0:
385,257,229692,2,0,P|420:237|480:317,1,150
372,320,230192,2,0,P|334:298|327:263,1,75,8|0,0:0|0:0,0:0:0:0:
375,79,230692,1,0,0:0:0:0:
401,188,230859,1,8,0:0:0:0:
293,155,231025,1,0,0:0:0:0:
94,74,231192,5,0,0:0:0:0:
94,74,231525,2,0,L|83:169,2,75,8|0|0,0:0|0:0|0:0,0:0:0:0:
243,54,232025,1,0,0:0:0:0:
197,197,232192,1,8,0:0:0:0:
347,205,232359,6,0,L|450:78,1,150
441,88,232859,1,8,0:0:0:0:
152,58,233025,5,0,0:0:0:0:
203,323,233359,1,0,0:0:0:0:
83,261,233525,1,8,0:0:0:0:
177,164,233692,6,0,L|315:268,1,150
296,254,234192,1,8,0:0:0:0:
376,64,234359,5,0,0:0:0:0:
127,230,234692,1,0,0:0:0:0:
147,81,234859,1,8,0:0:0:0:
297,192,235025,6,0,L|453:192,1,150
447,191,235525,5,8,0:0:0:0:
197,272,235692,1,0,0:0:0:0:
447,191,235859,1,0,0:0:0:0:
148,179,236025,1,0,0:0:0:0:
462,304,236192,1,8,0:0:0:0:
152,90,236359,1,4,0:0:0:0:
256,192,236525,12,0,239192,0:0:0:0:
