osu file format v14

[General]
AudioFilename: audio.mp3
AudioLeadIn: 0
PreviewTime: 42556
Countdown: 0
SampleSet: Normal
StackLeniency: 0.7
Mode: 1
LetterboxInBreaks: 0
WidescreenStoryboard: 1

[Editor]
DistanceSpacing: 1
BeatDivisor: 4
GridSize: 32
TimelineZoom: 2.4

[Metadata]
Title:ALIVE (TV Size)
TitleUnicode:ALIVE (TV Size)
Artist:ClariS
ArtistUnicode:ClariS
Creator:Yui Funami
Version:Oni
Source:リコリス・リコイル
Tags:リコリコ rikoriko lycoris recoil lyco reco lycoreco anime opening op theme japanese pop jpop j-pop female vocals e_s_i_a [-e_s_i_a-] esia [-esia-] qoot8123 clara karen
BeatmapID:3764839
BeatmapSetID:1807947

[Difficulty]
HPDrainRate:5
CircleSize:2
OverallDifficulty:6
ApproachRate:10
SliderMultiplier:1.4
SliderTickRate:1

[Events]
//Background and Video events
Video,0,"output.mp4"
0,0,"1262293.jpg",0,30
//Break Periods
//Storyboard Layer 0 (Background)
//Storyboard Layer 1 (Fail)
//Storyboard Layer 2 (Pass)
//Storyboard Layer 3 (Foreground)
//Storyboard Layer 4 (Overlay)
//Storyboard Sound Samples

[TimingPoints]
536,341.880341880341,4,1,0,50,1,0
536,-98.0392156862745,4,1,0,50,0,0
1903,-98.0392156862745,4,1,0,60,0,0
5835,-99.009900990099,4,1,0,70,0,0
6006,329.67032967033,4,1,0,70,1,0
6006,-102.040816326531,4,1,0,70,0,0
7324,342.857142857143,4,1,0,80,1,0
7324,-97.2222222222222,4,1,0,80,0,0
8352,307.692307692308,4,1,0,80,1,8
8352,-108.333333333333,4,1,0,80,0,8
8659,333.333333333333,4,1,0,80,1,0
8659,-100,4,1,0,80,0,0
19325,344.827586206897,4,1,0,70,1,0
19325,-96.6666666666665,4,1,0,70,0,0
30359,342.857142857143,4,1,0,75,1,0
30359,-97.2222222222222,4,1,0,75,0,0
33101,337.078651685393,4,1,0,75,1,0
33101,-98.8888888888889,4,1,0,75,0,0
35460,355.029585798817,4,1,0,75,1,0
35460,-93.4579439252336,4,1,0,75,0,0
35815,337.078651685393,4,1,0,70,1,8
35815,-98.8888888888889,4,1,0,70,0,8
42556,-99.009900990099,4,1,0,80,0,0
43230,363.636363636364,4,1,0,80,1,8
43230,-91.6666666666666,4,1,0,80,0,8
43411,315.789473684211,4,1,0,80,1,8
43411,-105.555555555555,4,1,0,80,0,8
43884,333.333333333333,4,1,0,90,1,1
43884,-100,4,1,0,90,0,1
53883,-100,4,1,0,90,0,0
54550,-100,4,1,0,90,0,1
65217,-100,4,1,0,70,0,0
70550,-100,4,1,0,90,0,0
78550,-100,4,1,0,80,0,0
83883,-100,4,1,0,70,0,0
84217,-100,4,1,0,65,0,0
84550,-100,4,1,0,60,0,0
84883,-100,4,1,0,55,0,0
85217,-100,4,1,0,50,0,0
85550,-100,4,1,0,45,0,0
85883,-100,4,1,0,40,0,0
86217,-100,4,1,0,35,0,0
86550,-100,4,1,0,30,0,0
86883,-100,4,1,0,25,0,0
87217,-100,4,1,0,20,0,0
87550,-100,4,1,0,15,0,0
87883,-100,4,1,0,10,0,0

[HitObjects]
256,192,536,5,8,0:0:0:0:
256,192,706,1,0,0:0:0:0:
256,192,877,1,8,0:0:0:0:
256,192,1048,1,0,0:0:0:0:
256,192,1390,1,8,0:0:0:0:
256,192,1561,1,8,0:0:0:0:
256,192,1732,1,0,0:0:0:0:
237,191,2245,1,8,0:0:0:0:
235,188,2587,1,0,0:0:0:0:
225,193,2929,1,8,0:0:0:0:
256,192,3271,1,8,0:0:0:0:
298,198,3441,1,0,0:0:0:0:
256,192,3612,1,8,0:0:0:0:
256,192,3954,1,0,0:0:0:0:
256,192,4296,1,8,0:0:0:0:
216,185,4467,1,8,0:0:0:0:
256,192,4638,1,0,0:0:0:0:
256,192,4809,1,8,0:0:0:0:
256,192,5151,1,0,0:0:0:0:
256,192,5835,1,8,0:0:0:0:
256,192,6006,1,0,0:0:0:0:
263,182,6170,1,0,0:0:0:0:
256,192,6335,1,0,0:0:0:0:
256,192,6500,1,8,0:0:0:0:
256,192,6830,1,0,0:0:0:0:
234,182,6912,1,0,0:0:0:0:
256,192,6995,1,0,0:0:0:0:
230,216,7077,1,0,0:0:0:0:
256,192,7159,1,12,0:0:0:0:
256,192,8659,1,12,0:0:0:0:
318,223,8825,1,0,0:0:0:0:
256,192,8992,1,8,0:0:0:0:
318,223,9159,1,0,0:0:0:0:
256,192,9242,1,8,0:0:0:0:
256,192,9325,1,0,0:0:0:0:
256,192,9492,1,0,0:0:0:0:
232,180,9658,1,8,0:0:0:0:
253,209,9825,1,0,0:0:0:0:
218,206,9908,1,0,0:0:0:0:
256,192,9992,1,8,0:0:0:0:
206,241,10158,1,0,0:0:0:0:
256,192,10325,1,8,0:0:0:0:
185,194,10492,1,0,0:0:0:0:
256,192,10825,5,0,0:0:0:0:
256,192,10992,1,8,0:0:0:0:
221,190,11075,1,0,0:0:0:0:
256,192,11158,5,0,0:0:0:0:
231,178,11242,1,0,0:0:0:0:
256,192,11325,5,8,0:0:0:0:
235,173,11492,1,0,0:0:0:0:
256,192,11658,1,8,0:0:0:0:
230,168,11825,1,8,0:0:0:0:
231,178,11908,1,8,0:0:0:0:
256,192,11992,1,0,0:0:0:0:
256,192,12158,1,0,0:0:0:0:
256,192,12325,1,8,0:0:0:0:
195,227,12492,1,0,0:0:0:0:
256,192,12658,1,0,0:0:0:0:
256,192,12825,1,8,0:0:0:0:
321,191,12908,1,0,0:0:0:0:
256,192,12992,1,8,0:0:0:0:
256,192,13158,1,0,0:0:0:0:
256,192,13492,1,0,0:0:0:0:
256,192,13658,5,8,0:0:0:0:
256,192,13742,5,0,0:0:0:0:
256,192,13825,5,0,0:0:0:0:
222,182,13908,1,0,0:0:0:0:
256,192,13992,1,12,0:0:0:0:
186,189,14158,1,0,0:0:0:0:
256,192,14325,1,8,0:0:0:0:
249,193,14492,1,0,0:0:0:0:
256,192,14658,1,8,0:0:0:0:
256,192,14742,1,0,0:0:0:0:
256,192,14825,1,0,0:0:0:0:
256,192,14992,1,8,0:0:0:0:
242,198,15158,1,0,0:0:0:0:
256,192,15325,1,8,0:0:0:0:
256,192,15492,5,0,0:0:0:0:
230,178,15575,1,0,0:0:0:0:
256,192,15659,5,8,0:0:0:0:
256,192,15825,5,8,0:0:0:0:
222,184,16158,1,8,0:0:0:0:
256,192,16325,5,0,0:0:0:0:
221,193,16408,1,0,0:0:0:0:
256,192,16492,5,8,0:0:0:0:
256,192,16658,5,0,0:0:0:0:
272,178,16825,1,0,0:0:0:0:
256,192,16992,1,8,0:0:0:0:
311,234,17158,1,8,0:0:0:0:
269,169,17242,1,8,0:0:0:0:
256,192,17325,1,0,0:0:0:0:
256,192,17492,1,0,0:0:0:0:
256,192,17658,1,8,0:0:0:0:
256,192,17825,1,0,0:0:0:0:
256,192,17992,1,8,0:0:0:0:
237,205,18158,1,8,0:0:0:0:
256,192,18325,5,0,0:0:0:0:
256,192,18492,1,8,0:0:0:0:
256,192,18575,5,8,0:0:0:0:
256,192,18658,5,0,0:0:0:0:
253,158,18742,1,8,0:0:0:0:
256,192,18825,5,0,0:0:0:0:
256,192,18992,5,8,0:0:0:0:
256,192,19325,5,8,0:0:0:0:
256,192,19497,1,0,0:0:0:0:
239,189,19583,1,0,0:0:0:0:
256,192,19669,1,8,0:0:0:0:
256,192,19842,1,8,0:0:0:0:
256,192,20014,1,0,0:0:0:0:
266,206,20187,1,8,0:0:0:0:
224,173,20273,1,8,0:0:0:0:
256,192,20359,1,8,0:0:0:0:
226,177,20531,1,0,0:0:0:0:
256,192,20704,1,8,0:0:0:0:
369,240,21049,1,0,0:0:0:0:
256,192,21221,1,8,0:0:0:0:
221,186,21307,1,8,0:0:0:0:
256,192,21393,1,8,0:0:0:0:
256,192,21566,1,0,0:0:0:0:
256,192,21738,1,8,0:0:0:0:
215,185,21911,1,0,0:0:0:0:
256,192,22083,1,8,0:0:0:0:
208,187,22169,1,8,0:0:0:0:
250,186,22256,1,0,0:0:0:0:
256,192,22428,1,8,0:0:0:0:
234,185,22600,1,0,0:0:0:0:
256,192,22773,1,8,0:0:0:0:
223,196,23118,1,8,0:0:0:0:
256,192,23290,1,0,0:0:0:0:
256,192,23462,1,8,0:0:0:0:
256,192,23549,1,8,0:0:0:0:
256,192,23635,1,8,0:0:0:0:
256,192,23807,1,0,0:0:0:0:
256,192,23980,1,0,0:0:0:0:
229,208,24066,1,0,0:0:0:0:
256,192,24152,1,8,0:0:0:0:
193,198,24325,1,0,0:0:0:0:
256,192,24497,1,8,0:0:0:0:
256,192,24842,1,12,0:0:0:0:
256,192,25014,1,0,0:0:0:0:
274,239,25100,1,0,0:0:0:0:
256,192,25187,1,8,0:0:0:0:
256,192,25359,1,8,0:0:0:0:
256,192,25531,1,0,0:0:0:0:
222,191,25704,1,8,0:0:0:0:
256,192,25790,1,0,0:0:0:0:
256,192,25876,1,0,0:0:0:0:
201,223,26049,1,0,0:0:0:0:
256,192,26221,1,8,0:0:0:0:
300,207,26566,1,0,0:0:0:0:
256,192,26738,1,0,0:0:0:0:
284,208,26825,1,0,0:0:0:0:
256,192,26911,1,8,0:0:0:0:
256,192,27083,1,0,0:0:0:0:
256,192,27256,1,8,0:0:0:0:
221,193,27342,1,8,0:0:0:0:
253,204,27428,5,8,0:0:0:0:
256,192,27600,5,0,0:0:0:0:
207,182,27773,1,0,0:0:0:0:
256,192,27945,1,8,0:0:0:0:
221,193,28031,1,8,0:0:0:0:
230,201,28118,1,0,0:0:0:0:
256,192,28290,1,8,0:0:0:0:
256,192,28635,1,0,0:0:0:0:
327,210,28721,1,0,0:0:0:0:
256,192,28807,1,8,0:0:0:0:
256,192,28980,5,0,0:0:0:0:
197,214,29152,1,0,0:0:0:0:
266,198,29325,1,0,0:0:0:0:
256,192,29497,1,8,0:0:0:0:
233,214,29583,1,8,0:0:0:0:
256,192,29669,1,8,0:0:0:0:
256,192,29842,1,0,0:0:0:0:
256,192,30014,1,8,0:0:0:0:
256,192,30359,5,4,0:0:0:0:
256,192,30701,1,8,0:0:0:0:
256,192,30873,1,0,0:0:0:0:
395,204,31216,1,0,0:0:0:0:
256,192,31387,1,8,0:0:0:0:
230,169,31559,1,0,0:0:0:0:
256,192,31730,5,8,0:0:0:0:
185,179,31901,1,0,0:0:0:0:
256,192,32073,1,0,0:0:0:0:
256,192,32244,1,0,0:0:0:0:
256,192,32416,1,12,0:0:0:0:
171,181,32587,1,0,0:0:0:0:
256,192,32759,5,12,0:0:0:0:
256,192,33101,1,4,0:0:0:0:
116,178,33438,1,8,0:0:0:0:
256,192,33606,1,0,0:0:0:0:
392,223,33943,1,0,0:0:0:0:
256,192,34112,1,8,0:0:0:0:
291,252,34280,1,0,0:0:0:0:
256,192,34449,1,0,0:0:0:0:
256,192,34617,1,8,0:0:0:0:
256,192,34786,1,0,0:0:0:0:
245,189,34954,1,0,0:0:0:0:
256,192,35123,1,12,0:0:0:0:
186,204,35292,1,0,0:0:0:0:
256,192,35460,5,4,0:0:0:0:
256,192,35815,1,12,0:0:0:0:
256,192,36152,1,0,0:0:0:0:
256,192,36320,1,8,0:0:0:0:
277,219,36404,1,0,0:0:0:0:
256,192,36489,1,0,0:0:0:0:
256,192,36657,1,0,0:0:0:0:
256,192,36826,1,8,0:0:0:0:
218,162,36994,1,0,0:0:0:0:
198,191,37079,1,0,0:0:0:0:
256,192,37163,1,8,0:0:0:0:
256,192,37331,1,8,0:0:0:0:
256,192,37668,1,0,0:0:0:0:
256,192,37837,1,8,0:0:0:0:
256,192,38006,1,0,0:0:0:0:
257,205,38090,1,0,0:0:0:0:
256,192,38174,1,8,0:0:0:0:
256,192,38343,1,8,0:0:0:0:
256,192,38511,1,0,0:0:0:0:
256,192,38848,1,8,0:0:0:0:
256,192,39017,1,0,0:0:0:0:
231,216,39101,1,0,0:0:0:0:
256,192,39185,1,0,0:0:0:0:
241,197,39354,1,0,0:0:0:0:
256,192,39522,1,8,0:0:0:0:
256,192,39691,1,0,0:0:0:0:
241,197,39775,1,0,0:0:0:0:
256,192,39859,1,8,0:0:0:0:
281,257,40028,1,0,0:0:0:0:
256,192,40197,1,0,0:0:0:0:
256,192,40365,1,8,0:0:0:0:
256,192,40449,1,0,0:0:0:0:
196,228,40534,1,8,0:0:0:0:
256,192,40702,1,0,0:0:0:0:
242,192,40786,1,0,0:0:0:0:
256,192,40871,1,8,0:0:0:0:
242,192,40955,1,8,0:0:0:0:
256,192,41039,1,8,0:0:0:0:
256,192,41208,2,0,L|623:190,1,353.932596405804
256,192,42219,1,8,0:0:0:0:
256,192,42303,1,8,0:0:0:0:
256,192,42388,1,0,0:0:0:0:
285,210,42472,1,0,0:0:0:0:
256,192,42556,1,12,0:0:0:0:
256,192,42725,1,12,0:0:0:0:
285,210,43411,1,8,0:0:0:0:
308,235,43489,1,0,0:0:0:0:
285,210,43568,1,8,0:0:0:0:
256,192,43884,5,12,0:0:0:0:
269,165,44050,1,0,0:0:0:0:
256,192,44217,1,0,0:0:0:0:
292,193,44300,1,0,0:0:0:0:
256,192,44384,1,8,0:0:0:0:
256,192,44550,1,0,0:3:0:0:
314,197,44717,1,8,0:0:0:0:
256,192,44884,1,0,0:0:0:0:
259,179,44967,5,8,0:0:0:0:
256,192,45050,1,8,0:0:0:0:
292,193,45217,1,0,0:0:0:0:
256,192,45384,1,8,0:0:0:0:
276,194,45550,1,0,0:0:0:0:
234,186,45717,1,8,0:0:0:0:
214,181,45884,1,0,0:0:0:0:
214,181,46050,1,0,0:0:0:0:
214,181,46217,1,8,0:0:0:0:
256,192,46550,1,8,0:0:0:0:
251,166,46717,1,0,0:0:0:0:
256,192,46884,1,0,0:0:0:0:
256,192,47050,1,8,0:0:0:0:
251,168,47134,1,0,0:0:0:0:
237,174,47217,1,0,0:0:0:0:
256,192,47384,1,8,0:0:0:0:
256,192,47550,1,8,0:0:0:0:
256,192,47717,1,0,0:0:0:0:
207,208,47800,1,8,0:0:0:0:
250,200,47883,1,8,0:0:0:0:
232,229,48050,1,0,0:0:0:0:
256,192,48217,1,0,0:0:0:0:
256,192,48383,1,8,0:0:0:0:
186,204,48550,1,0,0:0:0:0:
256,192,48717,1,8,0:0:0:0:
256,192,48883,1,0,0:0:0:0:
256,192,49050,1,0,0:0:0:0:
248,197,49133,1,0,0:0:0:0:
256,192,49217,5,12,0:0:0:0:
256,192,49550,1,8,0:0:0:0:
196,185,49717,1,0,0:0:0:0:
228,183,49883,1,8,0:0:0:0:
217,188,50050,1,0,0:0:0:0:
256,192,50217,1,0,1:0:0:0:
256,192,50300,1,0,0:0:0:0:
256,192,50383,1,8,0:0:0:0:
256,202,50467,1,0,0:0:0:0:
256,192,50550,5,8,0:0:0:0:
323,172,50717,1,0,0:0:0:0:
256,192,50883,1,0,0:0:0:0:
256,192,51050,1,0,0:0:0:0:
256,192,51133,1,0,0:0:0:0:
256,192,51217,1,8,0:0:0:0:
256,192,51383,1,0,0:0:0:0:
256,192,51550,1,8,0:0:0:0:
210,202,51717,1,0,0:0:0:0:
256,192,51883,1,8,0:0:0:0:
322,315,52217,1,8,0:0:0:0:
256,192,52383,1,0,0:0:0:0:
256,192,52717,1,0,0:0:0:0:
256,192,52883,1,0,0:0:0:0:
203,204,52967,1,8,0:0:0:0:
256,192,53050,1,8,0:0:0:0:
270,212,53217,1,0,0:0:0:0:
256,192,53383,1,8,0:0:0:0:
258,211,53467,1,8,0:0:0:0:
256,192,53550,1,0,0:0:0:0:
256,192,53717,1,8,0:0:0:0:
256,192,53883,1,0,0:0:0:0:
256,192,54050,1,0,0:0:0:0:
242,226,54133,1,0,0:0:0:0:
256,192,54217,1,8,0:0:0:0:
256,192,54300,1,0,0:0:0:0:
256,192,54383,1,8,0:0:0:0:
256,192,54550,1,4,0:0:0:0:
256,192,54883,1,8,0:0:0:0:
256,192,55050,1,0,0:0:0:0:
255,206,55133,1,0,0:0:0:0:
256,192,55217,1,8,0:1:0:0:
248,198,55383,1,0,0:0:0:0:
256,192,55550,1,8,0:0:0:0:
256,192,55717,1,0,0:0:0:0:
227,163,55800,1,8,0:0:0:0:
206,177,55883,1,8,0:0:0:0:
256,192,56050,1,8,0:0:0:0:
227,163,56217,1,0,0:0:0:0:
256,192,56383,1,8,0:0:0:0:
256,192,56717,1,0,0:0:0:0:
256,192,56883,1,8,0:0:0:0:
256,192,57216,1,8,0:0:0:0:
256,192,57550,1,0,0:0:0:0:
256,192,57717,1,8,0:0:0:0:
334,206,57800,1,0,0:0:0:0:
236,189,57883,1,0,0:0:0:0:
256,192,58050,1,0,0:0:0:0:
212,196,58133,1,8,0:0:0:0:
256,192,58217,1,8,0:0:0:0:
256,192,58383,1,0,0:0:0:0:
256,192,58549,1,8,0:0:0:0:
256,192,58883,1,8,0:0:0:0:
320,219,59050,1,0,0:0:0:0:
256,192,59216,1,8,0:0:0:0:
320,219,59300,1,0,0:0:0:0:
256,192,59383,1,8,0:0:0:0:
256,192,59550,1,0,0:0:0:0:
256,192,59717,1,0,0:0:0:0:
256,192,59883,5,12,0:0:0:0:
320,219,60217,1,0,0:0:0:0:
210,186,60550,1,0,0:0:0:0:
256,192,60717,1,0,0:0:0:0:
256,192,60883,1,8,0:0:0:0:
299,195,61050,1,0,0:0:0:0:
210,186,61133,1,0,0:0:0:0:
256,192,61216,5,8,0:0:0:0:
210,186,61300,1,8,0:0:0:0:
256,192,61383,1,0,0:0:0:0:
256,192,61550,1,8,0:0:0:0:
241,260,61717,1,8,0:0:0:0:
256,192,61883,1,0,0:0:0:0:
204,184,62050,1,0,0:0:0:0:
256,192,62133,1,0,0:0:0:0:
256,192,62217,1,8,0:0:0:0:
256,192,62383,1,0,0:0:0:0:
256,192,62549,1,0,0:0:0:0:
152,286,62883,1,8,0:0:0:0:
256,192,63050,1,0,0:0:0:0:
256,192,63383,1,0,0:0:0:0:
256,192,63549,1,8,0:0:0:0:
228,191,63717,1,0,0:0:0:0:
290,197,63800,1,0,0:0:0:0:
256,192,63883,1,8,0:0:0:0:
256,192,64050,1,8,0:0:0:0:
221,168,64133,1,0,0:0:0:0:
256,192,64217,1,8,0:0:0:0:
215,173,64383,1,0,0:0:0:0:
256,192,64550,1,0,0:0:0:0:
207,173,64633,1,0,0:0:0:0:
256,192,64717,1,8,0:0:0:0:
210,173,64800,1,0,0:0:0:0:
256,192,64883,1,8,0:0:0:0:
256,192,65217,1,4,0:0:0:0:
348,297,65550,1,0,0:0:0:0:
256,192,65717,1,8,0:0:0:0:
256,192,66050,1,0,0:0:0:0:
256,192,66217,1,8,0:0:0:0:
256,192,66383,1,0,0:0:0:0:
256,192,66550,1,8,0:0:0:0:
256,192,66717,1,8,0:0:0:0:
202,194,66883,1,0,0:0:0:0:
256,192,67050,1,8,0:0:0:0:
256,192,67216,1,0,0:0:0:0:
256,192,67550,1,8,0:0:0:0:
276,199,67717,1,0,0:0:0:0:
256,192,67883,1,8,0:0:0:0:
256,192,68217,1,0,0:0:0:0:
256,192,68383,1,8,0:0:0:0:
236,221,68467,1,0,0:0:0:0:
201,226,68550,1,0,0:0:0:0:
256,192,68717,1,0,0:0:0:0:
256,192,68883,1,8,0:0:0:0:
256,192,69050,1,0,0:0:0:0:
256,226,69133,1,0,0:0:0:0:
256,192,69217,1,8,0:0:0:0:
256,192,69550,1,0,0:0:0:0:
256,192,69717,1,8,0:0:0:0:
256,192,69883,1,0,0:0:0:0:
256,192,70050,1,0,0:0:0:0:
256,192,70217,1,8,0:0:0:0:
256,192,70383,1,8,0:0:0:0:
256,192,70467,1,8,0:0:0:0:
256,192,70550,1,4,0:0:0:0:
256,192,70883,1,8,0:0:0:0:
256,192,71050,1,0,0:0:0:0:
256,192,71133,1,0,0:0:0:0:
256,192,71217,1,0,0:0:0:0:
234,170,71383,1,0,0:0:0:0:
256,192,71550,1,8,0:0:0:0:
256,192,71883,1,0,0:0:0:0:
256,192,72050,1,8,0:0:0:0:
256,192,72217,1,8,0:0:0:0:
256,192,72383,1,0,0:0:0:0:
256,192,72467,1,0,0:0:0:0:
226,171,72550,1,0,0:0:0:0:
256,192,72717,1,8,0:0:0:0:
256,192,72883,1,8,0:0:0:0:
256,192,73050,1,0,0:0:0:0:
238,221,73133,1,0,0:0:0:0:
256,192,73217,1,8,0:0:0:0:
187,206,73383,1,0,0:0:0:0:
256,192,73550,1,0,0:0:0:0:
256,192,73717,1,8,0:0:0:0:
256,192,74050,1,0,0:0:0:0:
256,192,74217,1,8,0:0:0:0:
256,192,74383,1,0,0:0:0:0:
256,192,74550,1,8,0:0:0:0:
234,186,74633,1,8,0:0:0:0:
256,192,74717,1,8,0:0:0:0:
229,169,74800,1,8,0:0:0:0:
256,192,74883,1,0,0:0:0:0:
256,192,75050,1,0,0:0:0:0:
256,192,75217,1,8,0:0:0:0:
256,192,75300,1,8,0:0:0:0:
256,192,75383,1,0,0:0:0:0:
218,179,75467,1,0,0:0:0:0:
256,192,75550,1,8,0:0:0:0:
256,192,75717,1,0,0:0:0:0:
256,192,75883,1,12,0:0:0:0:
190,191,76717,1,0,0:0:0:0:
256,192,76883,1,0,0:0:0:0:
256,192,77050,1,8,0:0:0:0:
256,192,77217,1,4,0:0:0:0:
289,198,77717,1,0,0:0:0:0:
289,198,77883,1,8,0:0:0:0:
256,192,78050,1,0,0:0:0:0:
256,192,78133,1,0,0:0:0:0:
256,192,78217,1,8,0:0:0:0:
333,191,78383,1,8,0:0:0:0:
256,192,78550,1,4,0:0:0:0:
256,192,78883,1,8,0:0:0:0:
256,192,79050,1,8,0:0:0:0:
256,192,79383,1,0,0:0:0:0:
256,192,79550,1,8,0:0:0:0:
228,209,79717,1,0,0:0:0:0:
256,192,79883,1,8,0:0:0:0:
256,192,80217,1,8,0:0:0:0:
256,192,80383,1,0,0:0:0:0:
261,196,80550,1,0,0:0:0:0:
256,192,80717,1,8,0:0:0:0:
256,192,80883,1,8,0:0:0:0:
256,192,81217,1,12,0:0:0:0:
256,192,81383,1,0,0:0:0:0:
321,205,81467,1,0,0:0:0:0:
256,192,81550,1,8,0:0:0:0:
256,192,81717,1,8,0:0:0:0:
256,192,81883,1,0,0:0:0:0:
288,206,81967,1,0,0:0:0:0:
256,192,82050,1,0,0:0:0:0:
256,192,82217,1,12,0:0:0:0:
256,192,82550,1,8,0:0:0:0:
256,192,82717,1,0,0:0:0:0:
238,218,82800,1,0,0:0:0:0:
256,192,82883,1,8,0:0:0:0:
256,192,83050,1,8,0:0:0:0:
256,192,83217,1,0,0:0:0:0:
256,192,83300,1,0,0:0:0:0:
256,192,83383,1,8,0:0:0:0:
215,183,83467,1,8,0:0:0:0:
256,192,83550,1,8,0:0:0:0:
256,192,83717,1,4,0:0:0:0:
256,192,83883,12,0,88050,0:0:0:0:
