osu file format v14

[General]
AudioFilename: audio.mp3
AudioLeadIn: 0
PreviewTime: 19330
Countdown: 0
SampleSet: Soft
StackLeniency: 0.7
Mode: 3
LetterboxInBreaks: 0
SpecialStyle: 0
WidescreenStoryboard: 1

[Editor]
DistanceSpacing: 5.9
BeatDivisor: 4
GridSize: 16
TimelineZoom: 1.5

[Metadata]
Title:ALIVE (TV Size)
TitleUnicode:ALIVE (TV Size)
Artist:ClariS
ArtistUnicode:ClariS
Creator:Syrion-
Version:7K Hard
Source:リコリス・リコイル
Tags:virtue- ml-ysg antipole doctortetravoid Lycoris Recoil opening op anime theme japanese female vocal pop jpop Shigenaga Ryosuke 重永亮介 ryousuke リコリコ lyco reco lycoreco
BeatmapID:3738788
BeatmapSetID:1803685

[Difficulty]
HPDrainRate:8
CircleSize:7
OverallDifficulty:8
ApproachRate:5
SliderMultiplier:1.4
SliderTickRate:1

[Events]
//Background and Video events
0,0,"bg 2.jpg",0,0
Video,0,"alive.mp4"
//Break Periods
//Storyboard Layer 0 (Background)
//Storyboard Layer 1 (Fail)
//Storyboard Layer 2 (Pass)
//Storyboard Layer 3 (Foreground)
//Storyboard Layer 4 (Overlay)
//Storyboard Sound Samples

[TimingPoints]
554,341.880341880343,4,2,1,60,1,0
554,-97.0873786407767,4,2,1,60,0,0
6024,330.123796423659,4,2,1,60,1,0
6024,-101.010101010101,4,2,1,60,0,0
8664,333.333333333334,4,2,1,60,1,0
19330,344.827586206897,4,2,1,60,1,0
19330,-97.0873786407767,4,2,1,60,0,0
30364,340.909090909091,4,2,1,60,1,0
30364,-98.0392156862745,4,2,1,60,0,0
35818,337.078651685394,4,2,1,60,1,0
35818,-99.009900990099,4,2,1,60,0,0
42559,333.333333333333,4,2,1,60,1,0
43892,-100,4,2,1,60,0,1
65225,-100,4,2,1,60,0,0

[HitObjects]
36,192,554,128,0,724:0:0:0:0:
475,192,554,1,0,0:0:0:0:
182,192,724,128,0,895:0:0:0:0:
329,192,895,128,0,1066:0:0:0:0:
475,192,1066,128,0,1237:0:0:0:0:
109,192,1408,128,0,1579:0:0:0:0:
256,192,1579,128,0,1750:0:0:0:0:
36,192,1750,1,0,0:0:0:0:
402,192,1750,128,0,2263:0:0:0:0:
36,192,2263,128,0,2947:0:0:0:0:
475,192,2605,128,0,3289:0:0:0:0:
329,192,2947,128,0,3289:0:0:0:0:
109,192,3289,1,0,0:0:0:0:
182,192,3289,128,0,3630:0:0:0:0:
36,192,3630,128,0,3972:0:0:0:0:
329,192,3972,128,0,4229:0:0:0:0:
182,192,4229,128,0,4656:0:0:0:0:
475,192,4400,128,0,4656:0:0:0:0:
329,192,4827,128,0,5169:0:0:0:0:
109,192,5169,128,0,5682:0:0:0:0:
256,192,5853,128,0,6189:0:0:0:0:
36,192,6024,1,0,0:0:0:0:
475,192,6024,128,0,6189:0:0:0:0:
182,192,6189,1,0,0:0:0:0:
329,192,6354,1,0,0:0:0:0:
109,192,6354,128,0,6684:0:0:0:0:
402,192,6519,128,0,6684:0:0:0:0:
475,192,6519,1,0,0:0:0:0:
182,192,6684,1,0,0:0:0:0:
36,192,6849,128,2,7509:0:0:0:0:
256,192,6849,1,0,0:0:0:0:
329,192,7014,1,8,0:0:0:0:
402,192,7014,1,0,0:0:0:0:
182,192,7179,128,2,7509:0:0:0:0:
475,192,7179,1,0,0:0:0:35:Hat Open.wav
475,192,7674,128,0,8004:0:0:0:0:
402,192,8004,128,0,8334:0:0:0:0:
109,192,8334,1,0,0:0:0:0:
182,192,8417,1,0,0:0:0:0:
402,192,8499,1,0,0:0:0:0:
329,192,8582,1,0,0:0:0:0:
36,192,8664,128,2,9830:0:0:0:0:
109,192,8664,1,4,0:0:0:0:
256,192,8664,1,0,0:0:0:0:
475,192,8830,1,0,0:0:0:35:Hat Open.wav
256,192,8997,1,2,0:0:0:0:
402,192,8997,1,8,0:0:0:0:
329,192,9164,1,0,0:0:0:35:Hat Open.wav
402,192,9247,1,8,0:0:0:0:
109,192,9330,1,2,0:0:0:0:
475,192,9330,1,0,0:0:0:0:
182,192,9497,1,0,0:0:0:35:Hat Open.wav
256,192,9664,1,8,0:0:0:0:
475,192,9664,1,2,0:0:0:0:
329,192,9830,128,0,11330:0:0:0:35:Hat Open.wav
109,192,9997,1,2,0:0:0:0:
182,192,9997,1,0,0:0:0:0:
256,192,10164,1,0,0:0:0:35:Hat Open.wav
36,192,10330,1,2,0:0:0:0:
475,192,10330,1,8,0:0:0:0:
109,192,10497,1,0,0:0:0:35:Hat Open.wav
182,192,10664,1,2,0:0:0:0:
402,192,10664,1,0,0:0:0:0:
256,192,10830,1,0,0:0:0:35:Hat Open.wav
475,192,10997,1,8,0:0:0:0:
36,192,10997,1,2,0:0:0:0:
109,192,11164,1,0,0:0:0:35:Hat Open.wav
182,192,11330,1,2,0:0:0:0:
402,192,11330,1,0,0:0:0:0:
256,192,11497,1,0,0:0:0:35:Hat Open.wav
36,192,11664,1,2,0:0:0:0:
109,192,11664,1,8,0:0:0:0:
402,192,11664,1,0,0:0:0:0:
182,192,11830,1,0,0:0:0:35:Hat Open.wav
256,192,11914,1,8,0:0:0:0:
329,192,11997,1,2,0:0:0:0:
475,192,11997,1,0,0:0:0:0:
109,192,12164,1,0,0:0:0:35:Hat Open.wav
36,192,12330,1,8,0:0:0:0:
182,192,12330,1,2,0:0:0:0:
475,192,12330,1,0,0:0:0:0:
402,192,12497,1,0,0:0:0:35:Hat Open.wav
256,192,12580,1,0,0:0:0:0:
36,192,12664,1,2,0:0:0:0:
109,192,12664,1,0,0:0:0:0:
256,192,12830,1,0,0:0:0:35:Hat Open.wav
109,192,12997,1,8,0:0:0:0:
329,192,12997,1,2,0:0:0:0:
475,192,12997,1,0,0:0:0:0:
182,192,13164,1,0,0:0:0:35:Hat Open.wav
402,192,13330,1,0,0:0:0:0:
36,192,13330,1,2,0:0:0:0:
109,192,13497,1,0,0:0:0:35:Hat Open.wav
182,192,13664,1,2,0:0:0:0:
329,192,13664,1,8,0:0:0:0:
475,192,13664,1,4,0:0:0:0:
109,192,13747,1,0,0:0:0:0:
329,192,13830,1,8,0:0:0:0:
256,192,13914,1,0,0:0:0:50:Tom3.wav
36,192,13997,1,4,0:0:0:0:
182,192,13997,1,2,0:0:0:0:
475,192,13997,1,0,0:0:0:50:Tom3.wav
329,192,14164,1,0,0:0:0:35:Hat Open.wav
475,192,14330,1,0,0:0:0:0:
36,192,14330,1,2,0:0:0:0:
256,192,14330,1,8,0:0:0:0:
109,192,14497,1,0,0:0:0:35:Hat Open.wav
182,192,14664,1,2,0:0:0:0:
329,192,14664,1,0,0:0:0:0:
402,192,14830,1,0,0:0:0:35:Hat Open.wav
36,192,14997,1,2,0:0:0:0:
182,192,14997,1,8,0:0:0:0:
475,192,14997,1,0,0:0:0:0:
109,192,15164,1,0,0:0:0:35:Hat Open.wav
182,192,15247,1,0,0:0:0:0:
256,192,15330,1,2,0:0:0:0:
329,192,15330,1,0,0:0:0:0:
402,192,15497,1,0,0:0:0:35:Hat Open.wav
36,192,15664,1,8,0:0:0:0:
182,192,15664,1,2,0:0:0:0:
475,192,15664,1,0,0:0:0:0:
329,192,15830,1,0,0:0:0:35:Hat Open.wav
256,192,15914,1,8,0:0:0:0:
109,192,15997,1,2,0:0:0:0:
182,192,15997,1,0,0:0:0:0:
329,192,16164,1,0,0:0:0:35:Hat Open.wav
36,192,16330,1,2,0:0:0:0:
109,192,16330,1,8,0:0:0:0:
402,192,16330,1,0,0:0:0:0:
182,192,16497,1,0,0:0:0:35:Hat Open.wav
475,192,16664,1,0,0:0:0:0:
256,192,16664,1,2,0:0:0:0:
329,192,16830,1,0,0:0:0:35:Hat Open.wav
36,192,16997,1,2,0:0:0:0:
402,192,16997,1,8,0:0:0:0:
475,192,16997,1,0,0:0:0:0:
109,192,17164,1,0,0:0:0:35:Hat Open.wav
182,192,17247,1,8,0:0:0:0:
256,192,17330,1,2,0:0:0:0:
402,192,17330,1,0,0:0:0:0:
329,192,17497,1,0,0:0:0:35:Hat Open.wav
475,192,17664,1,0,0:0:0:0:
109,192,17664,1,8,0:0:0:0:
36,192,17664,1,2,0:0:0:0:
182,192,17830,1,0,0:0:0:35:Hat Open.wav
256,192,17997,1,2,0:0:0:0:
329,192,17997,1,0,0:0:0:0:
36,192,18164,1,8,0:0:0:0:
109,192,18164,1,0,0:0:0:35:Hat Open.wav
256,192,18330,1,2,0:0:0:0:
329,192,18330,1,4,0:0:0:0:
402,192,18330,1,8,0:0:0:0:
36,192,18497,1,0,0:0:0:0:
109,192,18580,1,0,0:0:0:50:Tom1.wav
182,192,18664,1,0,0:0:0:50:Tom3.wav
256,192,18747,1,0,0:0:0:0:
475,192,18830,1,0,0:0:0:50:Tom2.wav
402,192,18914,1,2,0:0:0:0:
36,192,18997,1,8,0:0:0:0:
109,192,18997,1,0,0:0:0:0:
329,192,18997,1,0,0:0:0:0:
182,192,19164,1,2,0:0:0:0:
256,192,19164,1,0,0:0:0:0:
36,192,19330,128,4,19502:0:0:0:0:
329,192,19330,1,2,0:0:0:0:
475,192,19330,1,0,0:0:0:0:
182,192,19502,128,0,19674:0:0:0:0:
256,192,19674,1,0,0:0:0:0:
475,192,19674,128,0,19847:0:0:0:0:
109,192,19674,1,8,0:0:0:0:
329,192,19847,128,2,20019:0:0:0:0:
402,192,19847,1,0,0:0:0:0:
109,192,20019,128,0,20364:0:0:0:0:
182,192,20192,1,2,0:0:0:0:
256,192,20192,1,0,0:0:0:0:
36,192,20364,1,8,0:0:0:0:
402,192,20364,128,0,20709:0:0:0:60:Hat Open2.wav
475,192,20364,1,0,0:0:0:0:
109,192,20536,1,0,0:0:0:0:
182,192,20709,1,2,0:0:0:0:
256,192,20709,128,0,21054:0:0:0:0:
475,192,20881,1,0,0:0:0:0:
109,192,21054,1,8,0:0:0:0:
182,192,21054,1,0,0:0:0:0:
329,192,21054,1,0,0:0:0:0:
36,192,21226,128,2,21398:0:0:0:0:
402,192,21226,1,0,0:0:0:0:
109,192,21398,128,0,21571:0:0:0:0:
182,192,21571,128,2,21743:0:0:0:0:
475,192,21571,1,0,0:0:0:0:
256,192,21743,1,8,0:0:0:0:
329,192,21743,128,0,22088:0:0:0:60:Hat Open2.wav
402,192,21743,1,0,0:0:0:0:
36,192,21916,1,0,0:0:0:0:
109,192,22088,1,2,0:0:0:0:
475,192,22088,128,0,22433:0:0:0:0:
182,192,22261,1,0,0:0:0:0:
109,192,22433,128,8,22778:0:0:0:0:
329,192,22433,1,0,0:0:0:0:
402,192,22433,1,0,0:0:0:0:
256,192,22605,1,2,0:0:0:0:
475,192,22605,1,0,0:0:0:0:
402,192,22778,128,0,23123:0:0:0:0:
182,192,22950,1,2,0:0:0:0:
256,192,22950,1,0,0:0:0:0:
329,192,23123,1,0,0:0:0:60:Hat Open2.wav
475,192,23123,1,0,0:0:0:0:
109,192,23123,1,8,0:0:0:0:
36,192,23295,128,0,23467:0:0:0:0:
475,192,23467,128,0,23640:0:0:0:0:
256,192,23467,1,2,0:0:0:0:
109,192,23640,128,0,23812:0:0:0:0:
36,192,23812,1,8,0:0:0:0:
182,192,23812,1,0,0:0:0:0:
402,192,23812,128,0,23985:0:0:0:0:
256,192,23985,128,2,24502:0:0:0:0:
329,192,23985,1,0,0:0:0:0:
36,192,24157,1,0,0:0:0:0:
109,192,24330,1,2,0:0:0:0:
475,192,24330,1,0,0:0:0:0:
329,192,24502,1,0,0:0:0:60:Hat Open2.wav
402,192,24502,1,0,0:0:0:0:
182,192,24502,1,8,0:0:0:0:
36,192,24847,1,4,0:0:0:0:
182,192,24847,1,2,0:0:0:0:
402,192,24847,128,0,25019:0:0:0:0:
256,192,25019,128,0,25192:0:0:0:0:
36,192,25192,1,8,0:0:0:0:
109,192,25192,128,0,25364:0:0:0:0:
329,192,25192,1,0,0:0:0:0:
182,192,25364,1,2,0:0:0:0:
475,192,25364,128,0,25536:0:0:0:0:
329,192,25536,128,0,25881:0:0:0:0:
109,192,25709,1,0,0:0:0:0:
36,192,25709,1,2,0:0:0:0:
475,192,25881,1,0,0:0:0:0:
256,192,25881,1,0,0:0:0:60:Hat Open2.wav
182,192,25881,128,8,26226:0:0:0:0:
402,192,26054,1,0,0:0:0:0:
36,192,26226,128,2,26571:0:0:0:0:
329,192,26226,1,0,0:0:0:0:
256,192,26398,1,0,0:0:0:0:
109,192,26571,1,8,0:0:0:0:
182,192,26571,1,0,0:0:0:0:
475,192,26571,1,0,0:0:0:0:
36,192,26743,1,2,0:0:0:0:
329,192,26743,128,0,26916:0:0:0:0:
475,192,26916,128,0,27088:0:0:0:0:
256,192,27088,128,0,27261:0:0:0:0:
109,192,27088,1,2,0:0:0:0:
329,192,27261,1,8,0:0:0:0:
402,192,27261,128,0,27433:0:0:0:60:Hat Open2.wav
475,192,27261,1,0,0:0:0:0:
109,192,27433,128,0,27605:0:0:0:0:
256,192,27605,128,2,27778:0:0:0:0:
329,192,27605,1,0,0:0:0:0:
36,192,27950,128,8,28467:0:0:0:0:
109,192,27950,1,0,0:0:0:0:
402,192,27950,1,0,0:0:0:0:
182,192,28123,1,2,0:0:0:0:
329,192,28123,1,0,0:0:0:0:
475,192,28295,128,0,28467:0:0:0:0:
402,192,28467,1,0,0:0:0:0:
329,192,28467,1,2,0:0:0:0:
36,192,28640,1,8,0:0:0:0:
109,192,28640,1,0,0:0:0:60:Hat Open2.wav
182,192,28640,128,0,28812:0:0:0:0:
256,192,28812,128,0,28985:0:0:0:0:
329,192,28985,128,2,29330:0:0:0:0:
475,192,28985,1,0,0:0:0:0:
36,192,29157,1,0,0:0:0:0:
109,192,29330,1,8,0:0:0:0:
402,192,29330,1,0,0:0:0:60:Hat Open2.wav
475,192,29330,1,0,0:0:0:0:
36,192,29502,128,2,29674:0:0:0:0:
182,192,29502,1,0,0:0:0:0:
475,192,29674,128,0,30192:0:0:0:0:
256,192,29674,1,8,0:0:0:0:
402,192,29674,1,0,0:0:0:0:
329,192,29847,1,8,0:0:0:0:
182,192,29933,1,0,0:0:0:50:Tom1.wav
36,192,30019,1,0,0:0:0:50:Tom3.wav
109,192,30364,1,4,0:0:0:0:
256,192,30364,1,2,0:0:0:0:
329,192,30364,1,0,0:0:0:0:
36,192,30704,128,0,31045:0:0:0:0:
475,192,30875,1,0,0:0:0:50:Tom1.wav
182,192,31045,128,0,31386:0:0:0:0:
329,192,31386,128,0,31727:0:0:0:50:Tom3.wav
475,192,31727,128,0,32068:0:0:0:0:
36,192,31898,1,8,0:0:0:0:
256,192,31898,1,0,0:0:0:0:
109,192,32068,128,0,32409:0:0:0:50:Tom3.wav
256,192,32409,128,4,32750:0:0:0:0:
329,192,32409,1,2,0:0:0:0:
475,192,32409,1,0,0:0:0:0:
36,192,32750,1,4,0:0:0:0:
182,192,32750,1,2,0:0:0:0:
402,192,32750,128,0,33091:0:0:0:0:
109,192,33091,1,2,0:0:0:0:
329,192,33091,1,4,0:0:0:0:
475,192,33091,1,0,0:0:0:0:
256,192,33432,128,0,33773:0:0:0:0:
475,192,33602,1,0,0:0:0:50:Tom1.wav
182,192,33773,128,0,34114:0:0:0:0:
109,192,34114,128,0,34454:0:0:0:50:Tom3.wav
36,192,34454,1,2,0:0:0:0:
475,192,34454,128,0,34795:0:0:0:0:
182,192,34625,1,8,0:0:0:0:
256,192,34625,1,0,0:0:0:60:Hat Open2.wav
329,192,34795,128,2,35136:0:0:0:0:
402,192,34795,1,0,0:0:0:0:
36,192,34966,1,2,0:0:0:0:
109,192,34966,1,0,0:0:0:0:
475,192,35136,1,0,0:0:0:0:
182,192,35136,128,2,35477:0:0:0:0:
256,192,35136,1,4,0:0:0:0:
36,192,35477,128,4,35818:0:0:0:0:
109,192,35477,1,2,0:0:0:0:
402,192,35477,1,0,0:0:0:0:
182,192,35818,1,2,0:0:0:0:
329,192,35818,1,4,0:0:0:0:
475,192,35818,1,0,0:0:0:0:
36,192,36155,128,8,36323:0:0:0:0:
256,192,36155,1,0,0:0:0:0:
402,192,36155,1,0,0:0:0:0:
182,192,36323,128,0,36492:0:0:0:0:
329,192,36492,128,0,36660:0:0:0:0:
256,192,36492,1,2,0:0:0:0:
402,192,36660,1,2,0:0:0:0:
475,192,36660,128,0,36829:0:0:0:0:
36,192,36829,1,8,0:0:0:0:
109,192,36829,128,0,36997:0:0:0:25:Ride.wav
182,192,36829,1,0,0:0:0:0:
256,192,36997,128,0,37166:0:0:0:0:
329,192,37166,1,2,0:0:0:0:
402,192,37166,128,0,37503:0:0:0:0:
36,192,37334,128,2,37503:0:0:0:0:
182,192,37334,1,0,0:0:0:0:
475,192,37503,1,0,0:0:0:0:
329,192,37503,1,0,0:0:0:25:Ride.wav
109,192,37503,1,8,0:0:0:0:
182,192,37671,128,0,37840:0:0:0:0:
256,192,37840,1,2,0:0:0:0:
329,192,37840,128,0,38009:0:0:0:0:
36,192,38009,1,2,0:0:0:0:
109,192,38009,128,0,38177:0:0:0:0:
182,192,38177,1,8,0:0:0:0:
256,192,38177,1,0,0:0:0:0:
402,192,38177,128,0,38346:0:0:0:0:
36,192,38346,128,0,38514:0:0:0:0:
329,192,38514,1,4,0:0:0:0:
475,192,38514,1,0,0:0:0:0:
182,192,38514,1,2,0:0:0:0:
109,192,38851,1,8,0:0:0:0:
256,192,38851,1,0,0:0:0:60:Hat Open2.wav
402,192,38851,1,0,0:0:0:0:
36,192,39188,1,8,0:0:0:0:
256,192,39188,1,0,0:0:0:60:Hat Open2.wav
402,192,39188,1,0,0:0:0:0:
109,192,39357,1,2,0:0:0:0:
329,192,39357,1,0,0:0:0:0:
475,192,39525,1,0,0:0:0:0:
182,192,39525,1,8,0:0:0:0:
256,192,39525,1,0,0:0:0:60:Hat Open2.wav
402,192,39694,1,0,0:0:0:0:
329,192,39694,1,2,0:0:0:0:
36,192,39862,1,8,0:0:0:0:
109,192,39862,1,0,0:0:0:60:Hat Open2.wav
256,192,39862,1,0,0:0:0:0:
182,192,40031,1,2,0:0:0:0:
475,192,40031,1,0,0:0:0:0:
109,192,40200,1,8,0:0:0:0:
329,192,40200,1,0,0:0:0:60:Hat Open2.wav
402,192,40200,1,0,0:0:0:0:
36,192,40368,1,2,0:0:0:0:
256,192,40368,1,0,0:0:0:0:
475,192,40537,1,0,0:0:0:0:
182,192,40537,1,0,0:0:0:60:Hat Open2.wav
109,192,40537,1,8,0:0:0:0:
256,192,40705,1,2,0:0:0:0:
402,192,40705,1,0,0:0:0:0:
36,192,40874,1,8,0:0:0:0:
329,192,40874,1,0,0:0:0:60:Hat Open2.wav
475,192,40874,1,0,0:0:0:0:
182,192,41211,128,2,42053:0:0:0:0:
256,192,41211,1,4,0:0:0:0:
402,192,41211,1,0,0:0:0:0:
475,192,41885,1,0,0:0:0:50:Tom1.wav
402,192,42053,1,0,0:0:0:50:Tom3.wav
329,192,42222,1,0,0:0:0:60:Hat Open2.wav
256,192,42222,1,8,0:0:0:0:
109,192,42391,1,2,0:0:0:0:
182,192,42391,1,0,0:0:0:0:
36,192,42559,1,2,0:0:0:0:
256,192,42559,1,0,0:0:0:0:
475,192,42559,1,0,0:0:0:0:
36,192,42725,1,2,0:0:0:0:
256,192,42725,1,0,0:0:0:60:Hat Open2.wav
475,192,42725,1,0,0:0:0:0:
402,192,42892,128,0,43225:0:0:0:0:
182,192,43225,128,0,43559:0:0:0:0:
475,192,43392,1,2,0:0:0:0:
402,192,43475,1,2,0:0:0:0:
36,192,43559,1,8,0:0:0:0:
256,192,43559,1,0,0:0:0:0:
329,192,43559,128,0,43892:0:0:0:0:
36,192,43892,1,4,0:0:0:0:
109,192,43892,1,2,0:0:0:0:
475,192,43892,128,0,44225:0:0:0:0:
182,192,44059,1,0,0:0:0:35:Hat Open.wav
36,192,44225,128,8,44559:0:0:0:0:
256,192,44225,1,2,0:0:0:0:
402,192,44225,1,0,0:0:0:0:
329,192,44392,1,0,0:0:0:35:Hat Open.wav
402,192,44475,1,8,0:0:0:0:
182,192,44559,128,2,44892:0:0:0:0:
475,192,44559,1,0,0:0:0:0:
329,192,44725,1,0,0:0:0:35:Hat Open.wav
402,192,44892,128,0,45225:0:0:0:0:
109,192,44892,1,2,0:0:0:0:
256,192,44892,1,8,0:0:0:0:
36,192,45059,128,0,45225:0:0:0:35:Hat Open.wav
329,192,45225,1,2,0:0:0:0:
475,192,45225,1,0,0:0:0:0:
182,192,45392,128,0,45725:0:0:0:35:Hat Open.wav
36,192,45559,1,2,0:0:0:0:
475,192,45559,1,8,0:0:0:0:
329,192,45725,128,0,46225:0:0:0:35:Hat Open.wav
109,192,45892,1,2,0:0:0:0:
182,192,45892,1,0,0:0:0:0:
256,192,46058,1,0,0:0:0:35:Hat Open.wav
475,192,46225,1,0,0:0:0:0:
402,192,46225,1,8,0:0:0:0:
36,192,46225,1,2,0:0:0:0:
109,192,46392,1,0,0:0:0:35:Hat Open.wav
182,192,46558,1,2,0:0:0:0:
475,192,46558,128,0,46892:0:0:0:0:
256,192,46725,1,0,0:0:0:35:Hat Open.wav
36,192,46892,128,2,47058:0:0:0:0:
109,192,46892,1,8,0:0:0:0:
402,192,46892,1,0,0:0:0:0:
329,192,47058,128,0,47225:0:0:0:35:Hat Open.wav
182,192,47142,1,8,0:0:0:0:
256,192,47225,1,2,0:0:0:0:
475,192,47225,1,0,0:0:0:0:
402,192,47392,1,0,0:0:0:0:
109,192,47392,128,0,47558:0:0:0:35:Hat Open.wav
36,192,47558,1,2,0:0:0:0:
182,192,47558,1,8,0:0:0:0:
256,192,47558,128,0,47725:0:0:0:0:
402,192,47725,128,0,47892:0:0:0:35:Hat Open.wav
182,192,47892,1,2,0:0:0:0:
329,192,47892,1,0,0:0:0:0:
109,192,48058,1,0,0:0:0:35:Hat Open.wav
475,192,48058,128,0,48225:0:0:0:0:
36,192,48225,1,8,0:0:0:0:
256,192,48225,1,2,0:0:0:0:
329,192,48225,128,0,48392:0:0:0:0:
182,192,48392,128,0,48725:0:0:0:35:Hat Open.wav
402,192,48558,1,2,0:0:0:0:
475,192,48558,1,0,0:0:0:0:
109,192,48725,128,0,49058:0:0:0:35:Hat Open.wav
329,192,48892,1,8,0:0:0:0:
402,192,48892,1,2,0:0:0:0:
36,192,49058,128,0,49892:0:0:0:35:Hat Open.wav
256,192,49225,1,4,0:0:0:0:
329,192,49225,1,2,0:0:0:0:
475,192,49392,1,0,0:0:0:35:Hat Open.wav
182,192,49558,1,8,0:0:0:0:
256,192,49558,1,2,0:0:0:0:
475,192,49725,1,0,0:0:0:35:Hat Open.wav
402,192,49808,1,8,0:0:0:0:
109,192,49892,1,2,0:0:0:0:
329,192,49892,1,0,0:0:0:0:
182,192,49975,1,8,0:0:0:0:
256,192,50058,1,0,0:0:0:35:Hat Open.wav
182,192,50225,128,2,50558:0:0:0:0:
329,192,50225,1,8,0:0:0:0:
402,192,50225,1,0,0:0:0:0:
36,192,50392,1,0,0:0:0:35:Hat Open.wav
109,192,50558,1,2,0:0:0:0:
329,192,50558,128,0,50892:0:0:0:0:
182,192,50725,1,0,0:0:0:35:Hat Open.wav
475,192,50892,128,0,51142:0:0:0:0:
256,192,50892,1,2,0:0:0:0:
402,192,50892,1,8,0:0:0:0:
109,192,51058,1,0,0:0:0:35:Hat Open.wav
182,192,51142,1,8,0:0:0:0:
36,192,51225,128,2,51558:0:0:0:0:
256,192,51225,1,0,0:0:0:0:
329,192,51392,1,0,0:0:0:35:Hat Open.wav
109,192,51558,128,2,51892:0:0:0:0:
402,192,51558,1,8,0:0:0:0:
475,192,51558,1,0,0:0:0:0:
329,192,51725,1,0,0:0:0:35:Hat Open.wav
182,192,51892,1,4,0:0:0:0:
256,192,51892,1,0,0:0:0:0:
36,192,51892,1,2,0:0:0:0:
329,192,52225,1,2,0:0:0:0:
475,192,52225,1,0,0:0:0:0:
36,192,52392,1,8,0:0:0:0:
182,192,52392,1,4,0:0:0:0:
402,192,52392,1,0,0:0:0:0:
182,192,52725,1,2,0:0:0:0:
329,192,52725,1,0,0:0:0:0:
36,192,52892,1,8,0:0:0:0:
256,192,52892,1,4,0:0:0:0:
475,192,52892,1,0,0:0:0:0:
402,192,53225,1,0,0:0:0:0:
109,192,53225,1,2,0:0:0:0:
329,192,53392,1,0,0:0:0:0:
182,192,53392,1,4,0:0:0:0:
256,192,53392,1,8,0:0:0:0:
36,192,53558,1,2,0:0:0:0:
475,192,53558,1,0,0:0:0:0:
182,192,53892,1,0,0:0:0:50:Tom1.wav
109,192,53975,1,0,0:0:0:0:
36,192,54058,1,0,0:0:0:50:Tom2.wav
329,192,54142,1,0,0:0:0:50:Tom2.wav
256,192,54225,1,0,0:0:0:50:Tom1.wav
182,192,54308,1,0,0:0:0:50:Tom3.wav
475,192,54392,1,8,0:0:0:30:soft-hitclap.wav
402,192,54475,1,8,0:0:0:30:soft-hitclap.wav
329,192,54558,128,0,54892:0:0:0:0:
109,192,54558,1,2,0:0:0:0:
36,192,54558,1,4,0:0:0:0:
182,192,54725,1,0,0:0:0:0:
36,192,54892,1,8,0:0:0:0:
256,192,54892,128,2,55225:0:0:0:0:
402,192,54892,1,0,0:0:0:0:
475,192,55058,1,0,0:0:0:0:
109,192,55225,1,2,0:0:0:0:
182,192,55225,128,0,55558:0:0:0:0:
329,192,55392,1,0,0:0:0:0:
36,192,55558,128,8,55892:0:0:0:0:
256,192,55558,1,2,0:0:0:0:
475,192,55558,1,0,0:0:0:0:
402,192,55725,1,0,0:0:0:0:
329,192,55725,128,0,55892:0:0:0:25:Ride.wav
109,192,55892,1,2,0:0:0:0:
256,192,55892,1,0,0:0:0:0:
182,192,56058,1,0,0:0:0:25:Ride.wav
475,192,56058,128,0,56392:0:0:0:0:
36,192,56225,1,8,0:0:0:0:
329,192,56225,1,2,0:0:0:0:
109,192,56392,1,0,0:0:0:25:Ride.wav
256,192,56392,128,0,56892:0:0:0:0:
329,192,56558,1,2,0:0:0:0:
475,192,56558,1,0,0:0:0:0:
402,192,56725,1,0,0:0:0:25:Ride.wav
475,192,56892,1,0,0:0:0:0:
36,192,56892,1,2,0:0:0:0:
109,192,56892,1,8,0:0:0:0:
182,192,57058,1,0,0:0:0:25:Ride.wav
36,192,57225,128,2,57558:0:0:0:0:
256,192,57225,1,0,0:0:0:30:soft-hitfinish.wav
402,192,57225,1,0,0:0:0:0:
475,192,57392,1,0,0:0:0:25:Ride.wav
109,192,57558,1,8,0:0:0:0:
182,192,57558,1,2,0:0:0:0:
256,192,57558,128,0,57725:0:0:0:0:
475,192,57725,128,0,58058:0:0:0:0:
329,192,57725,1,0,0:0:0:25:Ride.wav
109,192,57892,1,2,0:0:0:0:
256,192,57975,1,8,0:0:0:0:
36,192,58058,128,0,58392:0:0:0:25:Ride.wav
402,192,58058,1,0,0:0:0:0:
182,192,58225,1,8,0:0:0:0:
329,192,58225,1,2,0:0:0:0:
402,192,58392,128,0,58892:0:0:0:0:
109,192,58558,1,2,0:0:0:0:
256,192,58558,1,0,0:0:0:0:
329,192,58725,1,0,0:0:0:25:Ride.wav
109,192,58892,1,8,0:0:0:0:
36,192,58892,1,2,0:0:0:0:
182,192,58892,128,0,59892:0:0:0:0:
329,192,59058,1,0,0:0:0:25:Ride.wav
402,192,59142,1,8,0:0:0:0:
475,192,59225,1,2,0:0:0:0:
329,192,59392,1,0,0:0:0:0:
475,192,59475,1,0,0:0:0:25:Ride.wav
256,192,59558,1,10,0:0:0:0:
36,192,59725,1,0,0:0:0:25:Ride.wav
109,192,59892,1,4,0:0:0:0:
329,192,59892,1,2,0:0:0:0:
475,192,59892,1,0,0:0:0:0:
402,192,60058,1,0,0:0:0:35:Hat Open.wav
182,192,60225,1,2,0:0:0:0:
256,192,60225,1,0,0:0:0:0:
36,192,60225,1,8,0:0:0:0:
109,192,60392,1,0,0:0:0:35:Hat Open.wav
182,192,60558,1,2,0:0:0:0:
329,192,60558,1,0,0:0:0:0:
256,192,60725,1,0,0:0:0:35:Hat Open.wav
329,192,60892,1,8,0:0:0:0:
402,192,60892,128,2,61225:0:0:0:0:
475,192,60892,1,0,0:0:0:0:
36,192,61058,1,0,0:0:0:35:Hat Open.wav
109,192,61225,1,2,0:0:0:0:
256,192,61225,128,0,61558:0:0:0:0:
182,192,61392,1,0,0:0:0:35:Hat Open.wav
475,192,61558,1,0,0:0:0:0:
329,192,61558,1,8,0:0:0:0:
109,192,61558,128,2,61892:0:0:0:0:
402,192,61725,1,0,0:0:0:35:Hat Open.wav
36,192,61892,1,2,0:0:0:0:
475,192,61892,128,0,62225:0:0:0:0:
109,192,62058,1,0,0:0:0:35:Hat Open.wav
182,192,62225,1,2,0:0:0:0:
329,192,62225,128,8,62558:0:0:0:0:
402,192,62225,1,0,0:0:0:0:
256,192,62392,1,0,0:0:0:35:Hat Open.wav
182,192,62558,128,2,62892:0:0:0:0:
402,192,62558,1,0,0:0:0:0:
475,192,62725,1,0,0:0:0:35:Hat Open.wav
329,192,62892,1,0,0:0:0:60:Hat Open2.wav
109,192,62892,1,2,0:0:0:0:
256,192,62892,1,8,0:0:0:0:
36,192,63058,128,0,63392:0:0:0:0:
182,192,63225,1,2,0:0:0:0:
402,192,63225,1,0,0:0:0:60:Hat Open2.wav
256,192,63392,128,0,63558:0:0:0:0:
329,192,63558,1,8,0:0:0:0:
402,192,63558,1,2,0:0:0:0:
475,192,63558,128,0,63725:0:0:0:60:Hat Open2.wav
109,192,63725,128,0,64558:0:0:0:0:
182,192,63892,1,2,0:0:0:0:
329,192,63892,1,4,0:0:0:0:
475,192,64058,1,0,0:0:0:50:Tom1.wav
402,192,64058,1,8,0:0:0:0:
182,192,64225,1,8,0:0:0:0:
256,192,64225,1,0,0:0:0:50:Tom1.wav
402,192,64392,1,2,0:0:0:0:
475,192,64392,1,0,0:0:0:0:
36,192,64558,1,8,0:0:0:0:
182,192,64558,1,0,0:0:0:0:
329,192,64558,1,0,0:0:0:0:
256,192,64725,1,0,0:0:0:50:Tom1.wav
329,192,64892,1,0,0:0:0:50:Tom2.wav
475,192,64892,1,0,0:0:0:0:
182,192,64975,1,0,0:0:0:50:Tom2.wav
36,192,65058,1,0,0:0:0:50:Tom3.wav
402,192,65142,1,0,0:0:0:50:Tom3.wav
109,192,65225,1,4,0:0:0:0:
182,192,65225,1,2,0:0:0:0:
256,192,65225,128,0,65558:0:0:0:0:
109,192,65558,1,2,0:0:0:0:
475,192,65558,128,0,65892:0:0:0:0:
36,192,65725,128,8,65892:0:0:0:0:
256,192,65725,1,0,0:0:0:60:Hat Open2.wav
329,192,65725,1,0,0:0:0:0:
402,192,65892,1,0,0:0:0:0:
182,192,66058,128,2,66392:0:0:0:0:
329,192,66058,1,0,0:0:0:0:
475,192,66225,1,0,0:0:0:60:Hat Open2.wav
36,192,66225,1,8,0:0:0:0:
256,192,66392,1,2,0:0:0:0:
402,192,66392,128,0,66725:0:0:0:0:
109,192,66558,1,8,0:0:0:0:
329,192,66558,1,0,0:0:0:0:
182,192,66725,1,0,0:0:0:50:Tom1.wav
36,192,66892,128,2,67225:0:0:0:0:
256,192,66892,1,0,0:0:0:0:
329,192,67058,1,4,0:0:0:0:
475,192,67058,1,8,0:0:0:0:
182,192,67225,128,0,67558:0:0:0:0:
402,192,67392,1,2,0:0:0:0:
256,192,67558,1,4,0:0:0:0:
329,192,67558,128,0,67892:0:0:0:0:
36,192,67558,1,8,0:0:0:0:
109,192,67725,1,2,0:0:0:0:
182,192,67892,1,2,0:0:0:0:
402,192,67892,1,4,0:0:0:0:
475,192,67892,128,0,68225:0:0:0:0:
109,192,68225,128,2,68392:0:0:0:0:
329,192,68225,1,0,0:0:0:0:
182,192,68392,1,0,0:0:0:50:Tom2.wav
402,192,68392,128,0,68725:0:0:0:0:
256,192,68475,1,0,0:0:0:50:Tom2.wav
329,192,68558,1,2,0:0:0:0:
182,192,68725,128,0,69058:0:0:0:0:
109,192,68892,1,0,0:0:0:0:
36,192,68892,1,2,0:0:0:0:
256,192,69058,1,0,0:0:0:50:Tom3.wav
475,192,69058,128,0,69892:0:0:0:0:
329,192,69142,1,0,0:0:0:50:Tom3.wav
36,192,69225,1,4,0:0:0:0:
402,192,69225,1,2,0:0:0:0:
256,192,69392,1,0,0:0:0:0:
182,192,69558,1,0,0:0:0:50:Tom2.wav
256,192,69725,1,0,0:0:0:50:Tom3.wav
36,192,69808,1,0,0:0:0:50:Tom2.wav
109,192,69892,1,8,0:0:0:0:
182,192,69975,1,0,0:0:0:50:Tom2.wav
329,192,70058,1,0,0:0:0:50:Tom3.wav
402,192,70142,1,2,0:0:0:0:
475,192,70225,1,8,0:0:0:0:
109,192,70308,1,0,0:0:0:0:
182,192,70392,1,2,0:0:0:0:
329,192,70475,1,0,0:0:0:0:
109,192,70558,128,2,70892:0:0:0:0:
402,192,70558,1,4,0:0:0:0:
475,192,70558,1,0,0:0:0:0:
256,192,70892,1,8,0:0:0:0:
329,192,70892,128,0,71058:0:0:0:60:Hat Open2.wav
475,192,70892,1,0,0:0:0:0:
182,192,71058,128,0,71558:0:0:0:0:
402,192,71225,1,0,0:0:0:60:Hat Open2.wav
36,192,71225,1,2,0:0:0:0:
256,192,71392,1,2,0:0:0:0:
329,192,71392,1,0,0:0:0:0:
109,192,71558,1,8,0:0:0:0:
402,192,71558,1,0,0:0:0:60:Hat Open2.wav
475,192,71558,128,0,71892:0:0:0:0:
36,192,71892,128,2,72225:0:0:0:0:
256,192,71892,1,0,0:0:0:60:Hat Open2.wav
402,192,71892,1,0,0:0:0:0:
109,192,72058,1,2,0:0:0:0:
329,192,72225,1,0,0:0:0:60:Hat Open2.wav
402,192,72225,1,0,0:0:0:0:
256,192,72225,128,8,72392:0:0:0:0:
109,192,72392,128,2,72725:0:0:0:0:
475,192,72392,1,0,0:0:0:0:
402,192,72558,1,0,0:0:0:60:Hat Open2.wav
256,192,72725,1,2,0:0:0:0:
329,192,72725,128,0,73058:0:0:0:0:
36,192,72892,1,8,0:0:0:0:
182,192,72892,1,0,0:0:0:60:Hat Open2.wav
475,192,73058,128,0,74225:0:0:0:0:
36,192,73225,1,2,0:0:0:0:
109,192,73225,1,0,0:0:0:60:Hat Open2.wav
182,192,73392,1,0,0:0:0:0:
402,192,73558,1,0,0:0:0:0:
256,192,73558,1,2,0:0:0:0:
109,192,73725,1,8,0:0:0:0:
329,192,73725,1,0,0:0:0:60:Hat Open2.wav
182,192,73892,1,0,0:0:0:0:
256,192,74058,1,2,0:0:0:0:
402,192,74058,1,0,0:0:0:0:
36,192,74225,1,8,0:0:0:0:
109,192,74225,128,0,74558:0:0:0:60:Hat Open2.wav
329,192,74225,1,0,0:0:0:0:
256,192,74392,1,2,0:0:0:0:
402,192,74392,1,0,0:0:0:0:
329,192,74558,128,0,75058:0:0:0:50:Tom1.wav
182,192,74725,1,0,0:0:0:0:
36,192,74725,1,8,0:0:0:0:
256,192,74892,1,8,0:0:0:0:
475,192,74892,1,0,0:0:0:0:
182,192,75058,1,8,0:0:0:0:
109,192,75142,1,8,0:0:0:0:
36,192,75225,1,8,0:0:0:0:
475,192,75225,1,0,0:0:0:0:
402,192,75308,1,0,0:0:0:50:Tom1.wav
329,192,75392,1,0,0:0:0:50:Tom2.wav
256,192,75475,1,2,0:0:0:0:
109,192,75558,1,8,0:0:0:0:
36,192,75558,128,4,75725:0:0:0:0:
182,192,75558,1,0,0:0:0:0:
329,192,75725,128,0,75892:0:0:0:0:
36,192,75892,1,4,0:0:0:0:
182,192,75892,128,2,76225:0:0:0:0:
475,192,75892,1,0,0:0:0:0:
475,192,76225,128,0,76392:0:0:0:0:
36,192,76392,1,0,0:0:0:50:Tom2.wav
109,192,76392,128,0,76725:0:0:0:0:
402,192,76725,1,0,0:0:0:50:Tom3.wav
256,192,76892,128,0,77058:0:0:0:50:Tom3.wav
329,192,76892,1,0,0:0:0:0:
402,192,77058,128,0,77225:0:0:0:0:
109,192,77225,128,4,77558:0:0:0:0:
475,192,77225,1,0,0:0:0:0:
36,192,77225,1,2,0:0:0:0:
329,192,77558,128,0,77725:0:0:0:0:
475,192,77725,128,0,77892:0:0:0:0:
36,192,78058,1,2,0:0:0:0:
182,192,78142,1,2,0:0:0:0:
329,192,78225,1,8,0:0:0:0:
402,192,78225,1,4,0:0:0:0:
475,192,78225,1,0,0:0:0:0:
182,192,78392,128,0,81225:0:0:0:0:
36,192,78558,1,2,0:0:0:0:
475,192,78558,1,4,0:0:0:0:
402,192,78725,1,0,0:0:0:0:
329,192,78892,1,0,0:0:0:0:
256,192,78892,1,8,0:0:0:0:
109,192,79058,1,0,0:0:0:0:
36,192,79225,1,2,0:0:0:0:
475,192,79225,1,0,0:0:0:0:
256,192,79392,1,2,0:0:0:0:
329,192,79392,1,0,0:0:0:0:
402,192,79558,1,8,0:0:0:0:
475,192,79558,1,0,0:0:0:60:Hat Open2.wav
329,192,79725,1,0,0:0:0:0:
36,192,79892,1,2,0:0:0:0:
256,192,79892,1,0,0:0:0:0:
402,192,80058,1,2,0:0:0:0:
475,192,80058,1,0,0:0:0:0:
256,192,80225,1,0,0:0:0:60:Hat Open2.wav
109,192,80225,1,8,0:0:0:0:
402,192,80392,1,8,0:0:0:30:soft-hitclap.wav
36,192,80558,1,2,0:0:0:0:
475,192,80558,1,0,0:0:0:0:
109,192,80725,1,2,0:0:0:0:
402,192,80725,1,0,0:0:0:0:
256,192,80892,1,8,0:0:0:0:
329,192,80892,1,0,0:0:0:60:Hat Open2.wav
36,192,81225,1,4,0:0:0:0:
329,192,81225,1,8,0:0:0:0:
475,192,81225,1,0,0:0:0:0:
329,192,81558,1,0,0:0:0:0:
109,192,81558,1,2,0:0:0:0:
182,192,81725,1,4,0:0:0:0:
256,192,81725,1,8,0:0:0:0:
475,192,81725,1,0,0:0:0:0:
36,192,82058,1,2,0:0:0:0:
402,192,82058,1,0,0:0:0:0:
109,192,82225,1,4,0:0:0:0:
182,192,82225,1,8,0:0:0:0:
329,192,82225,1,0,0:0:0:0:
256,192,82558,1,2,0:0:0:0:
475,192,82558,1,0,0:0:0:35:Hat Open.wav
402,192,82725,1,0,0:0:0:0:
109,192,82725,1,8,0:0:0:0:
36,192,82725,1,4,0:0:0:0:
182,192,83058,1,2,0:0:0:0:
329,192,83058,1,0,0:0:0:0:
36,192,83225,1,8,0:0:0:0:
256,192,83225,1,0,0:0:0:60:Hat Open2.wav
475,192,83225,1,0,0:0:0:0:
182,192,83392,1,2,0:0:0:0:
329,192,83392,1,0,0:0:0:0:
109,192,83558,1,8,0:0:0:0:
256,192,83558,1,0,0:0:0:0:
402,192,83558,1,0,0:0:0:0:
182,192,83725,128,4,87558:0:0:0:0:
36,192,83725,128,2,87558:0:0:0:0:
475,192,83725,128,0,87558:0:0:0:0:
