osu file format v14

[General]
AudioFilename: audio.mp3
AudioLeadIn: 0
PreviewTime: 42809
Countdown: 0
SampleSet: Soft
StackLeniency: 0.8
Mode: 3
LetterboxInBreaks: 0
SpecialStyle: 0
WidescreenStoryboard: 1

[Editor]
DistanceSpacing: 1.1
BeatDivisor: 4
GridSize: 32
TimelineZoom: 1

[Metadata]
Title:ALIVE (TV Size)
TitleUnicode:ALIVE (TV Size)
Artist:ClariS
ArtistUnicode:ClariS
Creator:Angki
Version:Ui's Beginner
Source:リコリス・リコイル
Tags:リコリコ lycoris recoil lyco reco lycoreco anime opening op theme japanese pop jpop female vocals Uimii Ryosuke Shigenaga 重永 亮介 しげなが りょうすけ VVCL-2078
BeatmapID:3784142
BeatmapSetID:1818715

[Difficulty]
HPDrainRate:6
CircleSize:4
OverallDifficulty:6
ApproachRate:9.2
SliderMultiplier:1.9
SliderTickRate:1

[Events]
//Background and Video events
0,0,"Background.jpg",0,0
Video,0,"Video.mp4"
//Break Periods
//Storyboard Layer 0 (Background)
//Storyboard Layer 1 (Fail)
//Storyboard Layer 2 (Pass)
//Storyboard Layer 3 (Foreground)
//Storyboard Layer 4 (Overlay)
//Storyboard Sound Samples
Sample,13992,0,"drum-hitfinish.wav",40
Sample,24842,0,"drum-hitfinish.wav",40
Sample,32759,0,"drum-hitfinish.wav",40
Sample,35460,0,"drum-hitfinish.wav",40
Sample,43568,0,"drum-hitfinish.wav",40
Sample,49217,0,"drum-hitfinish.wav",40
Sample,51883,0,"drum-hitfinish.wav",40
Sample,52883,0,"drum-hitfinish.wav",40
Sample,57217,0,"drum-hitfinish.wav",40
Sample,64217,0,"drum-hitfinish.wav",40
Sample,65717,0,"drum-hitwhistle.wav",40
Sample,66217,0,"drum-hitwhistle.wav",40
Sample,67050,0,"drum-hitfinish.wav",40
Sample,67550,0,"drum-hitfinish.wav",40
Sample,73717,0,"drum-hitwhistle.wav",40
Sample,74217,0,"drum-hitwhistle.wav",40
Sample,81217,0,"drum-hitfinish.wav",40
Sample,82217,0,"drum-hitfinish.wav",40
Sample,83217,0,"drum-hitwhistle.wav",40

[TimingPoints]
536,341.880341880341,4,2,1,40,1,0
536,-97.5,4,2,1,40,0,0
6006,329.67032967033,4,2,1,40,1,0
6006,-101.1111111,4,2,1,40,0,0
7324,342.857142857143,4,2,1,40,1,0
7324,-97.22222222,4,2,1,40,0,0
8352,307.692307692308,4,2,1,40,1,0
8352,-108.3333333,4,2,1,40,0,0
8659,333.333333333333,4,2,1,40,1,0
8659,-100.0,4,2,1,40,0,0
19325,344.827586206897,4,2,1,40,1,0
19325,-96.66666667,4,2,1,40,0,0
30359,342.857142857143,4,2,1,40,1,0
30359,-97.22222222,4,2,1,40,0,0
33101,337.078651685393,4,2,1,40,1,0
33101,-98.88888889,4,2,1,40,0,0
35460,355.029585798817,4,2,1,40,1,0
35460,-93.88888889,4,2,1,40,0,0
35815,337.078651685393,4,2,1,40,1,0
35815,-98.88888889,4,2,1,40,0,0
43230,363.636363636364,4,2,1,40,1,0
43230,-91.66666667,4,2,1,40,0,0
43411,315.789473684211,4,2,1,40,1,0
43411,-105.5555556,4,2,1,40,0,0
43884,333.333333333333,4,2,1,40,1,1
43884,-100.0,4,2,1,40,0,1
78550,-100.0,4,2,1,40,0,0

[HitObjects]
448,192,536,1,0,0:0:0:0:
64,192,1048,1,0,0:0:0:0:
320,192,1732,1,0,0:0:0:0:
192,192,3271,1,0,0:0:0:0:
448,192,4638,1,0,0:0:0:0:
320,192,5322,1,0,0:0:0:0:
192,192,6006,128,0,6995:0:0:0:0:
448,192,6995,128,8,7324:0:0:0:0:
64,192,8009,128,0,8659:0:0:0:0:
320,192,8659,1,2,0:0:0:0:
448,192,8659,1,0,0:0:0:0:
192,192,9325,1,2,0:0:0:0:
448,192,9992,1,2,0:0:0:0:
64,192,10658,1,2,0:0:0:0:
320,192,11325,1,2,0:0:0:0:
448,192,11992,1,2,0:0:0:0:
192,192,12658,1,2,0:0:0:0:
64,192,13325,1,2,0:0:0:0:
320,192,13658,1,12,0:0:0:0:
448,192,13992,1,2,0:0:0:0:
192,192,14658,1,2,0:0:0:0:
320,192,15325,1,2,0:0:0:0:
64,192,15992,1,2,0:0:0:0:
448,192,16658,1,2,0:0:0:0:
320,192,17325,1,2,0:0:0:0:
192,192,17992,1,2,0:0:0:0:
64,192,18658,1,0,0:0:0:50:tom02.wav
448,192,19325,1,6,0:0:0:0:
192,192,19842,1,2,0:0:0:0:
320,192,20704,1,2,0:0:0:0:
64,192,21221,1,2,0:0:0:0:
448,192,22083,1,2,0:0:0:0:
320,192,22600,1,2,0:0:0:0:
64,192,23462,1,2,0:0:0:0:
448,192,24152,1,0,0:0:0:0:
192,192,24842,1,2,0:0:0:0:
320,192,25359,1,2,0:0:0:0:
64,192,26221,1,2,0:0:0:0:
448,192,26738,1,2,0:0:0:0:
192,192,27600,1,2,0:0:0:0:
64,192,28118,1,2,0:0:0:0:
448,192,28980,1,2,0:0:0:0:
192,192,29325,1,8,0:0:0:0:
320,192,29669,1,8,0:3:0:0:
64,192,30359,1,2,0:0:0:0:
192,192,30359,1,4,0:0:0:0:
448,192,31387,1,0,0:0:0:50:tom03.wav
64,192,32416,1,2,0:0:0:0:
192,192,32759,1,2,0:0:0:0:
320,192,33101,1,2,0:0:0:0:
448,192,33101,1,4,0:0:0:0:
64,192,34112,1,0,0:0:0:50:tom03.wav
448,192,35123,1,6,0:0:0:0:
320,192,35460,1,2,0:0:0:0:
64,192,35815,1,2,0:0:0:0:
192,192,35815,1,4,0:0:0:0:
320,192,36489,1,2,0:0:0:0:
64,192,37163,1,2,0:0:0:0:
448,192,37837,1,2,0:0:0:0:
192,192,38511,1,2,0:0:0:0:
192,192,39185,1,8,0:0:0:0:
320,192,39859,1,8,0:0:0:0:
320,192,40534,1,8,0:0:0:0:
64,192,41208,128,2,42556:0:0:0:0:
320,192,42556,1,2,0:0:0:0:
448,192,42556,1,0,0:0:0:0:
448,192,43568,1,8,0:0:0:0:
64,192,43884,1,2,0:0:0:0:
192,192,43884,1,4,0:0:0:0:
320,192,44550,1,2,0:0:0:0:
192,192,45217,1,2,0:0:0:0:
448,192,45884,1,2,0:0:0:0:
64,192,46550,1,2,0:0:0:0:
192,192,47217,1,2,0:0:0:0:
320,192,47883,1,2,0:0:0:0:
448,192,48550,1,2,0:0:0:0:
64,192,49217,1,2,0:0:0:0:
320,192,49883,1,2,0:0:0:0:
192,192,50550,1,2,0:0:0:0:
448,192,51217,1,2,0:0:0:0:
64,192,51883,1,2,0:0:0:0:
320,192,52383,1,12,0:0:0:0:
192,192,52883,1,8,0:0:0:0:
448,192,53383,1,12,0:0:0:0:
64,192,53883,128,0,54550:0:0:0:50:tom01.wav
320,192,54550,1,2,0:0:0:0:
448,192,54550,1,4,0:0:0:0:
192,192,55217,1,2,0:0:0:0:
320,192,55883,1,2,0:0:0:0:
64,192,56550,1,2,0:0:0:0:
448,192,57217,1,2,0:0:0:0:
320,192,57883,1,2,0:0:0:0:
192,192,58550,1,2,0:0:0:0:
64,192,59217,1,2,0:0:0:0:
448,192,59883,1,6,0:0:0:0:
192,192,60550,1,2,0:0:0:0:
320,192,61217,1,2,0:0:0:0:
64,192,61883,1,2,0:0:0:0:
448,192,62550,1,2,0:0:0:0:
320,192,63217,1,2,0:0:0:0:
192,192,63883,1,2,0:0:0:0:
448,192,64217,1,8,0:0:0:0:
64,192,64550,1,8,0:0:0:0:
320,192,65217,1,2,0:0:0:0:
192,192,65717,1,8,0:0:0:0:
448,192,66217,1,8,0:0:0:0:
64,192,66550,1,8,0:0:0:0:
320,192,67050,1,8,0:0:0:0:
192,192,67550,1,8,0:0:0:0:
448,192,67883,1,6,0:0:0:0:
320,192,68550,1,2,0:0:0:0:
192,192,69217,1,6,0:0:0:0:
64,192,69883,1,8,0:0:0:0:
320,192,70550,1,2,0:0:0:0:
448,192,70550,1,4,0:0:0:0:
192,192,71217,1,2,0:0:0:0:
448,192,71883,1,2,0:0:0:0:
64,192,72383,1,2,0:0:0:0:
192,192,72883,1,8,0:0:0:0:
320,192,73217,1,2,0:0:0:0:
64,192,73717,1,8,0:0:0:0:
448,192,74217,1,8,0:0:0:0:
320,192,74550,128,0,75217:0:0:0:50:tom01.wav
192,192,75217,128,8,75883:0:3:0:0:
320,192,75883,1,4,0:3:0:0:
448,192,75883,128,2,77217:0:0:0:0:
64,192,77217,128,2,78217:0:0:0:0:
192,192,77217,1,4,0:3:0:0:
448,192,78217,1,12,0:0:0:0:
64,192,78550,1,4,0:0:0:0:
192,192,78550,1,2,0:0:0:0:
320,192,79217,1,2,0:0:0:0:
64,192,79883,1,2,0:0:0:0:
448,192,80550,1,2,0:0:0:0:
192,192,81217,1,8,0:0:0:0:
320,192,81717,1,12,0:0:0:0:
64,192,82217,1,8,0:0:0:0:
448,192,82717,1,12,0:0:0:0:
192,192,83217,1,8,0:0:0:0:
320,192,83717,1,2,0:0:0:0:
448,192,83717,1,4,0:3:0:0:
