osu file format v14

[General]
AudioFilename: audio.mp3
AudioLeadIn: 0
PreviewTime: 42809
Countdown: 0
SampleSet: Soft
StackLeniency: 0.8
Mode: 3
LetterboxInBreaks: 0
SpecialStyle: 0
WidescreenStoryboard: 1

[Editor]
DistanceSpacing: 1.1
BeatDivisor: 4
GridSize: 32
TimelineZoom: 2.6

[Metadata]
Title:ALIVE (TV Size)
TitleUnicode:ALIVE (TV Size)
Artist:ClariS
ArtistUnicode:ClariS
Creator:Angki
Version:Hard
Source:リコリス・リコイル
Tags:リコリコ lycoris recoil lyco reco lycoreco anime opening op theme japanese pop jpop female vocals Uimii Ryosuke Shigenaga 重永 亮介 しげなが りょうすけ VVCL-2078
BeatmapID:3733414
BeatmapSetID:1818715

[Difficulty]
HPDrainRate:7.5
CircleSize:4
OverallDifficulty:7.5
ApproachRate:9.2
SliderMultiplier:1.9
SliderTickRate:1

[Events]
//Background and Video events
0,0,"Background.jpg",0,0
Video,0,"Video.mp4"
//Break Periods
//Storyboard Layer 0 (Background)
//Storyboard Layer 1 (Fail)
//Storyboard Layer 2 (Pass)
//Storyboard Layer 3 (Foreground)
//Storyboard Layer 4 (Overlay)
//Storyboard Sound Samples
Sample,54050,0,"tom04.wav",50
Sample,54133,0,"tom03.wav",50
Sample,54217,0,"tom02.wav",50
Sample,54300,0,"tom01.wav",50

[TimingPoints]
536,341.880341880341,4,2,1,40,1,0
536,-97.5,4,2,1,40,0,0
6006,329.67032967033,4,2,1,40,1,0
6006,-101.1111111,4,2,1,40,0,0
7324,342.857142857143,4,2,1,40,1,0
7324,-97.22222222,4,2,1,40,0,0
8352,307.692307692308,4,2,1,40,1,0
8352,-108.3333333,4,2,1,40,0,0
8659,333.333333333333,4,2,1,40,1,0
8659,-100.0,4,2,1,40,0,0
19325,344.827586206897,4,2,1,40,1,0
19325,-96.66666667,4,2,1,40,0,0
30359,342.857142857143,4,2,1,40,1,0
30359,-97.22222222,4,2,1,40,0,0
33101,337.078651685393,4,2,1,40,1,0
33101,-98.88888889,4,2,1,40,0,0
35460,355.029585798817,4,2,1,40,1,0
35460,-93.88888889,4,2,1,40,0,0
35815,337.078651685393,4,2,1,40,1,0
35815,-98.88888889,4,2,1,40,0,0
43230,363.636363636364,4,2,1,40,1,0
43230,-91.66666667,4,2,1,40,0,0
43411,315.789473684211,4,2,1,40,1,0
43411,-105.5555556,4,2,1,40,0,0
43884,333.333333333333,4,2,1,40,1,1
43884,-100.0,4,2,1,40,0,1
78550,-100.0,4,2,1,40,0,0

[HitObjects]
192,192,536,1,0,0:0:0:0:
320,192,706,1,0,0:0:0:0:
192,192,877,1,0,0:0:0:0:
64,192,1048,1,0,0:0:0:0:
320,192,1390,1,0,0:0:0:0:
192,192,1561,1,0,0:0:0:0:
64,192,1732,1,0,0:0:0:0:
448,192,1732,1,0,0:0:0:0:
192,192,2245,128,0,2587:0:0:0:0:
320,192,2587,128,0,2758:0:0:0:0:
448,192,2929,128,0,3271:0:0:0:0:
192,192,3271,128,0,3612:0:0:0:0:
320,192,3612,128,0,3954:0:0:0:0:
64,192,3954,128,0,4296:0:0:0:0:
448,192,4296,128,0,4467:0:0:0:0:
192,192,4467,128,0,4809:0:0:0:0:
320,192,4809,128,0,4980:0:0:0:0:
448,192,5151,128,0,5664:0:0:0:0:
64,192,5835,128,0,6006:0:0:0:0:
320,192,6006,128,0,6335:0:0:0:0:
192,192,6335,128,0,6500:0:0:0:0:
448,192,6500,128,0,6830:0:0:0:0:
64,192,6830,1,2,0:0:0:0:
192,192,6830,1,0,0:0:0:0:
192,192,6995,1,8,0:0:0:0:
320,192,6995,1,0,0:0:0:0:
448,192,6995,1,0,0:0:0:0:
64,192,7159,1,2,0:0:0:0:
320,192,7159,1,0,0:0:0:0:
192,192,7666,128,0,8009:0:0:0:0:
448,192,8009,128,0,8659:0:0:0:0:
320,192,8352,1,0,0:0:0:0:
192,192,8428,1,0,0:0:0:0:
64,192,8505,1,0,0:0:0:0:
320,192,8582,1,0,0:0:0:0:
64,192,8659,128,2,9658:0:0:0:0:
192,192,8659,1,0,0:0:0:0:
448,192,8825,1,0,0:0:0:0:
192,192,8992,1,8,0:0:0:0:
320,192,8992,1,0,0:0:0:0:
448,192,9159,1,0,0:0:0:0:
320,192,9242,1,8,0:3:0:0:
192,192,9325,1,2,0:0:0:0:
448,192,9492,1,0,0:0:0:0:
192,192,9658,1,8,0:0:0:0:
320,192,9658,1,0,0:0:0:0:
448,192,9825,128,0,11325:0:0:0:0:
64,192,9992,1,2,0:0:0:0:
320,192,9992,1,0,0:0:0:0:
320,192,10158,1,0,0:0:0:0:
64,192,10325,1,8,0:0:0:0:
192,192,10325,1,0,0:0:0:0:
64,192,10492,1,0,0:0:0:0:
192,192,10658,1,2,0:0:0:0:
320,192,10658,1,0,0:0:0:0:
64,192,10825,1,0,0:0:0:0:
64,192,10992,1,8,0:0:0:0:
320,192,10992,1,0,0:0:0:0:
192,192,11158,1,0,0:0:0:0:
64,192,11325,1,2,0:0:0:0:
192,192,11325,1,0,0:0:0:0:
320,192,11492,1,0,0:0:0:0:
192,192,11658,1,8,0:0:0:0:
448,192,11658,1,0,0:0:0:0:
64,192,11825,1,0,0:0:0:0:
192,192,11908,1,8,0:3:0:0:
320,192,11992,1,2,0:0:0:0:
448,192,11992,1,0,0:0:0:0:
64,192,12158,1,0,0:0:0:0:
192,192,12325,1,8,0:0:0:0:
320,192,12325,1,0,0:0:0:0:
448,192,12492,1,0,0:0:0:0:
64,192,12658,1,2,0:0:0:0:
448,192,12658,1,0,0:0:0:0:
64,192,12825,1,0,0:0:0:0:
192,192,12992,1,8,0:0:0:0:
320,192,12992,1,0,0:0:0:0:
320,192,13158,1,0,0:0:0:0:
192,192,13325,1,2,0:0:0:0:
448,192,13325,1,0,0:0:0:0:
64,192,13492,1,0,0:0:0:0:
192,192,13658,1,8,0:0:0:0:
320,192,13658,1,4,0:0:0:0:
448,192,13658,1,0,0:0:0:0:
64,192,13825,1,8,0:3:0:0:
192,192,13908,1,8,0:3:0:0:
64,192,13992,1,4,0:3:0:0:
320,192,13992,1,2,0:0:0:0:
448,192,13992,1,0,0:0:0:0:
192,192,14158,1,0,0:0:0:0:
64,192,14325,1,8,0:0:0:0:
448,192,14325,1,0,0:0:0:0:
320,192,14492,1,0,0:0:0:0:
192,192,14658,1,2,0:0:0:0:
448,192,14658,1,0,0:0:0:0:
320,192,14825,1,0,0:0:0:0:
64,192,14992,1,8,0:0:0:0:
192,192,14992,1,0,0:0:0:0:
448,192,15158,1,0,0:0:0:0:
192,192,15325,1,2,0:0:0:0:
448,192,15325,1,0,0:0:0:0:
192,192,15492,1,0,0:0:0:0:
64,192,15658,1,8,0:0:0:0:
320,192,15658,1,0,0:0:0:0:
320,192,15825,1,0,0:0:0:0:
192,192,15908,1,8,0:3:0:0:
64,192,15992,1,2,0:0:0:0:
448,192,15992,1,0,0:0:0:0:
192,192,16158,1,0,0:0:0:0:
64,192,16325,1,8,0:0:0:0:
192,192,16325,1,0,0:0:0:0:
320,192,16492,1,0,0:0:0:0:
320,192,16658,1,2,0:0:0:0:
448,192,16658,1,0,0:0:0:0:
192,192,16825,1,0,0:0:0:0:
64,192,16992,1,8,0:0:0:0:
448,192,16992,1,0,0:0:0:0:
320,192,17158,1,0,0:0:0:0:
448,192,17242,1,8,0:3:0:0:
64,192,17325,1,2,0:0:0:0:
192,192,17325,1,0,0:0:0:0:
320,192,17492,1,0,0:0:0:0:
192,192,17658,1,8,0:0:0:0:
448,192,17658,1,0,0:0:0:0:
64,192,17825,1,0,0:0:0:0:
64,192,17992,1,2,0:0:0:0:
320,192,17992,1,0,0:0:0:0:
320,192,18158,1,8,0:3:0:0:
448,192,18158,1,0,0:0:0:0:
64,192,18325,1,8,0:0:0:0:
192,192,18325,1,4,0:0:0:0:
448,192,18325,1,0,0:0:0:0:
320,192,18492,1,0,0:0:0:0:
192,192,18575,1,0,0:0:0:50:tom01.wav
64,192,18658,1,0,0:0:0:50:tom02.wav
448,192,18825,1,0,0:0:0:50:tom02.wav
320,192,18908,1,2,0:0:0:0:
64,192,18992,1,8,0:0:0:0:
192,192,18992,1,0,0:0:0:0:
64,192,19158,1,2,0:0:0:0:
320,192,19158,1,0,0:0:0:0:
192,192,19325,1,2,0:0:0:0:
320,192,19325,1,4,0:0:0:0:
448,192,19325,128,0,19497:0:0:0:0:
64,192,19497,128,0,19669:0:0:0:0:
320,192,19669,128,8,19842:0:0:0:0:
448,192,19669,1,0,0:0:0:0:
64,192,19842,1,2,0:0:0:0:
192,192,19842,128,0,20014:0:0:0:0:
448,192,20014,128,0,20187:0:0:0:0:
64,192,20187,1,2,0:0:0:0:
320,192,20187,1,0,0:0:0:0:
192,192,20359,1,8,0:0:0:0:
320,192,20359,128,2,20704:0:3:0:0:
64,192,20704,128,2,21049:0:0:0:0:
448,192,20704,1,0,0:0:0:0:
192,192,21049,1,8,0:0:0:0:
448,192,21049,1,0,0:0:0:0:
320,192,21221,128,2,21393:0:0:0:0:
448,192,21221,1,0,0:0:0:0:
192,192,21393,128,0,21566:0:0:0:0:
64,192,21566,128,2,21738:0:0:0:0:
320,192,21566,1,0,0:0:0:0:
192,192,21738,1,8,0:0:0:0:
448,192,21738,128,2,21911:0:3:0:0:
64,192,21911,128,0,22083:0:0:0:0:
320,192,22083,128,2,22256:0:0:0:0:
448,192,22083,1,0,0:0:0:0:
192,192,22256,1,0,0:0:0:0:
64,192,22428,1,8,0:0:0:0:
448,192,22428,128,0,22773:0:0:0:0:
192,192,22600,1,2,0:0:0:0:
320,192,22600,1,0,0:0:0:0:
64,192,22773,128,0,22945:0:0:0:0:
320,192,22945,1,2,0:0:0:0:
448,192,22945,1,0,0:0:0:0:
64,192,23118,1,8,0:0:0:0:
320,192,23118,1,2,0:3:0:0:
192,192,23290,128,0,23635:0:0:0:0:
320,192,23462,1,2,0:0:0:0:
448,192,23462,128,0,23635:0:0:0:0:
64,192,23635,128,0,23807:0:0:0:0:
320,192,23807,128,8,24152:0:0:0:0:
448,192,23807,1,0,0:0:0:0:
64,192,23980,1,2,0:0:0:0:
192,192,23980,128,0,24152:0:0:0:0:
448,192,24152,1,0,0:0:0:0:
64,192,24325,1,2,0:0:0:0:
192,192,24325,1,0,0:0:0:0:
64,192,24497,1,8,0:0:0:0:
320,192,24497,1,2,0:3:0:0:
192,192,24842,1,2,0:0:0:0:
320,192,24842,128,4,25014:0:3:0:0:
448,192,24842,1,0,0:0:0:0:
64,192,25014,128,0,25187:0:0:0:0:
320,192,25187,1,8,0:0:0:0:
448,192,25187,128,0,25359:0:0:0:0:
64,192,25359,1,2,0:0:0:0:
192,192,25359,128,0,25531:0:0:0:0:
448,192,25531,128,0,25704:0:0:0:0:
192,192,25704,1,2,0:0:0:0:
320,192,25704,1,0,0:0:0:0:
64,192,25876,128,8,26221:0:0:0:0:
320,192,25876,1,2,0:3:0:0:
320,192,26221,128,2,26566:0:0:0:0:
448,192,26221,1,0,0:0:0:0:
64,192,26566,1,8,0:0:0:0:
192,192,26566,1,0,0:0:0:0:
64,192,26738,1,2,0:0:0:0:
448,192,26738,128,0,26911:0:0:0:0:
320,192,26911,128,0,27083:0:0:0:0:
64,192,27083,128,2,27256:0:0:0:0:
192,192,27083,1,0,0:0:0:0:
320,192,27256,1,8,0:0:0:0:
448,192,27256,128,2,27428:0:3:0:0:
192,192,27428,128,0,27600:0:0:0:0:
64,192,27600,128,2,27945:0:0:0:0:
448,192,27600,1,0,0:0:0:0:
320,192,27945,128,8,28118:0:0:0:0:
448,192,27945,1,0,0:0:0:0:
64,192,28118,1,2,0:0:0:0:
192,192,28118,1,0,0:0:0:0:
448,192,28290,128,0,28462:0:0:0:0:
192,192,28462,1,2,0:0:0:0:
320,192,28462,1,0,0:0:0:0:
64,192,28635,128,8,28807:0:0:0:0:
320,192,28635,1,2,0:3:0:0:
192,192,28807,128,0,28980:0:0:0:0:
64,192,28980,1,2,0:0:0:0:
320,192,28980,128,0,29325:0:0:0:0:
448,192,29152,1,0,0:0:0:0:
64,192,29325,1,8,0:0:0:0:
192,192,29325,1,0,0:0:0:0:
320,192,29497,1,2,0:0:0:0:
448,192,29497,128,0,29669:0:0:0:0:
64,192,29669,128,8,30359:0:3:0:0:
192,192,29669,1,0,0:0:0:0:
448,192,29842,1,8,0:3:0:0:
320,192,29928,1,0,0:0:0:50:tom02.wav
192,192,30014,1,0,0:0:0:50:tom03.wav
192,192,30359,1,2,0:0:0:0:
320,192,30359,1,4,0:0:0:0:
448,192,30359,1,0,0:0:0:0:
320,192,30701,128,0,31044:0:0:0:0:
192,192,30873,1,0,0:0:0:50:tom01.wav
64,192,31044,128,0,31387:0:0:0:0:
320,192,31387,1,0,0:0:0:50:tom03.wav
448,192,31387,128,0,31730:0:0:0:0:
192,192,31730,128,0,32073:0:0:0:0:
64,192,31901,1,8,0:3:0:0:
448,192,31901,1,0,0:0:0:0:
320,192,32073,128,0,32416:0:0:0:50:tom03.wav
64,192,32416,1,2,0:0:0:0:
192,192,32416,1,0,0:0:0:0:
448,192,32416,128,0,32759:0:0:0:0:
64,192,32759,128,2,33101:0:0:0:0:
192,192,32759,1,4,0:3:0:0:
320,192,32759,1,0,0:0:0:0:
192,192,33101,1,2,0:0:0:0:
320,192,33101,1,4,0:0:0:0:
448,192,33101,1,0,0:0:0:0:
192,192,33438,128,0,33775:0:0:0:0:
320,192,33606,1,0,0:0:0:50:tom01.wav
448,192,33775,128,0,34112:0:0:0:0:
64,192,34112,128,0,34449:0:0:0:50:tom03.wav
192,192,34112,1,0,0:0:0:0:
320,192,34449,128,2,34786:0:0:0:0:
64,192,34617,1,8,0:3:0:0:
448,192,34617,1,0,0:0:0:0:
192,192,34786,128,0,35123:0:0:0:50:tom01.wav
320,192,34954,1,2,0:0:0:0:
64,192,35123,128,2,35460:0:0:0:0:
448,192,35123,1,4,0:0:0:0:
192,192,35460,1,4,0:3:0:0:
320,192,35460,1,2,0:0:0:0:
448,192,35460,128,0,35815:0:0:0:0:
64,192,35815,1,2,0:0:0:0:
192,192,35815,1,4,0:0:0:0:
320,192,35815,1,0,0:0:0:0:
192,192,36152,128,8,36320:0:0:0:0:
448,192,36152,1,0,0:0:0:0:
64,192,36320,128,0,36489:0:0:0:0:
320,192,36489,128,2,36657:0:0:0:0:
448,192,36489,1,0,0:0:0:0:
64,192,36657,1,2,0:0:0:0:
192,192,36657,128,0,36826:0:0:0:0:
320,192,36826,1,8,0:0:0:0:
448,192,36826,128,2,36994:0:3:0:0:
64,192,36994,128,0,37163:0:0:0:0:
192,192,37163,128,2,37331:0:0:0:0:
448,192,37163,1,0,0:0:0:0:
64,192,37331,1,2,0:0:0:0:
320,192,37331,128,0,37500:0:0:0:0:
192,192,37500,1,8,0:0:0:0:
448,192,37500,1,0,0:0:0:0:
64,192,37668,128,0,37837:0:0:0:0:
192,192,37837,1,2,0:0:0:0:
448,192,37837,128,0,38006:0:0:0:0:
64,192,38006,1,2,0:0:0:0:
320,192,38006,128,0,38174:0:0:0:0:
192,192,38174,128,8,38343:0:0:0:0:
448,192,38174,1,0,0:0:0:0:
64,192,38343,128,0,38511:0:0:0:0:
320,192,38511,1,2,0:0:0:0:
448,192,38511,128,0,38848:0:0:0:0:
192,192,38848,1,8,0:0:0:0:
320,192,38848,1,2,0:3:0:0:
64,192,39017,128,0,39185:0:0:0:0:
192,192,39185,1,8,0:0:0:0:
448,192,39185,1,0,0:0:0:0:
320,192,39354,1,2,0:0:0:0:
448,192,39354,1,0,0:0:0:0:
64,192,39522,1,8,0:0:0:0:
320,192,39522,1,0,0:0:0:0:
64,192,39691,1,2,0:0:0:0:
192,192,39691,1,0,0:0:0:0:
320,192,39859,1,8,0:0:0:0:
448,192,39859,1,0,0:0:0:0:
64,192,40028,1,2,0:0:0:0:
448,192,40028,1,0,0:0:0:0:
64,192,40197,1,8,0:0:0:0:
192,192,40197,1,0,0:0:0:0:
192,192,40365,1,2,0:0:0:0:
448,192,40365,1,0,0:0:0:0:
64,192,40534,1,8,0:0:0:0:
320,192,40534,1,0,0:0:0:0:
320,192,40702,1,2,0:0:0:0:
448,192,40702,1,0,0:0:0:0:
64,192,40871,1,8,0:0:0:0:
192,192,40871,1,0,0:0:0:0:
448,192,41039,1,0,0:0:0:0:
64,192,41208,128,2,42219:0:0:0:0:
192,192,41208,1,0,0:0:0:0:
320,192,41208,1,0,0:0:0:0:
448,192,41882,1,0,0:0:0:50:tom01.wav
448,192,42050,1,0,0:0:0:0:
320,192,42219,1,12,0:0:0:0:
192,192,42303,1,0,0:0:0:0:
320,192,42388,1,2,0:0:0:0:
192,192,42472,1,0,0:0:0:0:
64,192,42556,1,2,0:0:0:0:
448,192,42556,1,0,0:0:0:0:
192,192,42725,1,2,0:0:0:0:
320,192,42725,1,2,0:3:0:0:
448,192,42725,1,0,0:0:0:0:
64,192,42893,128,0,43230:0:0:0:0:
448,192,43230,128,0,43411:0:0:0:0:
320,192,43411,1,2,0:0:0:0:
192,192,43489,1,2,0:0:0:0:
64,192,43568,1,8,0:0:0:0:
320,192,43568,1,4,0:3:0:0:
448,192,43568,1,0,0:0:0:0:
64,192,43884,1,2,0:0:0:0:
320,192,43884,1,4,0:0:0:0:
448,192,43884,128,0,44050:0:0:0:0:
192,192,44050,1,0,0:0:0:0:
320,192,44217,128,8,44384:0:0:0:0:
448,192,44217,1,0,0:0:0:0:
64,192,44384,1,0,0:0:0:0:
192,192,44550,128,2,44717:0:0:0:0:
320,192,44550,1,0,0:0:0:0:
448,192,44717,1,0,0:0:0:0:
64,192,44884,128,8,45050:0:0:0:0:
192,192,44884,1,0,0:0:0:0:
320,192,45050,128,0,45217:0:0:0:0:
64,192,45217,1,2,0:0:0:0:
448,192,45217,1,0,0:0:0:0:
192,192,45384,128,0,45550:0:0:0:0:
64,192,45550,1,8,0:0:0:0:
320,192,45550,1,0,0:0:0:0:
448,192,45717,128,0,45884:0:0:0:0:
192,192,45884,1,2,0:0:0:0:
320,192,45884,1,0,0:0:0:0:
64,192,46050,1,0,0:0:0:0:
192,192,46217,1,8,0:0:0:0:
448,192,46217,1,0,0:0:0:0:
320,192,46384,1,0,0:0:0:0:
64,192,46550,128,2,46884:0:0:0:0:
448,192,46550,1,0,0:0:0:0:
192,192,46717,1,0,0:0:0:0:
320,192,46884,128,8,47050:0:0:0:0:
448,192,46884,1,0,0:0:0:0:
192,192,47050,1,8,0:3:0:0:
64,192,47134,1,8,0:3:0:0:
320,192,47217,1,2,0:0:0:0:
448,192,47217,1,0,0:0:0:0:
192,192,47384,128,0,47550:0:0:0:0:
320,192,47550,1,8,0:0:0:0:
448,192,47550,128,0,47717:0:0:0:0:
64,192,47717,128,0,47883:0:0:0:0:
192,192,47883,1,2,0:0:0:0:
448,192,47883,1,0,0:0:0:0:
320,192,48050,128,0,48217:0:0:0:0:
64,192,48217,128,8,48383:0:0:0:0:
192,192,48217,1,0,0:0:0:0:
448,192,48383,128,0,48550:0:0:0:0:
64,192,48550,1,2,0:0:0:0:
320,192,48550,1,0,0:0:0:0:
192,192,48717,128,0,48883:0:0:0:0:
320,192,48883,1,8,0:0:0:0:
448,192,48883,1,0,0:0:0:0:
64,192,49050,128,0,49883:0:0:0:0:
192,192,49217,1,2,0:0:0:0:
448,192,49217,1,4,0:3:0:0:
448,192,49383,1,0,0:0:0:0:
192,192,49550,1,8,0:0:0:0:
320,192,49550,1,0,0:0:0:0:
192,192,49717,1,0,0:0:0:0:
320,192,49883,1,2,0:0:0:0:
448,192,49883,1,0,0:0:0:0:
192,192,49967,1,8,0:3:0:0:
64,192,50050,1,8,0:3:0:0:
320,192,50217,1,8,0:0:0:0:
448,192,50217,1,0,0:0:0:0:
448,192,50383,1,0,0:0:0:0:
192,192,50550,1,2,0:0:0:0:
320,192,50550,1,0,0:0:0:0:
320,192,50717,1,0,0:0:0:0:
64,192,50883,1,8,0:0:0:0:
192,192,50883,1,0,0:0:0:0:
192,192,51050,1,8,0:3:0:0:
320,192,51133,1,8,0:3:0:0:
64,192,51217,1,2,0:0:0:0:
448,192,51217,1,0,0:0:0:0:
64,192,51383,1,0,0:0:0:0:
192,192,51550,1,8,0:0:0:0:
320,192,51550,1,0,0:0:0:0:
320,192,51717,1,0,0:0:0:0:
64,192,51883,128,2,52217:0:0:0:0:
192,192,51883,1,4,0:3:0:0:
448,192,51883,1,0,0:0:0:0:
320,192,52217,1,0,0:0:0:0:
448,192,52217,1,0,0:0:0:0:
64,192,52383,1,8,0:0:0:0:
192,192,52383,128,4,52717:0:0:0:0:
64,192,52717,1,0,0:0:0:0:
448,192,52717,1,0,0:0:0:0:
192,192,52883,1,8,0:0:0:0:
320,192,52883,128,4,53050:0:3:0:0:
448,192,53050,128,0,53217:0:0:0:0:
64,192,53217,1,0,0:0:0:0:
192,192,53217,1,0,0:0:0:0:
64,192,53383,1,8,0:0:0:0:
320,192,53383,1,4,0:0:0:0:
448,192,53383,1,0,0:0:0:0:
192,192,53550,1,2,0:0:0:0:
320,192,53550,1,0,0:0:0:0:
64,192,53717,1,0,0:0:0:0:
448,192,53883,1,0,0:0:0:50:tom01.wav
192,192,54050,1,8,0:3:0:0:
320,192,54133,1,8,0:3:0:0:
448,192,54217,1,8,0:3:0:0:
192,192,54300,1,8,0:3:0:0:
64,192,54383,1,8,0:3:0:0:
320,192,54467,1,8,0:3:0:0:
64,192,54550,128,2,54717:0:0:0:0:
192,192,54550,1,4,0:0:0:0:
448,192,54550,1,0,0:0:0:0:
320,192,54717,1,0,0:0:0:0:
64,192,54883,1,8,0:0:0:0:
192,192,54883,128,0,55050:0:0:0:0:
448,192,55050,1,0,0:0:0:0:
192,192,55217,1,2,0:0:0:0:
320,192,55217,128,0,55383:0:0:0:0:
64,192,55383,1,0,0:0:0:0:
320,192,55550,1,8,0:0:0:0:
448,192,55550,128,0,55717:0:0:0:0:
192,192,55717,128,0,55883:0:0:0:0:
64,192,55883,1,2,0:0:0:0:
448,192,55883,1,0,0:0:0:0:
320,192,56050,128,0,56217:0:0:0:0:
192,192,56217,1,8,0:0:0:0:
448,192,56217,1,0,0:0:0:0:
64,192,56383,128,0,56550:0:0:0:0:
192,192,56550,1,2,0:0:0:0:
320,192,56550,1,0,0:0:0:0:
448,192,56717,1,0,0:0:0:0:
64,192,56883,1,8,0:0:0:0:
320,192,56883,1,0,0:0:0:0:
192,192,57050,1,0,0:0:0:0:
320,192,57217,1,2,0:0:0:0:
448,192,57217,128,4,57550:0:3:0:0:
192,192,57383,1,0,0:0:0:0:
64,192,57550,128,8,57717:0:0:0:0:
320,192,57550,1,0,0:0:0:0:
192,192,57717,128,0,57883:0:0:0:0:
320,192,57883,1,2,0:0:0:0:
448,192,57883,1,0,0:0:0:0:
64,192,57967,1,8,0:3:0:0:
320,192,58050,128,8,58217:0:3:0:0:
64,192,58217,1,8,0:0:0:0:
192,192,58217,1,0,0:0:0:0:
448,192,58383,128,0,58717:0:0:0:0:
64,192,58550,1,2,0:0:0:0:
320,192,58550,1,0,0:0:0:0:
192,192,58717,128,0,58883:0:0:0:0:
64,192,58883,128,8,59883:0:0:0:0:
448,192,58883,1,0,0:0:0:0:
192,192,59050,1,8,0:3:0:0:
320,192,59133,1,8,0:3:0:0:
448,192,59217,1,2,0:0:0:0:
320,192,59383,1,0,0:0:0:0:
448,192,59467,1,0,0:0:0:0:
192,192,59550,1,8,0:0:0:0:
448,192,59717,1,0,0:0:0:0:
192,192,59883,1,2,0:0:0:0:
320,192,59883,1,4,0:0:0:0:
448,192,59883,1,0,0:0:0:0:
320,192,60050,128,0,60217:0:0:0:0:
64,192,60217,1,8,0:0:0:0:
192,192,60217,128,0,60550:0:0:0:0:
448,192,60217,1,0,0:0:0:0:
448,192,60383,1,0,0:0:0:0:
64,192,60550,1,2,0:0:0:0:
320,192,60550,1,0,0:0:0:0:
192,192,60717,1,0,0:0:0:0:
320,192,60883,1,8,0:0:0:0:
448,192,60883,1,0,0:0:0:0:
448,192,61050,1,0,0:0:0:0:
64,192,61217,1,2,0:0:0:0:
192,192,61217,1,0,0:0:0:0:
192,192,61383,1,0,0:0:0:0:
64,192,61550,1,8,0:0:0:0:
320,192,61550,1,0,0:0:0:0:
320,192,61717,1,0,0:0:0:0:
64,192,61883,1,2,0:0:0:0:
448,192,61883,1,0,0:0:0:0:
64,192,62050,1,0,0:0:0:0:
192,192,62217,1,8,0:0:0:0:
448,192,62217,1,0,0:0:0:0:
192,192,62383,1,0,0:0:0:0:
64,192,62550,128,2,62883:0:0:0:0:
448,192,62550,1,0,0:0:0:0:
320,192,62717,1,0,0:0:0:0:
192,192,62883,1,8,0:0:0:0:
448,192,62883,1,0,0:0:0:0:
64,192,63050,128,0,63383:0:0:0:0:
320,192,63217,1,2,0:0:0:0:
448,192,63217,1,0,0:0:0:0:
192,192,63383,128,0,63550:0:0:0:0:
64,192,63550,1,8,0:0:0:0:
320,192,63550,128,0,63717:0:0:0:0:
448,192,63717,128,0,63883:0:0:0:0:
64,192,63883,1,2,0:0:0:0:
192,192,63883,1,0,0:0:0:0:
320,192,64050,1,8,0:0:0:0:
448,192,64050,1,4,0:3:0:0:
64,192,64217,1,4,0:3:0:0:
192,192,64217,1,8,0:0:0:0:
448,192,64217,1,0,0:0:0:0:
192,192,64383,1,2,0:0:0:0:
320,192,64383,1,0,0:0:0:0:
64,192,64550,1,8,0:0:0:0:
320,192,64550,1,0,0:0:0:0:
448,192,64550,1,0,0:0:0:0:
192,192,64717,1,0,0:0:0:50:tom01.wav
64,192,64800,1,0,0:0:0:50:tom02.wav
448,192,64883,128,0,65217:0:0:0:50:tom03.wav
192,192,65217,128,2,65550:0:0:0:0:
320,192,65217,1,0,0:0:0:0:
64,192,65550,1,2,0:0:0:0:
448,192,65550,1,0,0:0:0:0:
64,192,65717,128,8,66050:0:0:0:0:
192,192,65717,1,2,0:3:0:0:
320,192,65717,1,0,0:0:0:0:
192,192,66050,1,2,0:0:0:0:
448,192,66050,1,0,0:0:0:0:
64,192,66217,1,8,0:0:0:0:
320,192,66217,1,2,0:3:0:0:
448,192,66217,1,0,0:0:0:0:
64,192,66383,1,2,0:0:0:0:
192,192,66383,1,0,0:0:0:0:
320,192,66550,1,8,0:0:0:0:
448,192,66550,1,0,0:0:0:0:
192,192,66633,1,0,0:0:0:50:tom01.wav
64,192,66717,1,0,0:0:0:50:tom02.wav
448,192,66800,1,0,0:0:0:50:tom03.wav
192,192,66883,1,2,0:0:0:0:
320,192,66883,1,0,0:0:0:0:
64,192,67050,1,8,0:0:0:0:
192,192,67050,1,4,0:3:0:0:
448,192,67050,1,0,0:0:0:0:
320,192,67217,128,0,67383:0:0:0:0:
64,192,67383,1,2,0:0:0:0:
192,192,67383,1,0,0:0:0:0:
64,192,67550,1,8,0:0:0:0:
320,192,67550,1,4,0:3:0:0:
448,192,67550,1,0,0:0:0:0:
192,192,67717,1,2,0:0:0:0:
320,192,67717,1,0,0:0:0:0:
64,192,67883,1,2,0:0:0:0:
192,192,67883,1,4,0:0:0:0:
448,192,67883,128,0,68217:0:0:0:0:
64,192,68217,1,2,0:0:0:0:
320,192,68217,1,0,0:0:0:0:
192,192,68300,1,0,0:0:0:50:tom01.wav
64,192,68383,1,0,0:0:0:50:tom02.wav
320,192,68467,1,0,0:0:0:50:tom03.wav
192,192,68550,1,2,0:0:0:0:
448,192,68550,1,0,0:0:0:0:
64,192,68717,128,0,69050:0:0:0:0:
320,192,68883,1,2,0:0:0:0:
448,192,68883,1,0,0:0:0:0:
192,192,69050,1,0,0:0:0:50:tom03.wav
320,192,69133,1,0,0:0:0:50:tom04.wav
64,192,69217,1,2,0:0:0:0:
192,192,69217,128,4,69550:0:0:0:0:
448,192,69217,1,0,0:0:0:0:
448,192,69550,1,0,0:0:0:50:tom01.wav
320,192,69633,1,0,0:0:0:50:tom01.wav
64,192,69717,1,0,0:0:0:50:tom02.wav
192,192,69800,1,0,0:0:0:50:tom02.wav
320,192,69883,1,8,0:0:0:0:
448,192,69883,1,0,0:0:0:0:
192,192,69967,1,0,0:0:0:50:tom03.wav
64,192,70050,1,0,0:0:0:50:tom04.wav
320,192,70133,1,2,0:0:0:0:
192,192,70217,128,8,70383:0:0:0:0:
448,192,70217,1,0,0:0:0:0:
64,192,70383,128,2,70550:0:0:0:0:
192,192,70550,1,2,0:0:0:0:
320,192,70550,1,4,0:0:0:0:
448,192,70550,128,0,70883:0:0:0:0:
64,192,70883,128,8,71050:0:0:0:0:
320,192,70883,1,0,0:0:0:0:
192,192,71050,128,0,71217:0:0:0:0:
320,192,71217,1,2,0:0:0:0:
448,192,71217,1,0,0:0:0:0:
64,192,71383,1,2,0:0:0:0:
192,192,71383,1,0,0:0:0:0:
64,192,71550,1,8,0:0:0:0:
448,192,71550,128,0,71883:0:0:0:0:
64,192,71883,1,2,0:0:0:0:
320,192,71883,1,0,0:0:0:0:
192,192,72050,1,2,0:0:0:0:
448,192,72050,1,0,0:0:0:0:
320,192,72217,1,8,0:0:0:0:
448,192,72217,1,0,0:0:0:0:
64,192,72383,128,2,72717:0:0:0:0:
192,192,72383,1,0,0:0:0:0:
192,192,72717,1,2,0:0:0:0:
448,192,72717,1,0,0:0:0:0:
320,192,72883,1,8,0:0:0:0:
448,192,72883,1,0,0:0:0:0:
192,192,73050,128,0,73217:0:0:0:0:
64,192,73217,1,2,0:0:0:0:
448,192,73217,1,0,0:0:0:0:
320,192,73383,1,0,0:0:0:0:
192,192,73467,1,0,0:0:0:0:
64,192,73550,1,2,0:0:0:0:
448,192,73550,1,0,0:0:0:0:
192,192,73717,1,8,0:0:0:0:
320,192,73717,1,2,0:3:0:0:
448,192,73717,1,0,0:0:0:0:
64,192,74050,1,2,0:0:0:0:
320,192,74050,1,0,0:0:0:0:
64,192,74217,1,8,0:0:0:0:
192,192,74217,1,2,0:3:0:0:
448,192,74217,1,0,0:0:0:0:
320,192,74383,1,2,0:0:0:0:
448,192,74383,1,0,0:0:0:0:
192,192,74550,128,0,74717:0:0:0:50:tom01.wav
64,192,74717,1,8,0:3:0:0:
448,192,74717,1,0,0:0:0:0:
320,192,74883,1,8,0:3:0:0:
448,192,74883,1,0,0:0:0:0:
64,192,75050,1,8,0:3:0:0:
320,192,75050,1,0,0:0:0:0:
192,192,75133,1,8,0:3:0:0:
64,192,75217,1,8,0:3:0:0:
448,192,75300,1,8,0:3:0:0:
320,192,75383,1,8,0:3:0:0:
64,192,75467,1,2,0:0:0:0:
192,192,75550,1,8,0:0:0:0:
320,192,75550,128,4,75717:0:0:0:0:
448,192,75550,1,0,0:0:0:0:
64,192,75717,128,0,75883:0:0:0:0:
192,192,75883,1,4,0:3:0:0:
320,192,75883,1,2,0:0:0:0:
448,192,75883,128,0,76217:0:0:0:0:
192,192,76217,128,0,76383:0:0:0:0:
64,192,76383,128,0,76883:0:0:0:50:tom01.wav
448,192,76717,1,0,0:0:0:50:tom02.wav
320,192,76883,128,0,77050:0:0:0:50:tom03.wav
448,192,77050,128,0,77217:0:0:0:0:
64,192,77217,1,2,0:0:0:0:
192,192,77217,128,4,77550:0:3:0:0:
320,192,77217,1,0,0:0:0:0:
64,192,77550,128,0,77717:0:0:0:0:
320,192,77717,128,0,78050:0:0:0:0:
192,192,78050,1,2,0:0:0:0:
64,192,78133,1,2,0:0:0:0:
192,192,78217,1,8,0:0:0:0:
320,192,78217,1,4,0:0:0:0:
448,192,78217,1,0,0:0:0:0:
448,192,78383,128,0,81217:0:0:0:0:
64,192,78550,1,4,0:0:0:0:
192,192,78550,1,2,0:0:0:0:
320,192,78550,1,0,0:0:0:0:
64,192,78883,1,8,0:0:0:0:
192,192,78883,1,0,0:0:0:0:
320,192,79217,1,2,0:0:0:0:
192,192,79383,1,2,0:0:0:0:
64,192,79550,1,8,0:0:0:0:
320,192,79550,1,0,0:0:0:0:
192,192,79883,1,2,0:0:0:0:
64,192,80050,1,2,0:0:0:0:
192,192,80217,1,8,0:0:0:0:
320,192,80217,1,0,0:0:0:0:
64,192,80550,1,2,0:0:0:0:
192,192,80717,1,2,0:0:0:0:
64,192,80883,1,8,0:0:0:0:
320,192,80883,1,0,0:0:0:0:
64,192,81217,1,8,0:0:0:0:
192,192,81217,1,4,0:3:0:0:
320,192,81217,1,0,0:0:0:0:
320,192,81550,1,2,0:0:0:0:
448,192,81550,1,0,0:0:0:0:
64,192,81717,1,8,0:0:0:0:
192,192,81717,1,4,0:0:0:0:
448,192,81717,1,0,0:0:0:0:
192,192,82050,1,2,0:0:0:0:
320,192,82050,1,0,0:0:0:0:
64,192,82217,1,8,0:0:0:0:
320,192,82217,1,4,0:3:0:0:
448,192,82217,1,0,0:0:0:0:
64,192,82550,1,2,0:0:0:0:
192,192,82550,1,0,0:0:0:0:
192,192,82717,1,4,0:0:0:0:
320,192,82717,1,8,0:0:0:0:
448,192,82717,1,0,0:0:0:0:
64,192,83050,1,2,0:0:0:0:
448,192,83050,1,0,0:0:0:0:
64,192,83217,1,8,0:0:0:0:
192,192,83217,1,2,0:3:0:0:
320,192,83217,1,0,0:0:0:0:
192,192,83383,1,2,0:0:0:0:
448,192,83383,1,0,0:0:0:0:
320,192,83550,1,8,0:0:0:0:
448,192,83550,1,0,0:0:0:0:
64,192,83717,1,2,0:0:0:0:
192,192,83717,1,4,0:3:0:0:
320,192,83717,1,0,0:0:0:0:
