osu file format v14

[General]
AudioFilename: audio.mp3
AudioLeadIn: 0
PreviewTime: 42600
Countdown: 0
SampleSet: Soft
StackLeniency: 0.7
Mode: 0
LetterboxInBreaks: 0
WidescreenStoryboard: 1

[Editor]
Bookmarks: 243,8366,19032,30066,40915,43601,54267,64934,75600,78267,88924,99958,110824,113507,124173,134840,142840,145506,153506,164172,169494,174827,180160,190827,201493,204160,213493
DistanceSpacing: 0.9
BeatDivisor: 4
GridSize: 32
TimelineZoom: 2.300004

[Metadata]
Title:ALIVE
TitleUnicode:ALIVE
Artist:ClariS
ArtistUnicode:ClariS
Creator:RiverKnowFarm
Version:Surac's Insane
Source:リコリス・リコイル
Tags:リコリコ lycoris recoil rikoriko lyco reco lycoreco anime opening op theme full ver version j-pop japanese pop jpop female vocals vocalist 井ノ上 たきな Inoue Takina 錦木 千束 Nishikigi Chisato clara karen wei_0921 yuri yahuri surac
BeatmapID:3925741
BeatmapSetID:1894823

[Difficulty]
HPDrainRate:5
CircleSize:3.8
OverallDifficulty:7.5
ApproachRate:9
SliderMultiplier:1.4
SliderTickRate:1

[Events]
//Background and Video events
0,0,"bg.jpg",0,0
//Break Periods
2,145706,152906
//Storyboard Layer 0 (Background)
//Storyboard Layer 1 (Fail)
//Storyboard Layer 2 (Pass)
//Storyboard Layer 3 (Foreground)
//Storyboard Layer 4 (Overlay)
//Storyboard Sound Samples

[TimingPoints]
243,341.880341880341,4,2,2,40,1,0
243,-125,4,2,2,40,0,0
1439,-142.857142857143,4,2,2,40,0,0
1952,-125,4,2,2,40,0,0
2978,-133.333333333333,4,2,2,40,0,0
5713,329.67032967033,4,2,2,50,1,0
5713,-117.647058823529,4,2,2,50,0,0
6537,-117.647058823529,4,2,2,60,0,0
7031,342.857142857143,4,2,2,60,1,0
7716,-111.111111111111,4,2,2,60,0,0
8059,307.692307692308,4,2,2,60,1,0
8059,-105.263157894737,4,2,2,60,0,0
8366,333.333333333333,4,2,2,70,1,0
16615,-100,4,2,2,5,0,0
16699,-100,4,2,2,70,0,0
18949,-100,4,2,2,5,0,0
19032,344.827586206897,4,2,2,60,1,0
19032,-111.111111111111,4,2,2,60,0,0
19979,-111.111111111111,4,2,2,5,0,0
20066,-111.111111111111,4,2,2,60,0,0
22048,-111.111111111111,4,2,2,5,0,0
22135,-111.111111111111,4,2,2,60,0,0
23945,-111.111111111111,4,2,2,5,0,0
24032,-111.111111111111,4,2,2,60,0,0
25496,-111.111111111111,4,2,2,5,0,0
25583,-111.111111111111,4,2,2,60,0,0
27565,-111.111111111111,4,2,2,5,0,0
27652,-111.111111111111,4,2,2,60,0,0
28687,357.142857142858,4,2,2,60,1,0
28687,-111.111111111111,4,2,2,60,0,0
29044,331.491712707183,4,2,2,60,1,0
29376,344.827586206897,4,2,2,60,1,0
30066,342.857142857143,4,2,2,70,1,0
30066,-125,4,2,2,70,0,0
32123,-100,4,2,2,70,0,0
32380,-100,4,2,2,5,0,0
32466,-100,4,2,2,70,0,0
32723,-100,4,2,2,5,0,0
32808,337.078651685393,4,2,2,70,1,0
32808,-125,4,2,2,70,0,0
34830,352.941176470588,4,2,2,70,1,0
35094,-100,4,2,2,5,0,0
35182,340.909090909091,4,2,2,70,1,0
35182,-90.9090909090909,4,2,2,70,0,0
35437,-90.9090909090909,4,2,2,5,0,0
35522,337.078651685393,4,2,2,70,1,0
38218,-95.2380952380952,4,2,2,70,0,0
39566,-90.9090909090909,4,2,2,70,0,0
42937,377.358490566038,4,2,2,80,1,0
43126,303.030303030304,4,2,2,80,1,0
43277,324.324324324325,4,2,2,80,1,0
43277,-71.4285714285714,4,2,2,80,0,0
43520,-71.4285714285714,4,2,2,5,0,0
43601,333.333333333333,4,2,2,80,1,1
43601,-83.3333333333333,4,2,2,80,0,1
47684,-83.3333333333333,4,2,2,5,0,1
47767,-83.3333333333333,4,2,2,80,0,1
51517,-83.3333333333333,4,2,2,5,0,1
51600,-83.3333333333333,4,2,2,80,0,1
52350,-83.3333333333333,4,2,2,5,0,1
52434,-83.3333333333333,4,2,2,80,0,1
54517,-83.3333333333333,4,2,2,5,0,1
54600,-83.3333333333333,4,2,2,80,0,1
54766,-83.3333333333333,4,2,22,80,0,1
56850,-83.3333333333333,4,2,22,5,0,1
56934,-83.3333333333333,4,2,22,80,0,1
57184,-83.3333333333333,4,2,22,5,0,1
57267,-83.3333333333333,4,2,22,80,0,1
58517,-83.3333333333333,4,2,22,5,0,1
58600,-83.3333333333333,4,2,22,80,0,1
59850,-83.3333333333333,4,2,22,5,0,1
59934,-83.3333333333333,4,2,22,80,0,1
60100,-83.3333333333333,4,2,2,80,0,1
62184,-83.3333333333333,4,2,2,5,0,1
62267,-83.3333333333333,4,2,2,80,0,1
63017,-83.3333333333333,4,2,2,5,0,1
63100,-83.3333333333333,4,2,2,80,0,1
64934,-90.9090909090909,4,2,2,80,0,1
65684,-90.9090909090909,4,2,2,5,0,1
65767,-90.9090909090909,4,2,2,80,0,1
67850,-90.9090909090909,4,2,2,5,0,1
67934,-90.9090909090909,4,2,2,80,0,1
70267,-83.3333333333333,4,2,2,80,0,1
70517,-83.3333333333333,4,2,2,5,0,1
70600,-83.3333333333333,4,2,2,80,0,1
71517,-83.3333333333333,4,2,2,5,0,1
71600,-83.3333333333333,4,2,2,80,0,1
72350,-83.3333333333333,4,2,2,5,0,1
72434,-83.3333333333333,4,2,2,80,0,1
75600,-166.666666666667,4,2,2,70,0,0
78267,-100,4,2,2,70,0,0
78517,-100,4,2,2,5,0,0
78600,-100,4,2,2,70,0,0
83850,-100,4,2,2,5,0,0
83934,-100,4,2,2,70,0,0
86517,-100,4,2,2,5,0,0
86600,-100,4,2,2,70,0,0
88924,344.827586206897,4,2,2,50,1,0
88924,-142.857142857143,4,2,2,50,0,0
91682,-111.111111111111,4,2,2,50,0,0
94441,-105.263157894737,4,2,2,60,0,0
96510,357.142857142858,4,2,2,60,1,0
96867,361.445783132531,4,2,2,60,1,0
97199,344.827586206897,4,2,2,60,1,0
97543,-105.263157894737,4,2,2,60,0,0
98923,-100,4,2,2,60,0,0
99870,-100,4,2,2,5,0,0
99958,342.857142857143,4,2,2,70,1,0
99958,-111.111111111111,4,2,2,70,0,0
100215,-111.111111111111,4,2,2,5,0,0
100300,-111.111111111111,4,2,2,70,0,0
102015,-90.9090909090909,4,2,2,70,0,0
102272,-90.9090909090909,4,2,2,5,0,0
102358,-90.9090909090909,4,2,2,70,0,0
102615,-90.9090909090909,4,2,2,5,0,0
102700,340.909090909091,4,2,2,70,1,0
103040,-111.111111111111,4,2,2,70,0,0
104745,-90.9090909090909,4,2,2,70,0,0
105000,-90.9090909090909,4,2,2,5,0,0
105086,-90.9090909090909,4,2,2,70,0,0
105431,337.078651685393,4,2,2,70,1,0
108127,-95.2380952380952,4,2,2,70,0,0
109138,320.855614973262,4,2,2,70,1,0
109458,355.029585798816,4,2,2,70,1,0
109458,-90.9090909090909,4,2,2,70,0,0
109813,337.078651685393,4,2,2,70,1,0
109981,-90.9090909090909,4,2,2,70,0,0
110824,337.078651685393,4,2,2,70,1,0
110824,-90.9090909090909,4,2,2,70,0,0
112761,-90.9090909090909,4,2,2,5,0,0
112842,335.195530726257,4,2,2,80,1,0
113009,331.491712707182,4,2,2,80,1,0
113091,-100,4,2,2,5,0,0
113174,-71.4285714285714,4,2,2,80,0,0
113422,-71.4285714285714,4,2,2,5,0,0
113507,333.333333333333,4,2,2,80,1,1
113507,-83.3333333333333,4,2,2,80,0,1
116090,-83.3333333333333,4,2,2,5,0,1
116173,-83.3333333333333,4,2,2,80,0,1
117590,-83.3333333333333,4,2,2,5,0,1
117673,-83.3333333333333,4,2,2,80,0,1
121423,-83.3333333333333,4,2,2,5,0,1
121506,-83.3333333333333,4,2,2,80,0,1
122256,-83.3333333333333,4,2,2,5,0,1
122340,-83.3333333333333,4,2,2,80,0,1
124672,-83.3333333333333,4,2,22,80,0,1
126756,-83.3333333333333,4,2,22,5,0,1
126840,-83.3333333333333,4,2,22,80,0,1
128423,-83.3333333333333,4,2,22,5,0,1
128506,-83.3333333333333,4,2,22,80,0,1
129756,-83.3333333333333,4,2,22,5,0,1
129840,-83.3333333333333,4,2,22,80,0,1
130006,-83.3333333333333,4,2,2,80,0,1
132090,-83.3333333333333,4,2,2,5,0,1
132173,-83.3333333333333,4,2,2,80,0,1
132923,-83.3333333333333,4,2,2,5,0,1
133006,-83.3333333333333,4,2,2,80,0,1
134840,-90.9090909090909,4,2,2,80,0,1
135590,-90.9090909090909,4,2,2,5,0,1
135673,-90.9090909090909,4,2,2,80,0,1
137756,-90.9090909090909,4,2,2,5,0,1
137840,-90.9090909090909,4,2,2,80,0,1
140173,-83.3333333333333,4,2,2,80,0,1
140423,-83.3333333333333,4,2,2,5,0,1
140506,-83.3333333333333,4,2,2,80,0,1
141423,-83.3333333333333,4,2,2,5,0,1
141506,-83.3333333333333,4,2,2,80,0,1
142256,-83.3333333333333,4,2,2,5,0,1
142340,-83.3333333333333,4,2,2,80,0,1
142840,-83.3333333333333,4,2,2,40,0,0
153506,-125,4,2,2,60,0,0
158173,327.868852459016,4,2,2,60,1,0
158502,333.333333333333,4,2,2,60,1,0
158502,-125,4,2,2,60,0,0
158835,333.333333333333,4,2,2,70,1,0
158835,-111.111111111111,4,2,2,70,0,0
159835,327.868852459016,4,2,2,70,1,0
159835,-111.111111111111,4,2,2,70,0,0
160162,333.333333333333,4,2,2,70,1,0
160162,-111.111111111111,4,2,2,70,0,0
161173,333.333333333333,4,2,2,70,1,0
161173,-111.111111111111,4,2,2,70,0,0
161506,333.333333333333,4,2,2,70,1,0
161506,-111.111111111111,4,2,2,70,0,0
162672,-100,4,2,2,70,0,0
166840,350.877192982456,4,2,2,80,1,0
168769,333.333333333333,4,2,2,80,1,0
168769,-90.9090909090909,4,2,2,80,0,0
169102,392.156862745098,4,2,2,80,1,0
169494,333.333333333333,4,2,2,80,1,0
169494,-142.857142857143,4,2,2,80,0,0
170994,-100,4,2,2,80,0,0
172160,-117.647058823529,4,2,2,80,0,0
173660,-90.9090909090909,4,2,2,80,0,0
174827,-83.3333333333333,4,2,2,90,0,1
175077,-83.3333333333333,4,2,2,5,0,1
175160,-83.3333333333333,4,2,2,90,0,1
177410,-83.3333333333333,4,2,2,5,0,1
177494,-83.3333333333333,4,2,2,90,0,1
178244,-83.3333333333333,4,2,2,5,0,1
178327,-83.3333333333333,4,2,2,90,0,1
180410,-83.3333333333333,4,2,2,5,0,1
180494,-83.3333333333333,4,2,2,90,0,1
180660,-83.3333333333333,4,2,22,90,0,1
182744,-83.3333333333333,4,2,22,5,0,1
182827,-83.3333333333333,4,2,22,90,0,1
183077,-83.3333333333333,4,2,22,5,0,1
183160,-83.3333333333333,4,2,22,90,0,1
185743,-83.3333333333333,4,2,22,5,0,1
185827,-83.3333333333333,4,2,22,90,0,1
185993,-83.3333333333333,4,2,2,90,0,1
188077,-83.3333333333333,4,2,2,5,0,1
188160,-83.3333333333333,4,2,2,90,0,1
188910,-83.3333333333333,4,2,2,5,0,1
188993,-83.3333333333333,4,2,2,90,0,1
190827,-90.9090909090909,4,2,2,90,0,1
191577,-90.9090909090909,4,2,2,5,0,1
191660,-90.9090909090909,4,2,2,90,0,1
193743,-90.9090909090909,4,2,2,5,0,1
193827,-90.9090909090909,4,2,2,90,0,1
196160,-83.3333333333333,4,2,2,90,0,1
196410,-83.3333333333333,4,2,2,5,0,1
196493,-83.3333333333333,4,2,2,90,0,1
197410,-83.3333333333333,4,2,2,5,0,1
197493,-83.3333333333333,4,2,2,90,0,1
198243,-83.3333333333333,4,2,2,5,0,1
198327,-83.3333333333333,4,2,2,90,0,1
201493,-166.666666666667,4,2,2,80,0,0
203827,-100,4,2,2,80,0,0
204077,-100,4,2,2,5,0,0
204160,-90.9090909090909,4,2,2,80,0,0
207327,-86.9565217391304,4,2,2,80,0,0
210827,-86.9565217391304,4,2,2,70,0,0
211493,-86.9565217391304,4,2,2,60,0,0
212160,-86.9565217391304,4,2,2,50,0,0
212493,-86.9565217391304,4,2,2,40,0,0
212827,-86.9565217391304,4,2,2,30,0,0
213160,-86.9565217391304,4,2,2,20,0,0
213327,-86.9565217391304,4,2,2,10,0,0
213493,-86.9565217391304,4,2,2,5,0,0

[Colours]
Combo1 : 254,234,199
Combo2 : 105,123,250
Combo3 : 255,189,157
Combo4 : 244,138,138

[HitObjects]
67,101,243,6,0,P|70:73|61:38,3,56,2|2|2|2,2:0|2:0|2:0|2:0,2:0:0:0:
163,29,1097,2,0,P|157:57|161:85,1,56,2|2,2:0|2:0,2:0:0:0:
172,176,1439,2,0,P|124:176|77:190,1,97.9999999999999,2|0,2:0|2:0,2:0:0:0:
281,265,1952,6,0,B|253:279|242:306|242:306|240:277|218:252,2,112,2|2|2,2:0|2:0|2:0,2:0:0:0:
467,328,2978,6,0,B|383:313|409:357|314:340|314:340|342:329|357:293,1,210.000000000001,2|2,2:0|2:0,2:0:0:0:
365,217,4003,1,2,2:0:0:0:
258,164,4174,2,0,P|272:216|281:280,1,105,2|2,2:0|2:0,2:0:0:0:
410,123,4858,2,0,B|315:119|369:69|259:65,1,157.5,2|0,2:0|2:0,2:0:0:0:
269,65,5542,1,2,2:0:0:0:
93,40,5713,6,0,P|134:33|167:30,2,59.5000000000002,2|0|2,2:0|2:0|2:0,2:0:0:0:
24,122,6207,2,0,P|42:167|49:227,1,89.2500000000003,2|0,2:0|2:0,2:0:0:0:
54,238,6537,1,0,1:0:0:0:
160,154,6702,1,8,2:0:0:0:
176,281,6866,1,0,1:0:0:0:
176,281,7716,6,0,L|218:275,3,31.5,2|0|0|0,2:0|2:0|2:0|2:0,2:0:0:0:
266,338,8059,2,0,L|298:343,3,33.25,2|0|0|0,2:0|2:0|2:0|2:0,2:0:0:0:
372,217,8366,6,0,B|349:245|353:281|353:281|374:298|378:331,1,105,6|0,1:2|2:0,2:0:0:0:
413,380,8699,2,0,P|449:386|507:368,1,70,8|2,2:0|2:1,2:0:0:0:
512,370,8949,1,8,2:0:0:0:
512,370,9032,2,0,B|503:301|503:301|496:299|496:299|488:236,1,140,0|8,1:0|2:0,2:0:0:0:
454,144,9532,1,2,2:1:0:0:
305,139,9699,6,0,P|340:132|379:129,1,70,2|2,1:2|2:1,2:0:0:0:
424,11,10032,1,10,2:0:0:0:
297,22,10199,2,0,P|235:33|216:103,1,140,2|2,2:1|2:1,2:0:0:0:
245,219,10699,2,0,P|210:212|171:209,1,70,10|2,2:0|2:1,2:0:0:0:
24,134,11032,5,2,1:2:0:0:
101,206,11199,1,2,2:1:0:0:
39,295,11365,2,0,B|28:329|28:329|55:367,1,70,8|2,2:0|2:1,2:0:0:0:
70,381,11615,1,8,2:0:0:0:
70,381,11699,2,0,P|138:366|207:358,1,140,2|8,1:2|2:0,2:0:0:0:
301,315,12199,1,2,2:1:0:0:
335,166,12365,6,0,P|317:196|322:240,1,70,2|2,1:2|2:1,2:0:0:0:
404,353,12699,1,10,2:0:0:0:
465,201,12865,2,0,B|436:222|438:263|438:263|423:224|389:209,1,140,2|2,2:1|2:1,2:0:0:0:
252,102,13365,1,12,2:0:0:0:
286,90,13449,1,8,0:0:0:0:
319,81,13532,1,8,2:0:0:0:
353,77,13615,1,8,2:0:0:0:
388,74,13699,6,0,P|423:67|462:64,1,70,6|2,1:2|2:1,2:0:0:0:
245,8,14032,2,0,B|172:1|172:1|169:7|169:7|101:-2,1,140,8|0,2:0|1:0,2:0:0:0:
128,148,14532,2,0,P|146:118|141:74,1,70,2|8,2:1|2:0,2:0:0:0:
0,38,14865,1,2,2:1:0:0:
0,38,14949,1,0,2:0:0:0:
0,38,15032,6,0,P|10:76|15:114,1,70,2|2,1:2|2:1,2:0:0:0:
3,223,15365,1,10,2:0:0:0:
158,230,15532,2,0,B|106:224|77:266|77:266|104:279|117:316,1,140,2|2,2:1|2:1,2:0:0:0:
2,342,16032,2,0,L|37:338,3,35,8|0|2|0,2:0|2:0|2:1|2:0,2:0:0:0:
171,377,16365,6,0,P|214:337|273:348,1,105,2|0,1:2|2:0,2:0:0:0:
326,384,16699,2,0,P|360:384|390:366,1,70,8|2,2:0|2:1,2:0:0:0:
418,344,16949,1,8,2:0:0:0:
418,344,17032,1,0,1:0:0:0:
319,215,17199,2,0,P|326:250|329:289,1,70,2|8,2:1|2:0,2:0:0:0:
426,214,17532,5,2,2:1:0:0:
338,116,17699,1,2,1:2:0:0:
224,174,17865,1,10,2:1:0:0:
309,12,18032,5,14,2:0:0:0:
441,72,18199,1,8,2:3:0:0:
441,72,18282,1,8,2:3:0:0:
441,72,18365,2,0,L|434:122,1,35,4|0,2:3|2:0,2:0:0:0:
319,215,18532,1,4,2:3:0:0:
338,116,18699,2,0,P|276:107|208:100,1,105,8|0,2:0|2:0,2:0:0:0:
149,82,19032,6,0,P|112:85|83:90,1,63.0000000000001,2|2,1:2|2:0,2:0:0:0:
40,167,19376,2,0,P|77:170|106:175,1,63.0000000000001,10|2,2:0|1:2,2:0:0:0:
185,178,19721,2,0,P|140:208|138:259,1,94.5000000000001,2|0,2:0|2:0,2:0:0:0:
133,322,20066,2,0,P|110:303|63:299,1,63.0000000000001,10|0,2:1|2:0,2:0:0:0:
212,330,20411,6,0,B|283:310|272:357|347:337,1,126,2|8,1:2|2:0,2:0:0:0:
396,259,20928,1,2,1:2:0:0:
339,204,21100,2,0,P|319:228|314:259,1,63.0000000000001,2|2,2:0|1:2,2:0:0:0:
414,362,21445,2,0,P|448:350|499:351,1,63.0000000000001,10|0,2:1|2:0,2:0:0:0:
512,258,21790,6,0,P|509:215|500:156,1,94.5000000000001,2|0,1:2|2:0,2:0:0:0:
449,73,22135,2,0,B|454:85|475:85|475:85|457:93|446:105,1,63.0000000000001,10|0,2:0|1:0,2:0:0:0:
338,29,22480,2,0,B|301:3|249:18|249:18|239:38|206:48,1,126,2|10,2:0|2:1,2:0:0:0:
200,143,22997,1,2,2:0:0:0:
281,155,23169,6,0,B|299:128|299:128|288:94,1,63.0000000000001,2|2,1:2|2:0,2:0:0:0:
194,55,23514,1,10,2:0:0:0:
161,157,23687,2,0,P|172:219|178:275,1,94.5000000000001,2|0,1:2|2:0,2:0:0:0:
181,286,24032,1,0,1:0:0:0:
67,166,24204,2,0,P|35:161|4:158,1,63.0000000000001,10|0,2:1|2:0,2:0:0:0:
181,286,24549,6,0,P|204:267|251:263,1,63.0000000000001,2|2,1:2|2:0,2:0:0:0:
305,195,24894,2,0,P|328:214|375:218,1,63.0000000000001,10|2,2:0|1:2,2:0:0:0:
348,330,25238,2,0,P|383:300|430:296,1,94.5000000000001,2|0,2:0|2:0,2:0:0:0:
487,353,25583,2,0,P|506:330|510:283,1,63.0000000000001,10|0,2:1|2:0,2:0:0:0:
411,171,25928,6,0,P|423:242|429:298,1,126,2|10,1:2|2:0,2:0:0:0:
498,208,26445,1,2,1:2:0:0:
406,138,26618,1,2,2:0:0:0:
508,68,26790,1,2,1:2:0:0:
384,25,26963,2,0,B|350:13|350:13|319:31,1,63.0000000000001,10|2,2:1|2:0,2:0:0:0:
323,137,27307,6,0,B|279:162|279:162|228:148,1,94.5000000000001,2|0,1:2|2:0,2:0:0:0:
161,68,27652,2,0,B|160:84|167:104|167:104|175:88|196:78,1,63.0000000000001,10|0,2:0|1:0,2:0:0:0:
73,28,27997,2,0,P|47:17|-8:22,1,63.0000000000001,2|0,2:0|1:0,2:0:0:0:
11,125,28342,1,10,2:1:0:0:
93,227,28514,1,2,2:0:0:0:
18,353,28687,6,0,B|64:321|103:334|103:334|116:357|146:366,1,125.999996154785,2|10,1:2|2:1,2:0:0:0:
287,349,29209,1,2,1:2:0:0:
177,282,29376,1,10,2:0:0:0:
281,228,29548,1,8,2:3:0:0:
281,228,29634,1,4,2:3:0:0:
281,228,29720,1,4,2:3:0:0:
204,369,29893,1,0,2:0:0:0:
376,384,30066,6,0,P|431:373|497:369,1,112,4|2,1:2|2:0,2:0:0:0:
442,187,30580,2,0,P|389:212|377:274,1,112,8|0,2:3|2:0,2:0:0:0:
247,105,31094,2,0,B|302:98|302:98|307:106|307:106|360:100,1,112,6|2,2:3|2:0,2:0:0:0:
353,100,31608,1,8,2:0:0:0:
151,87,31780,2,0,P|157:128|160:167,1,56,6|0,2:3|2:0,2:0:0:0:
327,211,32123,6,0,B|266:207|284:239|212:235,1,105,6|0,1:2|2:0,2:0:0:0:
149,300,32466,2,0,B|98:295|98:295|93:303|93:303|42:298,1,105,6|0,1:2|2:0,2:0:0:0:
53,162,32808,6,0,B|16:163|-4:198|-4:198|23:211|34:245,1,112,4|2,1:2|2:0,2:0:0:0:
149,300,33313,2,0,B|176:305|200:304|200:304|210:319|210:319|234:318|259:324,1,112,8|0,2:3|2:0,2:0:0:0:
392,222,33819,2,0,B|360:235|348:258|348:258|342:232|319:205,1,112,6|2,2:3|1:2,2:0:0:0:
323,210,34324,1,8,2:0:0:0:
439,140,34493,2,0,P|480:134|519:131,1,56,6|4,2:3|2:3,2:0:0:0:
298,26,34830,6,0,P|338:67|321:129,1,105,6|0,1:2|2:0,2:0:0:0:
252,174,35182,2,0,B|195:167|195:167|189:164|189:164|112:155,1,115.5,6|0,1:2|2:0,2:0:0:0:
64,85,35522,6,0,B|20:146|20:146|57:226,1,140,4|10,1:2|2:0,2:0:0:0:
117,344,36027,1,2,2:0:0:0:
246,264,36196,1,2,1:2:0:0:
135,238,36364,1,2,1:2:0:0:
223,384,36533,2,0,P|260:378|303:374,1,70,10|2,2:0|2:0,2:0:0:0:
451,328,36870,1,2,1:2:0:0:
419,138,37038,6,0,P|373:162|349:254,1,140,2|2,1:2|2:0,2:0:0:0:
368,348,37544,1,2,1:2:0:0:
440,230,37713,1,2,1:2:0:0:
280,109,37881,1,14,2:0:0:0:
346,241,38050,1,2,2:0:0:0:
469,52,38218,6,0,P|414:41|311:32,1,147,6|10,1:2|2:1,2:0:0:0:
166,41,38724,1,2,2:0:0:0:
250,171,38892,2,0,P|275:143|279:107,1,73.5,10|0,2:1|1:0,2:0:0:0:
69,76,39229,1,10,2:1:0:0:
107,254,39398,1,0,1:0:0:0:
16,190,39566,6,0,P|43:165|86:162,1,77,10|0,2:1|1:0,2:0:0:0:
200,254,39904,1,10,2:1:0:0:
13,349,40072,2,0,P|16:304|14:258,1,77,2|10,1:2|2:1,2:0:0:0:
174,98,40409,2,0,P|167:142|164:188,1,77,2|10,1:2|2:1,2:0:0:0:
184,348,40746,1,2,2:0:0:0:
337,245,40915,6,0,B|299:212|237:226|237:226|223:250|194:255,1,154,6|0,1:2|2:0,2:0:0:0:
312,342,41420,1,0,2:0:0:0:
425,301,41589,2,0,L|419:255,3,38.5,8|8|4|0,2:3|2:3|2:3|1:0,2:0:0:0:
512,148,41926,1,10,2:0:0:0:
512,148,42010,1,0,2:0:0:0:
512,148,42095,2,0,L|507:187,1,38.5,0|0,1:0|2:0,2:0:0:0:
324,22,42263,1,8,2:0:0:0:
377,166,42432,1,10,2:0:0:0:
486,51,42600,5,2,2:0:0:0:
246,178,42937,5,2,2:0:0:0:
288,93,43126,2,0,L|247:88,1,35,0|0,1:0|1:0,2:0:0:0:
144,55,43277,2,0,P|157:127|164:200,1,147,10|0,2:0|2:0,2:0:0:0:
126,272,43601,6,0,P|165:281|208:268,1,84,6|2,1:2|2:1,2:0:0:0:
61,70,43934,2,0,B|36:114|36:114|54:155,1,84,10|2,2:0|2:1,2:0:0:0:
246,178,44267,2,0,P|284:169|329:167,1,84,2|2,1:2|2:1,2:0:0:0:
495,85,44601,1,10,2:0:0:0:
395,0,44767,6,0,B|352:52|375:100|375:100|414:123|414:178,1,168,2|2,2:1|2:1,2:0:0:0:
512,256,45267,1,8,2:0:0:0:
381,316,45434,2,0,P|329:308|268:303,1,84,2|0,2:1|1:0,2:0:0:0:
214,321,45767,1,2,2:1:0:0:
264,186,45934,2,0,B|204:186|184:222|184:222|208:242|215:280,1,126,8|0,2:0|2:0,2:0:0:0:
132,287,46267,6,0,B|24:273|24:273|64:261|89:223,1,168,2|10,1:2|2:0,2:0:0:0:
0,138,46767,2,0,L|6:192,2,42,2|8|0,2:1|2:0|1:0,2:0:0:0:
23,28,47100,1,2,2:1:0:0:
125,166,47267,1,10,2:0:0:0:
181,22,47434,6,0,P|239:10|308:6,1,126,2|0,2:1|2:0,2:0:0:0:
336,0,47767,1,2,2:1:0:0:
261,118,47934,1,10,2:0:0:0:
421,160,48101,2,0,P|434:113|408:60,1,84,2|0,2:1|1:0,2:0:0:0:
261,118,48434,2,0,P|269:170|274:231,1,84,2|8,2:1|2:0,2:0:0:0:
446,280,48767,1,2,2:1:0:0:
446,280,48851,1,0,2:0:0:0:
446,280,48934,6,0,B|406:262|359:283|371:290|327:317|276:296,2,168,6|8|0,1:2|2:0|1:0,2:0:0:0:
373,376,49767,1,2,2:1:0:0:
227,363,49934,6,0,P|178:356|127:350,1,84,10|2,2:0|2:1,2:0:0:0:
13,358,50267,2,0,P|43:319|73:278,1,84,2|2,1:2|2:1,2:0:0:0:
125,176,50600,2,0,P|143:221|164:268,1,84,10|2,2:0|2:1,2:0:0:0:
170,281,50850,1,8,2:0:0:0:
170,281,50934,1,2,1:2:0:0:
269,180,51100,1,2,2:1:0:0:
159,96,51267,2,0,B|121:70|69:90|69:90|53:110|26:118,1,126,10|0,2:0|2:0,2:0:0:0:
19,123,51600,5,6,1:2:0:0:
169,14,51767,2,0,P|208:0|248:10,1,84,0|0,2:0|1:0,2:0:0:0:
351,193,52100,2,0,P|304:129|328:82,1,126,14|0,2:0|2:0,2:0:0:0:
332,66,52434,1,2,1:2:0:0:
472,164,52600,1,14,2:0:0:0:
383,294,52767,1,2,2:0:0:0:
429,51,52934,6,0,P|478:44|529:38,1,84,0|14,1:0|2:0,2:0:0:0:
351,193,53267,2,0,P|302:186|251:180,1,84,0|0,1:0|1:0,2:0:0:0:
166,141,53600,1,8,2:3:0:0:
268,270,53767,1,8,2:3:0:0:
332,66,53934,1,8,2:3:0:0:
332,66,54017,1,4,2:3:0:0:
332,66,54100,2,0,L|325:9,1,42,4|4,2:3|2:3,2:0:0:0:
239,35,54267,6,0,B|176:27|176:27|172:18|172:18|94:9,1,126,6|0,1:2|2:0,2:0:0:0:
36,56,54600,2,0,B|11:100|11:100|29:141,1,84,10|2,2:0|2:1,2:0:0:0:
184,281,54934,2,0,P|233:274|284:268,1,84,2|2,1:2|2:1,2:0:0:0:
170,132,55267,1,10,2:0:0:0:
15,223,55434,6,0,B|13:283|47:328|47:328|68:301|109:286,1,168,2|2,2:1|2:1,2:0:0:0:
240,198,55934,1,8,2:0:0:0:
200,384,56100,2,0,P|151:377|100:371,1,84,2|0,2:1|1:0,2:0:0:0:
139,199,56434,1,2,2:1:0:0:
276,305,56600,2,0,P|342:294|401:287,1,126,8|0,2:0|2:0,2:0:0:0:
478,349,56934,6,0,B|509:310|496:271|496:271|462:248|456:203,1,126,2|0,1:2|2:0,2:0:0:0:
449,209,57267,1,10,2:0:0:0:
331,138,57434,2,0,P|338:187|344:238,1,84,2|0,2:1|1:0,2:0:0:0:
346,251,57684,1,8,2:0:0:0:
346,251,57767,1,2,2:1:0:0:
419,121,57934,1,8,2:0:0:0:
240,198,58100,1,2,2:1:0:0:
196,54,58267,6,0,P|262:43|321:36,1,126,2|0,1:2|2:0,2:0:0:0:
351,33,58600,1,10,2:0:0:0:
240,198,58767,2,0,L|234:156,2,42,2|2|0,2:1|2:1|1:0,2:0:0:0:
121,70,59100,1,2,2:1:0:0:
53,208,59267,1,10,2:0:0:0:
160,295,59434,1,2,2:1:0:0:
240,198,59600,6,0,B|201:167|162:180|162:180|139:214|94:220,1,126,6|0,1:2|2:0,2:0:0:0:
96,140,59934,2,0,P|47:133|-4:127,1,84,10|2,2:0|2:1,2:0:0:0:
130,299,60267,2,0,P|179:292|230:286,1,84,0|2,1:0|2:1,2:0:0:0:
0,285,60600,6,0,P|8:330|10:374,1,84,10|2,2:0|2:1,2:0:0:0:
196,376,60934,2,0,B|240:372|240:372|248:377|248:377|297:371,1,84,2|2,1:2|2:1,2:0:0:0:
283,153,61267,2,0,B|252:190|252:190|277:229,1,84,10|2,2:0|2:1,2:0:0:0:
365,303,61600,1,2,1:2:0:0:
495,227,61767,1,2,2:1:0:0:
414,110,61934,2,0,B|386:124|373:159|373:159|373:122|351:97,1,126,10|0,2:0|2:0,2:0:0:0:
285,35,62267,6,0,B|253:15|205:27|178:68|178:68|196:88|197:117,1,168,6|8,1:2|2:0,2:0:0:0:
114,252,62767,2,0,P|180:241|239:234,1,126,6|0,2:1|2:0,2:0:0:0:
269,230,63100,1,2,2:1:0:0:
163,336,63267,1,10,2:0:0:0:
116,161,63434,1,2,2:1:0:0:
42,301,63600,5,2,1:2:0:0:
203,137,63767,1,14,2:0:0:0:
259,339,63934,2,0,P|308:332|359:326,1,84,14|0,2:0|1:0,2:0:0:0:
425,79,64267,2,0,P|386:65|346:75,1,84,10|8,2:0|2:3,2:0:0:0:
433,294,64600,2,0,P|473:304|512:290,1,84,10|4,2:3|2:3,2:0:0:0:
381,158,64934,6,0,B|381:196|348:225|348:225|300:210|292:154,1,154,6|2,1:2|1:2,2:0:0:0:
216,58,65434,2,0,P|149:48|95:43,1,115.5,14|0,2:0|2:0,2:0:0:0:
69,37,65767,1,2,1:2:0:0:
151,206,65934,2,0,P|173:176|174:137,1,77,14|0,2:0|1:0,2:0:0:0:
0,111,66267,6,0,L|8:177,2,38.5,10|0|8,2:0|2:0|2:3,2:0:0:0:
72,189,66600,1,2,1:2:0:0:
0,353,66767,2,0,B|54:320|99:335|99:335|116:367|161:373,1,154,14|0,2:0|1:0,2:0:0:0:
200,229,67267,2,0,P|170:263|171:301,1,77,10|0,2:0|1:0,2:0:0:0:
259,382,67600,6,0,P|320:373|384:374,1,115.5,6|0,1:2|2:0,2:0:0:0:
468,384,67934,2,0,L|462:337,3,38.5,10|8|6|4,2:3|2:3|2:3|2:3,2:0:0:0:
349,277,68267,2,0,P|354:232|361:173,1,77,0|2,1:0|2:0,2:0:0:0:
493,182,68600,1,0,1:0:0:0:
493,182,68684,1,0,1:0:0:0:
493,182,68767,2,0,L|486:125,1,38.5,6|4,2:3|2:3,2:0:0:0:
503,24,68934,6,0,B|467:55|421:45,1,77,4|0,1:2|2:0,2:0:0:0:
399,41,69184,1,0,2:0:0:0:
399,41,69267,2,0,L|333:32,1,38.5,8|0,2:3|2:0,2:0:0:0:
316,180,69434,2,0,L|251:189,1,38.5,8|8,2:3|2:3,2:0:0:0:
209,74,69600,2,0,L|143:65,3,38.5,8|8|8|0,2:0|2:3|2:3|1:0,2:0:0:0:
192,159,69934,5,10,2:0:0:0:
281,26,70100,1,2,1:2:0:0:
32,13,70267,6,0,P|55:75|64:151,1,126,6|0,1:2|2:0,2:0:0:0:
64,170,70600,1,10,2:1:0:0:
192,159,70767,2,0,P|183:207|179:259,1,84,2|2,2:0|1:0,2:0:0:0:
67,356,71100,1,0,1:0:0:0:
1,272,71267,2,0,B|39:246|91:266|91:266|107:286|134:294,1,126,10|0,2:1|2:0,2:0:0:0:
179,341,71600,6,0,P|209:363|267:362,2,84,2|2|10,1:0|1:2|2:1,2:0:0:0:
304,197,72100,2,0,B|258:187|219:233|219:233|237:253|237:268,1,126,2|0,1:2|2:0,2:0:0:0:
241,287,72434,1,2,1:2:0:0:
360,367,72600,1,10,2:1:0:0:
508,313,72767,1,2,2:0:0:0:
403,151,72934,6,0,P|410:200|416:251,1,84,2|0,1:0|2:0,2:0:0:0:
418,262,73184,1,0,2:0:0:0:
418,262,73267,1,0,1:0:0:0:
512,82,73434,2,0,B|514:35|481:6|481:6|428:21|416:82,1,168,10|0,2:1|1:0,2:0:0:0:
328,180,73934,2,0,P|279:173|228:167,1,84,10|0,2:1|1:0,2:0:0:0:
173,31,74267,5,10,2:3:0:0:
292,98,74434,1,8,2:0:0:0:
159,201,74600,2,0,P|143:249|172:301,1,84,8|8,2:0|2:0,2:0:0:0:
178,300,74850,1,8,2:0:0:0:
178,300,74934,2,0,L|243:291,3,42,10|8|4|0,2:0|2:3|2:3|1:0,2:0:0:0:
218,384,75267,5,10,2:0:0:0:
31,289,75434,1,2,2:0:0:0:
166,103,75600,6,0,B|191:96|190:77|167:63|137:62|111:78|87:99|78:143|78:143|57:100|19:85,1,251.999999999999,6|6,1:2|2:3,2:0:0:0:
219,253,76934,6,0,B|197:222|212:177|263:159|275:169|316:178|374:138|327:75,1,251.999999999999,6|12,1:2|2:0,2:0:0:0:
512,190,78267,6,0,P|502:254|497:310,1,105,6|0,1:2|2:0,2:0:0:0:
441,369,78600,2,0,P|408:355|373:353,1,70,10|0,2:1|1:0,2:0:0:0:
346,359,78850,1,0,2:0:0:0:
346,359,78934,1,2,1:0:0:0:
365,236,79100,1,0,1:0:0:0:
260,294,79267,2,0,P|225:300|191:294,1,70,10|0,2:1|1:0,2:0:0:0:
127,131,79600,6,0,P|134:166|137:205,1,70,2|2,1:2|1:2,2:0:0:0:
219,96,79934,1,10,2:0:0:0:
101,27,80100,2,0,B|49:21|20:63|20:63|47:76|60:113,1,140,6|2,1:2|1:2,2:0:0:0:
206,9,80600,2,0,P|241:2|280:-1,1,70,10|2,2:1|2:0,2:0:0:0:
439,0,80934,5,2,1:2:0:0:
362,72,81100,1,0,1:0:0:0:
424,161,81267,2,0,B|435:195|435:195|408:233,1,70,10|0,2:1|2:0,2:0:0:0:
403,252,81517,1,8,2:0:0:0:
403,252,81600,1,2,1:0:0:0:
307,354,81767,1,0,1:0:0:0:
262,213,81934,2,0,P|232:195|188:200,1,70,10|2,2:1|2:0,2:0:0:0:
71,366,82267,6,0,P|106:359|145:356,1,70,2|2,1:2|1:2,2:0:0:0:
215,276,82600,1,10,2:0:0:0:
107,147,82767,2,0,B|78:178|83:230|83:230|112:251|112:276,1,140,6|0,1:2|1:0,2:0:0:0:
12,140,83267,1,10,2:1:0:0:
23,106,83350,1,2,2:0:0:0:
46,80,83434,1,2,2:0:0:0:
78,65,83517,1,2,2:0:0:0:
113,64,83600,6,0,P|166:54|228:54,1,105,2|0,1:2|2:0,2:0:0:0:
282,2,83934,2,0,P|298:50|289:86,1,70,10|8,2:1|2:0,2:0:0:0:
291,95,84184,1,8,2:0:0:0:
291,95,84267,1,2,1:0:0:0:
419,45,84434,1,0,1:0:0:0:
470,185,84600,2,0,P|422:169|386:178,1,70,10|2,2:1|1:2,2:0:0:0:
371,177,84850,1,0,2:0:0:0:
371,177,84934,5,2,1:2:0:0:
330,276,85100,1,2,1:2:0:0:
426,252,85267,1,10,2:0:0:0:
274,177,85434,2,0,P|233:237|243:324,1,140,6|2,1:2|1:2,2:0:0:0:
169,366,85934,2,0,L|115:359,3,35,10|0|2|0,2:1|2:0|2:0|2:0,2:0:0:0:
1,384,86267,6,0,B|24:356|20:320|20:320|-1:303|-5:270,1,105,2|0,1:2|2:0,2:0:0:0:
75,259,86600,2,0,P|108:252|144:251,1,70,10|0,2:1|2:0,2:0:0:0:
175,249,86850,1,8,2:0:0:0:
175,249,86934,1,2,1:0:0:0:
183,129,87100,1,0,1:0:0:0:
36,115,87267,2,0,B|25:149|25:149|52:187,1,70,10|2,2:1|2:0,2:0:0:0:
196,40,87600,5,2,1:2:0:0:
85,10,87767,1,2,1:2:0:0:
161,157,87934,1,10,2:0:0:0:
278,126,88100,1,6,1:2:0:0:
278,126,88184,1,0,2:0:0:0:
278,126,88267,2,0,L|285:188,1,35,0|0,2:0|2:0,2:0:0:0:
304,279,88434,5,8,2:0:0:0:
441,131,88600,1,8,2:0:0:0:
171,287,88924,6,0,B|206:276|205:256|216:240|216:240|220:263|208:281|227:312|238:342|266:359|266:359|307:320|304:277,1,294,6|2,1:2|2:0,2:0:0:0:
446,141,90303,6,0,B|470:104|503:101|503:101|450:66|393:106|415:119|355:154|296:121,1,294,6|2,1:2|2:0,2:0:0:0:
174,79,91682,6,0,B|209:40|254:51|254:51|232:65|225:84,1,126,2|2,1:2|2:0,2:0:0:0:
228,76,92199,1,0,1:0:0:0:
131,150,92372,2,0,P|64:137|-1:133,1,126,10|0,2:0|2:0,2:0:0:0:
148,234,92889,1,0,1:0:0:0:
231,184,93061,6,0,P|269:176|309:174,1,63.0000000000001,2|2,2:0|2:0,2:0:0:0:
249,279,93406,1,2,2:0:0:0:
342,266,93579,2,0,P|407:277|473:292,1,126,2|0,1:2|1:0,2:0:0:0:
465,290,94096,1,8,2:0:0:0:
485,96,94441,6,0,P|477:134|474:179,1,66.4999999999999,2|2,1:2|2:0,2:0:0:0:
387,155,94786,2,0,P|395:117|397:74,1,66.4999999999999,2|2,2:0|2:0,2:0:0:0:
512,14,95130,2,0,P|449:14|378:-1,1,133,10|2,2:0|2:0,2:0:0:0:
380,0,95648,1,0,1:0:0:0:
319,88,95820,6,0,P|284:71|232:79,1,66.4999999999999,2|0,2:0|1:0,2:0:0:0:
222,0,96165,2,0,P|187:17|135:9,1,66.4999999999999,0|2,1:0|2:0,2:0:0:0:
157,120,96510,2,0,P|98:74|23:90,1,140,8|2,2:0|2:0,2:0:0:0:
36,81,97047,1,2,2:0:0:0:
48,179,97199,5,2,1:2:0:0:
48,179,97371,1,0,1:0:0:0:
158,142,97543,2,0,P|150:180|146:229,1,66.4999999999999,2|0,2:0|2:0,2:0:0:0:
61,284,97888,2,0,P|57:250|50:218,1,66.4999999999999,8|0,2:0|2:0,2:0:0:0:
139,306,98233,1,2,2:0:0:0:
215,357,98405,1,2,2:0:0:0:
307,197,98578,5,2,1:2:0:0:
222,238,98750,1,0,1:0:0:0:
319,319,98923,2,0,P|357:313|409:307,1,70,8|10,2:0|2:3,2:0:0:0:
419,305,99181,1,8,2:3:0:0:
419,305,99267,1,2,1:2:0:0:
512,361,99440,1,0,1:0:0:0:
497,257,99612,2,0,B|490:205|490:205|486:200|486:200|476:122,1,105,8|0,2:0|2:0,2:0:0:0:
419,86,99958,6,0,B|384:93|365:123|365:123|389:135|398:163,1,94.5000000000001,4|0,1:2|2:0,2:0:0:0:
400,173,100300,1,2,1:2:0:0:
302,221,100472,2,0,P|226:210|151:203,1,126,8|0,2:0|1:0,2:0:0:0:
226,62,100986,2,0,P|244:86|245:125,1,63.0000000000001,10|0,2:0|1:0,2:0:0:0:
75,184,101329,1,2,1:2:0:0:
147,108,101500,1,8,2:0:0:0:
59,68,101672,2,0,P|74:40|108:20,1,63.0000000000001,2|8,1:2|2:0,2:0:0:0:
41,205,102015,6,0,B|19:243|38:285|38:285|63:299|66:328,1,115.5,6|0,1:2|2:0,2:0:0:0:
143,347,102358,2,0,B|213:338|213:338|218:343|218:343|277:336,1,115.5,6|0,1:2|2:0,2:0:0:0:
282,334,102700,5,6,1:2:0:0:
282,334,103040,2,0,P|329:324|369:323,1,63.0000000000001,10|8,2:3|2:3,2:0:0:0:
330,165,103381,2,0,P|315:210|296:245,1,63.0000000000001,6|4,2:3|2:3,2:0:0:0:
452,291,103722,2,0,P|419:255|398:221,1,63.0000000000001,6|4,2:3|2:3,2:0:0:0:
497,93,104063,1,10,2:3:0:0:
413,147,104234,1,8,2:3:0:0:
349,75,104404,1,6,2:3:0:0:
268,105,104575,1,4,2:3:0:0:
176,26,104745,6,0,B|144:26|122:39|108:73|108:73|123:89|120:118,1,115.5,6|0,1:2|2:0,2:0:0:0:
112,190,105086,2,0,B|42:199|42:199|37:194|37:194|-22:201,1,115.5,6|0,1:2|2:0,2:0:0:0:
53,300,105431,6,0,B|54:331|81:359|81:359|128:340|135:299,1,140,6|10,1:2|2:0,2:0:0:0:
249,233,105936,1,2,1:2:0:0:
151,188,106105,1,10,2:3:0:0:
205,364,106273,1,2,1:2:0:0:
303,319,106442,2,0,P|340:313|383:309,1,70,10|2,2:0|2:0,2:0:0:0:
492,224,106779,1,2,1:2:0:0:
410,114,106947,6,0,B|374:137|367:191|367:191|353:159|322:140,1,140,2|2,1:2|1:2,2:0:0:0:
165,37,107453,1,2,1:2:0:0:
288,7,107622,1,2,1:2:0:0:
176,164,107790,1,14,2:0:0:0:
53,134,107959,1,2,2:0:0:0:
277,94,108127,6,0,P|266:149|257:252,1,147,6|10,1:2|2:1,2:0:0:0:
300,371,108633,1,2,2:0:0:0:
423,241,108801,2,0,B|390:215|390:215|341:230,1,73.5,10|0,2:1|1:0,2:0:0:0:
190,348,109138,1,10,2:1:0:0:
338,300,109298,1,0,1:0:0:0:
176,164,109458,6,0,P|183:213|188:264,1,77,10|0,2:1|1:0,2:0:0:0:
52,307,109813,1,10,2:1:0:0:
0,132,109981,2,0,P|27:107|70:104,1,77,2|10,1:2|2:1,2:0:0:0:
242,116,110318,1,2,1:2:0:0:
97,183,110487,1,10,2:1:0:0:
64,12,110655,1,2,2:0:0:0:
224,17,110824,6,0,B|294:8|294:8|308:23|308:23|395:13,1,154,6|0,1:2|2:0,2:0:0:0:
508,66,111329,1,0,2:0:0:0:
326,160,111498,2,0,L|332:114,3,38.5,8|8|4|0,2:3|2:3|2:3|1:0,2:0:0:0:
446,219,111835,1,10,2:0:0:0:
446,219,111919,1,10,2:0:0:0:
446,219,112003,2,0,L|452:265,1,38.5,0|0,1:0|1:0,2:0:0:0:
329,310,112172,5,8,2:0:0:0:
431,120,112340,1,10,2:0:0:0:
247,142,112509,6,0,B|185:163|185:163|150:109,1,115.5,2|0,2:0|2:0,2:0:0:0:
140,92,112842,1,2,2:0:0:0:
272,34,113009,6,0,L|237:29,1,35,4|0,1:2|2:0,2:0:0:0:
49,12,113174,2,0,P|61:79|68:170,1,147,2|0,2:0|2:0,2:0:0:0:
117,247,113507,6,0,P|77:235|36:243,1,84,6|2,1:2|2:1,2:0:0:0:
200,384,113840,2,0,B|241:378|241:378|248:387|248:387|287:382,1,84,10|2,2:0|2:1,2:0:0:0:
246,116,114173,2,0,B|221:160|221:160|239:201,1,84,2|2,1:2|2:1,2:0:0:0:
314,311,114507,1,10,2:0:0:0:
419,251,114673,6,0,B|435:277|465:301|465:301|407:391,1,168,2|2,2:1|2:1,2:0:0:0:
330,191,115173,1,8,2:0:0:0:
496,117,115340,2,0,P|507:156|499:197,1,84,2|0,2:1|1:0,2:0:0:0:
330,191,115673,1,2,2:1:0:0:
416,29,115840,2,0,B|379:3|333:24|333:24|318:46|290:52,1,126,8|0,2:0|2:0,2:0:0:0:
210,54,116173,6,0,B|178:34|130:46|103:87|103:87|121:107|122:136,1,168,2|10,1:2|2:0,2:0:0:0:
0,147,116673,2,0,L|54:141,2,42,2|8|0,2:1|2:0|1:0,2:0:0:0:
121,126,117007,1,2,2:1:0:0:
0,44,117173,1,10,2:0:0:0:
38,227,117340,6,0,P|50:285|54:354,1,126,2|0,2:1|2:0,2:0:0:0:
57,382,117673,1,2,2:1:0:0:
248,284,117840,1,10,2:0:0:0:
162,217,118007,2,0,B|133:254|133:254|157:288,1,84,2|0,2:1|1:0,2:0:0:0:
249,384,118340,2,0,P|298:377|349:371,1,84,2|8,2:1|2:0,2:0:0:0:
456,256,118673,1,2,2:1:0:0:
456,256,118757,1,0,2:0:0:0:
456,256,118840,6,0,B|418:268|396:313|396:313|396:266|370:232,2,168,6|8|0,1:2|2:0|1:0,2:0:0:0:
493,345,119673,1,2,2:1:0:0:
502,182,119840,6,0,P|462:170|421:178,1,84,10|2,2:0|2:1,2:0:0:0:
288,205,120173,2,0,P|318:176|330:136,1,84,2|2,1:2|2:1,2:0:0:0:
376,9,120506,2,0,P|385:49|413:80,1,84,10|2,2:0|2:1,2:0:0:0:
441,95,120756,1,8,2:0:0:0:
441,95,120840,1,2,1:2:0:0:
512,0,121006,1,2,2:1:0:0:
291,20,121173,2,0,P|225:9|166:2,1,126,10|0,2:0|2:0,2:0:0:0:
134,0,121506,5,6,1:2:0:0:
4,90,121673,2,0,P|53:83|104:77,1,84,0|0,2:0|1:0,2:0:0:0:
288,116,122006,2,0,B|250:90|198:110|198:110|182:130|155:138,1,126,14|0,2:0|2:0,2:0:0:0:
148,147,122340,1,2,1:2:0:0:
40,281,122506,1,14,2:0:0:0:
161,380,122673,1,2,2:0:0:0:
83,203,122840,6,0,P|34:196|-17:190,1,84,0|14,1:0|2:0,2:0:0:0:
219,305,123173,2,0,P|268:298|319:292,1,84,0|0,1:0|1:0,2:0:0:0:
225,177,123506,1,8,2:3:0:0:
161,380,123673,1,8,2:3:0:0:
359,361,123840,1,8,2:3:0:0:
359,361,123923,1,4,2:3:0:0:
359,361,124006,2,0,L|416:354,1,42,4|4,2:3|2:3,2:0:0:0:
477,199,124173,6,0,B|447:224|440:271|440:271|426:239|395:220,1,126,6|0,1:2|2:0,2:0:0:0:
341,195,124506,2,0,P|292:188|241:182,1,84,10|2,2:0|2:1,2:0:0:0:
84,310,124840,2,0,B|59:354|59:354|77:395,1,84,2|2,1:2|2:1,2:0:0:0:
232,274,125173,1,10,2:0:0:0:
106,132,125340,6,0,B|100:94|55:66|55:66|11:107|28:165,1,168,2|2,2:1|2:1,2:0:0:0:
164,236,125840,1,8,2:0:0:0:
233,88,126006,2,0,P|273:76|314:84,1,84,2|0,2:1|1:0,2:0:0:0:
341,195,126340,1,2,2:1:0:0:
458,0,126506,2,0,P|411:64|435:111,1,126,8|0,2:0|2:0,2:0:0:0:
475,180,126840,6,0,B|506:219|493:258|493:258|459:281|453:326,1,126,2|0,1:2|2:0,2:0:0:0:
449,314,127173,1,10,2:0:0:0:
323,350,127340,2,0,P|274:343|223:337,1,84,2|0,2:1|1:0,2:0:0:0:
209,332,127590,1,8,2:0:0:0:
209,332,127673,1,2,2:1:0:0:
83,236,127840,1,8,2:0:0:0:
124,384,128006,1,2,2:1:0:0:
261,167,128173,6,0,B|234:158|200:169|173:196|173:196|189:215|188:239,1,126,2|0,1:2|2:0,2:0:0:0:
190,249,128506,1,10,2:0:0:0:
0,186,128673,2,0,L|5:227,2,42,2|2|0,2:1|2:1|1:0,2:0:0:0:
120,0,129006,1,2,2:1:0:0:
103,130,129173,1,10,2:0:0:0:
91,262,129340,1,2,2:1:0:0:
217,90,129506,6,0,P|275:78|344:74,1,126,6|0,1:2|2:0,2:0:0:0:
423,43,129840,2,0,B|438:56|460:61|460:61|440:69|427:84,1,84,10|2,2:0|2:1,2:0:0:0:
283,160,130173,2,0,P|276:209|270:260,1,84,0|2,1:0|2:1,2:0:0:0:
462,214,130506,6,0,P|484:184|483:126,1,84,10|2,2:0|2:1,2:0:0:0:
323,32,130840,2,0,P|274:25|223:19,1,84,2|2,1:2|2:1,2:0:0:0:
271,243,131173,2,0,B|312:237|312:237|319:246|319:246|358:241,1,84,10|2,2:0|2:1,2:0:0:0:
422,67,131506,1,2,1:2:0:0:
283,160,131673,1,2,2:1:0:0:
140,59,131840,2,0,B|114:96|135:142|135:142|157:157|163:185,1,126,10|0,2:0|2:0,2:0:0:0:
147,255,132173,6,0,B|39:241|39:241|79:229|104:191,1,168,6|8,1:2|2:0,2:0:0:0:
283,160,132673,2,0,P|272:226|265:285,1,126,6|0,2:1|2:0,2:0:0:0:
261,316,133006,1,2,2:1:0:0:
462,283,133173,1,10,2:0:0:0:
362,124,133340,1,2,2:1:0:0:
471,182,133506,5,2,1:2:0:0:
362,338,133673,1,14,2:0:0:0:
283,160,133840,2,0,P|234:153|183:147,1,84,14|0,2:0|1:0,2:0:0:0:
36,347,134173,2,0,P|85:340|136:334,1,84,10|8,2:0|2:3,2:0:0:0:
55,96,134506,2,0,P|48:145|42:196,1,84,10|4,2:3|2:3,2:0:0:0:
223,380,134840,6,0,B|256:326|241:281|241:281|209:264|203:219,1,154,6|2,1:2|1:2,2:0:0:0:
280,132,135340,2,0,P|347:122|401:117,1,115.5,14|0,2:0|2:0,2:0:0:0:
430,109,135673,1,2,1:2:0:0:
271,19,135840,2,0,P|230:12|195:9,1,77,14|0,2:0|1:0,2:0:0:0:
134,182,136173,6,0,L|200:174,2,38.5,10|0|8,2:0|2:0|2:3,2:0:0:0:
200,99,136506,1,2,1:2:0:0:
85,9,136673,2,0,B|59:-7|-9:-5|-9:47|-9:47|10:66|9:101,1,154,14|0,2:0|1:0,2:0:0:0:
24,205,137173,2,0,P|31:246|34:281,1,77,10|0,2:0|1:0,2:0:0:0:
161,289,137506,6,0,P|231:293|253:359,1,115.5,6|0,1:2|2:0,2:0:0:0:
325,378,137840,2,0,P|353:375|372:363,3,38.5,10|8|6|4,2:3|2:3|2:3|2:3,2:0:0:0:
463,237,138173,2,0,P|456:274|452:313,1,77,0|2,1:0|2:0,2:0:0:0:
352,205,138506,1,0,1:0:0:0:
352,205,138590,1,0,1:0:0:0:
352,205,138673,2,0,L|345:148,1,38.5,6|4,2:3|2:3,2:0:0:0:
421,42,138840,6,0,P|378:69|336:62,1,77,4|0,1:0|2:0,2:0:0:0:
316,62,139090,1,0,2:0:0:0:
316,62,139173,2,0,L|259:56,1,38.5,8|0,2:3|2:0,2:0:0:0:
121,38,139340,2,0,L|64:45,1,38.5,8|8,2:3|2:3,2:0:0:0:
194,175,139506,2,0,L|250:168,3,38.5,8|8|8|0,2:0|2:3|2:3|1:0,2:0:0:0:
183,93,139840,5,10,2:0:0:0:
30,220,140006,1,2,1:2:0:0:
186,257,140173,6,0,B|171:279|147:297|147:297|190:362,1,126,6|0,1:2|2:0,2:0:0:0:
204,383,140506,1,10,2:1:0:0:
292,239,140673,1,2,2:0:0:0:
400,340,140840,2,0,P|449:333|500:327,1,84,2|0,1:0|1:0,2:0:0:0:
443,130,141173,2,0,B|405:104|353:124|353:124|337:144|310:152,1,126,10|0,2:1|2:0,2:0:0:0:
242,163,141506,6,0,P|193:156|142:150,2,84,2|2|10,1:0|1:2|2:1,2:0:0:0:
109,66,142006,2,0,B|103:27|50:12|50:12|47:39|19:68,1,126,2|0,1:2|2:0,2:0:0:0:
26,134,142340,2,0,P|33:183|39:234,1,84,2|10,1:2|2:1,2:0:0:0:
142,321,142673,1,2,2:0:0:0:
242,163,142840,5,6,1:2:0:0:
256,192,142923,12,2,145506,2:0:0:0:
38,374,153506,6,0,P|43:317|57:240,1,112,2|0,1:2|1:0,2:0:0:0:
92,198,154006,2,0,P|122:244|185:241,1,112,2|2,1:2|1:2,2:0:0:0:
235,200,154506,2,0,P|270:194|307:191,1,56,10|2,2:0|2:0,2:0:0:0:
425,308,154840,6,0,P|419:343|416:380,2,56,0|2|2,1:0|2:0|2:0,2:0:0:0:
464,240,155340,2,0,B|433:215|393:222|393:222|377:240|355:245,1,112,2|0,1:2|1:0,2:0:0:0:
319,304,155840,2,0,P|283:298|246:295,1,56,8|2,2:0|2:0,2:0:0:0:
94,377,156173,6,0,B|50:382|25:350|25:350|48:336|57:315,1,112,0|2,1:2|2:0,2:0:0:0:
118,293,156673,2,0,P|112:236|98:159,1,112,2|2,1:2|1:2,2:0:0:0:
59,122,157173,2,0,P|98:128|131:113,1,56,10|2,2:0|2:0,2:0:0:0:
267,53,157506,6,0,P|239:48|212:54,2,56,0|2|2,1:0|2:0|2:0,2:0:0:0:
330,7,158006,2,0,B|369:53|369:53|341:105,1,110.992,0|0,1:0|1:0,2:0:0:0:
419,120,158502,2,0,P|454:114|491:111,1,56,8|0,2:1|2:0,2:0:0:0:
347,291,158835,6,0,P|282:279|212:274,1,126,6|0,1:2|1:0,2:0:0:0:
222,160,159335,2,0,P|278:180|283:244,1,126,10|0,2:1|1:0,2:0:0:0:
178,352,159835,2,0,P|141:355|89:362,1,63.0000000000001,10|0,2:1|1:0,2:0:0:0:
43,182,160162,6,0,P|50:219|53:270,1,63.0000000000001,10|0,2:1|1:0,2:0:0:0:
164,223,160495,1,0,1:0:0:0:
150,115,160662,2,0,B|78:117|101:82|18:91,1,126,10|0,2:1|1:0,2:0:0:0:
159,26,161173,2,0,P|196:19|247:15,1,63.0000000000001,10|0,2:1|1:0,2:0:0:0:
294,157,161506,6,0,P|310:107|380:94,1,126,14|2,2:0|1:2,2:0:0:0:
505,22,162006,2,0,P|498:59|494:110,1,63.0000000000001,10|0,2:0|2:0,2:0:0:0:
422,163,162339,2,0,P|431:202|433:251,1,63.0000000000001,2|0,2:0|1:0,2:0:0:0:
474,336,162672,6,0,P|439:327|405:323,1,70,2|0,0:0|1:0,0:0:0:0:
336,365,163006,1,8,0:0:0:0:
288,253,163172,2,0,P|322:261|356:265,1,70,0|8,1:0|0:0,0:0:0:0:
232,347,163506,2,0,P|197:350|163:359,1,70,0|8,1:0|0:0,0:0:0:0:
29,291,163839,1,8,0:0:0:0:
68,384,164006,1,8,0:0:0:0:
218,121,164172,5,6,1:2:0:0:
179,274,164339,1,8,2:0:0:0:
11,193,164506,1,10,2:0:0:0:
95,48,164672,6,0,B|66:93|83:146|83:146|109:165|119:189,1,140,4|0,1:2|2:0,2:0:0:0:
260,49,165172,1,10,2:0:0:0:
293,38,165256,1,8,2:0:0:0:
326,28,165339,1,8,2:0:0:0:
359,19,165422,1,8,2:0:0:0:
393,12,165506,6,0,P|432:4|481:1,1,70,6|8,1:2|2:3,2:0:0:0:
377,157,165839,2,0,P|338:149|289:146,1,70,10|4,2:3|2:3,2:0:0:0:
452,247,166172,1,10,2:3:0:0:
491,128,166339,1,8,2:3:0:0:
334,228,166506,1,6,2:3:0:0:
373,347,166672,1,4,2:3:0:0:
212,190,166840,5,6,1:2:0:0:
256,192,166927,12,0,168243,2:0:0:0:
200,96,168594,5,2,2:0:0:0:
53,79,168769,2,0,L|14:74,3,38.5,2|2|2|2,2:0|2:0|2:0|2:0,2:0:0:0:
36,162,169102,1,2,2:0:0:0:
36,162,169494,6,0,B|50:188|72:192|72:192|134:172|193:239|153:298|110:331|75:311|46:287,1,294,6|2,1:2|2:0,2:0:0:0:
54,293,170827,5,0,1:0:0:0:
165,372,170994,2,0,P|203:363|243:362,1,70,14|0,2:0|2:0,2:0:0:0:
382,311,171327,1,2,1:2:0:0:
309,257,171494,1,0,1:0:0:0:
452,150,171660,2,0,B|425:193|438:245|438:245|457:259|465:285,1,140,14|0,2:0|1:0,2:0:0:0:
305,143,172160,6,0,B|326:150|385:144|409:102|377:46|299:39|247:89|247:117|252:117|257:117|243:160|172:151|172:151|200:142|214:114,1,357.000000000001,6|2,1:2|2:0,2:0:0:0:
206,128,173494,5,0,1:0:0:0:
71,85,173660,2,0,P|111:67|151:75,1,77,14|2,2:0|2:0,2:0:0:0:
68,249,173994,6,0,P|68:202|46:158,1,77,14|0,2:0|2:0,2:0:0:0:
173,271,174327,2,0,L|203:267,4,19.25,2|0|0|0|8,1:2|2:0|2:0|2:0|2:0,2:0:0:0:
209,378,174660,1,8,2:0:0:0:
209,378,174744,1,8,2:0:0:0:
209,378,174827,6,0,B|246:345|290:359|290:359|309:388|353:398,1,126,6|0,1:2|2:0,2:0:0:0:
357,312,175160,2,0,P|409:304|470:299,1,84,8|2,2:0|2:1,2:0:0:0:
389,119,175494,1,0,1:0:0:0:
260,243,175660,1,2,2:1:0:0:
276,51,175827,6,0,P|328:43|389:38,1,84,10|2,2:0|2:1,2:0:0:0:
477,224,176160,2,0,P|425:216|364:211,1,84,2|2,1:2|2:1,2:0:0:0:
491,12,176494,2,0,P|483:64|478:125,1,84,10|2,2:0|2:1,2:0:0:0:
475,123,176744,1,0,2:0:0:0:
475,123,176827,1,2,1:2:0:0:
312,189,176994,1,2,2:1:0:0:
289,14,177160,2,0,P|234:53|178:34,1,126,10|0,2:0|2:0,2:0:0:0:
157,20,177494,5,6,1:2:0:0:
91,155,177660,2,0,P|51:143|10:151,1,84,0|0,2:0|1:0,2:0:0:0:
22,382,177994,2,0,P|27:313|44:236,1,126,14|0,2:0|2:0,2:0:0:0:
45,225,178327,1,2,1:2:0:0:
209,194,178494,1,14,2:0:0:0:
301,342,178660,1,2,2:0:0:0:
117,178,178827,5,0,1:0:0:0:
170,345,178994,1,14,2:0:0:0:
315,252,179160,2,0,P|367:244|428:239,1,84,0|0,1:0|1:0,2:0:0:0:
512,208,179494,1,8,2:3:0:0:
391,372,179660,1,8,2:3:0:0:
333,165,179827,1,8,2:3:0:0:
333,165,179910,1,4,2:3:0:0:
333,165,179994,2,0,L|324:98,1,42,4|4,2:3|2:3,2:0:0:0:
464,12,180160,6,0,P|398:52|319:26,1,126,6|0,1:2|2:0,2:0:0:0:
266,73,180494,2,0,P|226:61|185:69,1,84,10|2,2:0|2:1,2:0:0:0:
159,253,180827,2,0,B|190:216|190:216|164:170,1,84,2|2,1:2|2:1,2:0:0:0:
4,129,181160,1,10,2:0:0:0:
105,0,181327,6,0,P|90:88|81:189,1,168,2|2,2:1|2:1,2:0:0:0:
2,351,181827,1,8,2:0:0:0:
158,265,181994,1,2,2:1:0:0:
158,265,182077,1,8,2:0:0:0:
158,265,182160,1,0,1:0:0:0:
0,214,182327,1,2,2:1:0:0:
148,377,182494,2,0,P|210:366|304:360,1,126,8|0,2:0|2:0,2:0:0:0:
313,282,182827,6,0,B|346:304|359:354|359:354|376:333|415:323,1,126,2|0,1:2|2:0,2:0:0:0:
421,324,183160,1,10,2:0:0:0:
482,177,183327,2,0,P|442:165|401:173,1,84,2|0,2:1|1:0,2:0:0:0:
373,184,183577,1,0,2:0:0:0:
373,184,183660,1,2,2:1:0:0:
490,271,183827,1,8,2:0:0:0:
512,93,183994,1,2,2:1:0:0:
341,182,184160,6,0,B|300:152|260:163|260:163|241:192|197:202,1,126,2|0,1:2|2:0,2:0:0:0:
203,205,184494,1,10,2:0:0:0:
322,86,184660,1,2,2:1:0:0:
322,86,184744,1,2,2:1:0:0:
322,86,184827,1,0,1:0:0:0:
116,3,184994,1,2,2:1:0:0:
191,121,185160,1,10,2:0:0:0:
100,232,185327,1,2,2:1:0:0:
7,95,185493,6,0,P|19:153|23:222,1,126,6|0,1:2|2:0,2:0:0:0:
11,303,185827,2,0,B|28:318|36:338|36:338|41:316|54:301,1,84,10|2,2:0|2:1,2:0:0:0:
227,329,186160,1,0,1:0:0:0:
100,232,186327,1,2,2:1:0:0:
215,135,186493,6,0,B|186:175|186:175|215:215,1,84,10|2,2:0|2:1,2:0:0:0:
317,328,186827,2,0,P|358:321|400:316,1,84,2|2,1:2|2:1,2:0:0:0:
474,109,187160,2,0,P|432:102|390:97,1,84,10|2,2:0|2:1,2:0:0:0:
273,234,187493,1,2,1:2:0:0:
404,174,187660,1,2,2:1:0:0:
248,1,187827,2,0,P|288:55|280:118,1,126,10|0,2:0|2:0,2:0:0:0:
212,150,188160,6,0,B|174:158|142:158|142:158|126:184|126:184|83:187|32:197,1,168,6|8,1:2|2:0,2:0:0:0:
127,341,188660,2,0,B|154:358|187:345|214:318|214:318|201:303|199:275,1,126,6|0,2:1|2:0,2:0:0:0:
190,258,188993,1,2,2:1:0:0:
407,181,189160,1,10,2:0:0:0:
311,371,189327,1,2,2:1:0:0:
253,167,189493,5,2,1:2:0:0:
390,316,189660,1,14,2:0:0:0:
456,108,189827,2,0,P|416:96|375:104,1,84,14|0,2:0|1:0,2:0:0:0:
188,268,190160,2,0,B|147:262|147:262|136:269|136:269|101:264,1,84,10|8,2:0|2:3,2:0:0:0:
268,45,190493,2,0,P|261:86|256:128,1,84,10|4,2:3|2:3,2:0:0:0:
30,154,190827,6,0,B|23:116|58:89|58:89|108:102|112:150,1,154,6|2,1:2|1:2,2:0:0:0:
187,244,191327,2,0,P|254:234|308:229,1,115.5,14|0,2:0|2:0,2:0:0:0:
335,225,191660,1,2,1:2:0:0:
295,384,191827,2,0,P|273:354|272:315,1,77,14|0,2:0|1:0,2:0:0:0:
426,254,192160,2,0,L|418:320,2,38.5,10|0|8,2:0|2:0|2:3,2:0:0:0:
496,188,192493,1,2,1:2:0:0:
447,56,192660,6,0,B|406:67|386:106|386:106|384:65|352:34,1,154,14|0,2:0|1:0,2:0:0:0:
219,119,193160,2,0,P|260:112|295:109,1,77,14|0,2:0|1:0,2:0:0:0:
167,36,193493,6,0,B|132:9|87:24|87:24|70:48|37:53,1,115.5,6|0,1:2|2:0,2:0:0:0:
36,62,193827,2,0,L|43:124,3,38.5,10|8|6|4,2:3|2:3|2:3|2:3,2:0:0:0:
122,132,194160,2,0,P|115:173|112:208,1,77,0|2,1:0|2:0,2:0:0:0:
23,319,194493,1,0,1:0:0:0:
23,319,194577,1,0,1:0:0:0:
23,319,194660,2,0,L|85:311,1,38.5,6|4,2:3|2:3,2:0:0:0:
210,317,194827,6,0,P|240:339|279:340,1,77,6|0,1:2|2:0,2:0:0:0:
313,334,195077,1,0,2:0:0:0:
313,334,195160,2,0,L|375:326,1,38.5,8|0,2:3|2:0,2:0:0:0:
508,256,195327,2,0,L|445:248,1,38.5,8|8,2:3|2:3,2:0:0:0:
313,175,195493,2,0,L|375:167,3,38.5,8|8|8|0,2:0|2:3|2:3|1:0,2:0:0:0:
369,247,195827,5,10,2:0:0:0:
505,142,195993,1,2,1:2:0:0:
337,34,196160,6,0,B|300:1|256:15|256:15|237:44|193:54,1,126,6|0,1:2|2:0,2:0:0:0:
205,57,196493,1,10,2:1:0:0:
33,31,196660,1,2,2:0:0:0:
121,130,196827,2,0,P|128:172|133:214,1,84,2|0,1:0|1:0,2:0:0:0:
46,343,197160,2,0,P|110:294|171:320,1,126,10|0,2:1|2:0,2:0:0:0:
222,256,197493,6,0,P|268:268|322:243,2,84,2|2|10,1:0|1:2|2:1,2:0:0:0:
341,364,197993,2,0,P|408:320|462:343,1,126,2|0,1:2|2:0,2:0:0:0:
475,350,198327,1,2,1:2:0:0:
512,196,198493,1,10,2:1:0:0:
382,284,198660,1,2,2:0:0:0:
336,100,198827,6,0,P|294:93|252:88,1,84,2|0,1:0|2:0,2:0:0:0:
226,86,199077,1,0,2:0:0:0:
226,86,199160,1,0,1:0:0:0:
131,255,199327,2,0,B|111:287|123:335|164:362|164:362|184:344|213:343,1,168,10|0,2:1|1:0,2:0:0:0:
170,181,199827,2,0,P|129:171|89:183,1,84,10|0,2:1|1:0,2:0:0:0:
19,338,200160,5,10,2:3:0:0:
131,255,200327,1,8,2:0:0:0:
0,116,200493,1,8,2:0:0:0:
29,239,200660,1,8,2:0:0:0:
160,83,200827,1,10,2:0:0:0:
160,83,200910,1,8,2:3:0:0:
160,83,200993,2,0,L|214:76,1,42,4|0,2:3|1:0,2:0:0:0:
417,44,201160,1,14,2:0:0:0:
258,175,201327,1,2,2:0:0:0:
290,34,201493,6,0,B|333:6|333:6|341:76|341:76|335:85|335:85|345:168|345:168|382:144,1,251.999999999999,6|6,1:2|2:3,2:0:0:0:
392,343,202827,6,0,P|305:325|222:322,1,168,6|0,1:2|2:0,2:0:0:0:
285,157,203660,1,2,1:2:0:0:
285,157,203743,1,0,1:0:0:0:
285,157,203827,2,0,P|318:193|306:255,1,105,12|0,2:0|2:0,2:0:0:0:
225,322,204160,6,0,B|130:336|178:270|47:292,1,154,6|10,1:2|2:0,2:0:0:0:
5,194,204660,1,2,2:0:0:0:
183,142,204827,2,0,P|174:188|171:238,1,77,0|0,1:0|1:0,2:0:0:0:
32,108,205160,2,0,P|30:58|20:11,1,77,10|0,2:0|2:0,2:0:0:0:
234,70,205493,5,2,1:2:0:0:
118,36,205660,1,0,1:0:0:0:
171,218,205827,1,8,2:0:0:0:
284,190,205993,2,0,B|336:155|391:169|391:169|407:195|435:205,1,154,2|0,2:0|1:0,2:0:0:0:
474,53,206493,2,0,P|465:99|462:149,1,77,10|0,2:0|2:0,2:0:0:0:
300,293,206827,5,6,1:2:0:0:
503,228,206993,1,0,2:0:0:0:
333,121,207160,1,0,1:0:0:0:
393,280,207327,2,0,P|401:326|405:371,1,80.5,14|0,2:0|2:0,2:0:0:0:
429,148,207660,1,0,1:0:0:0:
300,293,207827,2,0,P|253:284|209:281,1,80.5,14|0,2:0|2:0,2:0:0:0:
116,179,208160,5,0,1:0:0:0:
178,363,208327,1,14,2:0:0:0:
256,205,208493,1,2,2:0:0:0:
54,331,208660,1,0,1:0:0:0:
284,187,208827,1,10,2:0:0:0:
15,145,208993,5,0,1:0:0:0:
170,258,209160,1,10,2:0:0:0:
210,57,209327,1,6,1:2:0:0:
256,192,209410,12,0,213493,2:0:0:0:
