osu file format v14

[General]
AudioFilename: audio.mp3
AudioLeadIn: 0
PreviewTime: 42600
Countdown: 0
SampleSet: Soft
StackLeniency: 0.3
Mode: 0
LetterboxInBreaks: 0
WidescreenStoryboard: 0

[Editor]
Bookmarks: 243,8366,19032,30066,40915,43601,54267,64934,75600,78267,88924,99958,110824,113507,124173,134840,142840,145506,153506,164172,169494,174827,180160,190827,201493,204160,213493
DistanceSpacing: 0.9
BeatDivisor: 4
GridSize: 4
TimelineZoom: 2.900003

[Metadata]
Title:ALIVE
TitleUnicode:ALIVE
Artist:ClariS
ArtistUnicode:ClariS
Creator:RiverKnowFarm
Version:Manjusaka
Source:リコリス・リコイル
Tags:リコリコ lycoris recoil rikoriko lyco reco lycoreco anime opening op theme full ver version j-pop japanese pop jpop female vocals vocalist 井ノ上 たきな Inoue Takina 錦木 千束 Nishikigi Chisato clara karen wei_0921 yuri yahuri surac
BeatmapID:3904902
BeatmapSetID:1894823

[Difficulty]
HPDrainRate:6
CircleSize:4
OverallDifficulty:8.5
ApproachRate:9.2
SliderMultiplier:1.7
SliderTickRate:1

[Events]
//Background and Video events
0,0,"bg.jpg",0,0
//Break Periods
//Storyboard Layer 0 (Background)
//Storyboard Layer 1 (Fail)
//Storyboard Layer 2 (Pass)
//Storyboard Layer 3 (Foreground)
//Storyboard Layer 4 (Overlay)
//Storyboard Sound Samples

[TimingPoints]
243,341.880341880341,4,2,2,40,1,0
1952,-125,4,2,2,40,0,0
2978,-142.857142857143,4,2,2,40,0,0
5713,329.67032967033,4,2,2,50,1,0
5713,-142.857142857143,4,2,2,50,0,0
6536,-142.857142857143,4,2,2,60,0,0
7031,342.857142857143,4,2,2,60,1,0
7373,-125,4,2,2,60,0,0
8059,307.692307692308,4,2,2,60,1,0
8366,333.333333333333,4,2,2,70,1,0
19032,344.827586206897,4,2,2,60,1,0
19032,-111.111111111111,4,2,2,60,0,0
28687,357.142857142858,4,2,2,60,1,0
28687,-111.111111111111,4,2,2,60,0,0
29044,331.491712707183,4,2,2,60,1,0
29376,344.827586206897,4,2,2,60,1,0
29720,-105.263157894737,4,2,2,60,0,0
30066,342.857142857143,4,2,2,70,1,0
30066,-142.857142857143,4,2,2,70,0,0
32123,-100,4,2,2,70,0,0
32380,-100,4,2,2,5,0,0
32466,-100,4,2,2,70,0,0
32808,337.078651685393,4,2,2,70,1,0
33145,-142.857142857143,4,2,2,70,0,0
34830,352.941176470588,4,2,2,70,1,0
35094,-100,4,2,2,5,0,0
35182,340.909090909091,4,2,2,70,1,0
35182,-90.9090909090909,4,2,2,70,0,0
35522,337.078651685393,4,2,2,70,1,0
35859,-125,4,2,2,70,0,0
36785,-125,4,2,2,5,0,0
36870,-125,4,2,2,70,0,0
38892,-111.111111111111,4,2,2,70,0,0
40072,-100,4,2,2,70,0,0
40915,-166.666666666667,4,2,2,70,0,0
42263,-125,4,2,2,70,0,0
42600,-142.857142857143,4,2,2,70,0,0
42852,-142.857142857143,4,2,2,5,0,0
42937,377.358490566038,4,2,2,80,1,0
42937,-71.4285714285714,4,2,2,80,0,0
43126,303.030303030304,4,2,2,80,1,0
43277,324.324324324325,4,2,2,80,1,0
43277,-76.9230769230769,4,2,2,80,0,0
43520,-76.9230769230769,4,2,2,5,0,0
43601,333.333333333333,4,2,2,80,1,1
43601,-83.3333333333333,4,2,2,80,0,1
46267,-90.9090909090909,4,2,2,80,0,1
51600,-66.6666666666667,4,2,2,80,0,1
52350,-66.6666666666667,4,2,2,5,0,1
52434,-66.6666666666667,4,2,2,80,0,1
53100,-90.9090909090909,4,2,2,80,0,1
53350,-90.9090909090909,4,2,2,5,0,1
53434,-90.9090909090909,4,2,2,80,0,1
54267,-83.3333333333333,4,2,22,80,0,1
54766,-83.3333333333333,4,2,22,80,0,1
57184,-83.3333333333333,4,2,22,5,0,1
57267,-83.3333333333333,4,2,22,80,0,1
59600,-83.3333333333333,4,2,2,80,0,1
59850,-83.3333333333333,4,2,2,5,0,1
59934,-83.3333333333333,4,2,2,80,0,1
60100,-83.3333333333333,4,2,2,80,0,1
60600,-90.9090909090909,4,2,2,80,0,1
60850,-90.9090909090909,4,2,2,5,0,1
60934,-90.9090909090909,4,2,2,80,0,1
62267,-66.6666666666667,4,2,2,80,0,1
63017,-66.6666666666667,4,2,2,5,0,1
63100,-66.6666666666667,4,2,2,80,0,1
63934,-83.3333333333333,4,2,2,80,0,1
64267,-90.9090909090909,4,2,2,80,0,1
64934,-83.3333333333333,4,2,2,80,0,1
65184,-83.3333333333333,4,2,2,5,0,1
65267,-83.3333333333333,4,2,2,80,0,1
65434,-100,4,2,2,80,0,1
68934,-90.9090909090909,4,2,2,80,0,1
73434,-83.3333333333333,4,2,2,80,0,1
74184,-83.3333333333333,4,2,2,5,0,1
74267,-83.3333333333333,4,2,2,80,0,1
75600,-125,4,2,2,70,0,0
75850,-125,4,2,2,5,0,0
75934,-125,4,2,2,70,0,0
78267,-83.3333333333333,4,2,2,70,0,0
78517,-83.3333333333333,4,2,2,5,0,0
78600,-83.3333333333333,4,2,2,70,0,0
79517,-83.3333333333333,4,2,2,5,0,0
79600,-83.3333333333333,4,2,2,70,0,0
80350,-83.3333333333333,4,2,2,5,0,0
80434,-83.3333333333333,4,2,2,70,0,0
80934,-100,4,2,2,70,0,0
88924,344.827586206897,4,2,2,50,1,0
88924,-200,4,2,2,50,0,0
92027,-111.111111111111,4,2,2,50,0,0
94441,-142.857142857143,4,2,2,60,0,0
96510,357.142857142858,4,2,2,60,1,0
96510,-137.931034482759,4,2,2,60,0,0
96867,361.445783132531,4,2,2,60,1,0
96867,-138.888888888889,4,2,2,60,0,0
97199,344.827586206897,4,2,2,60,1,0
97543,-125,4,2,2,60,0,0
97801,-125,4,2,2,5,0,0
97888,-90.9090909090909,4,2,2,60,0,0
98146,-90.9090909090909,4,2,2,5,0,0
98233,-90.9090909090909,4,2,2,60,0,0
99958,342.857142857143,4,2,2,70,1,0
99958,-142.857142857143,4,2,2,70,0,0
102015,-100,4,2,2,70,0,0
102272,-100,4,2,2,5,0,0
102358,-100,4,2,2,70,0,0
102700,340.909090909091,4,2,2,70,1,0
103040,-142.857142857143,4,2,2,70,0,0
104745,-100,4,2,2,70,0,0
105000,-100,4,2,2,5,0,0
105086,-100,4,2,2,70,0,0
105431,337.078651685393,4,2,2,70,1,0
105768,-125,4,2,2,70,0,0
106694,-125,4,2,2,5,0,0
106779,-125,4,2,2,70,0,0
108801,-111.111111111111,4,2,2,70,0,0
109138,320.855614973262,4,2,2,70,1,0
109138,-107.52688172043,4,2,2,70,0,0
109458,355.029585798816,4,2,2,70,1,0
109813,337.078651685393,4,2,2,70,1,0
109981,-90.9090909090909,4,2,2,70,0,0
110824,337.078651685393,4,2,2,70,1,0
110824,-166.666666666667,4,2,2,70,0,0
112172,-125,4,2,2,70,0,0
112509,-142.857142857143,4,2,2,70,0,0
112761,-142.857142857143,4,2,2,5,0,0
112842,335.195530726257,4,2,2,80,1,0
112842,-73.5294117647059,4,2,2,80,0,0
113009,331.491712707182,4,2,2,80,1,0
113009,-83.3333333333333,4,2,2,80,0,0
113507,333.333333333333,4,2,2,80,1,1
113507,-83.3333333333333,4,2,2,80,0,1
116173,-90.9090909090909,4,2,2,80,0,1
121506,-66.6666666666667,4,2,2,80,0,1
122006,-58.8235294117647,4,2,2,80,0,1
122256,-58.8235294117647,4,2,2,5,0,1
122340,-58.8235294117647,4,2,2,80,0,1
123006,-90.9090909090909,4,2,2,80,0,1
124173,-83.3333333333333,4,2,22,80,0,1
124672,-83.3333333333333,4,2,22,80,0,1
127090,-83.3333333333333,4,2,22,5,0,1
127173,-83.3333333333333,4,2,22,80,0,1
129506,-83.3333333333333,4,2,2,80,0,1
130006,-83.3333333333333,4,2,2,80,0,1
130506,-90.9090909090909,4,2,2,80,0,1
130756,-90.9090909090909,4,2,2,5,0,1
130840,-90.9090909090909,4,2,2,80,0,1
132173,-66.6666666666667,4,2,2,80,0,1
132673,-58.8235294117647,4,2,2,80,0,1
132923,-58.8235294117647,4,2,2,5,0,1
133006,-58.8235294117647,4,2,2,80,0,1
133840,-83.3333333333333,4,2,2,80,0,1
134173,-90.9090909090909,4,2,2,80,0,1
134840,-83.3333333333333,4,2,2,80,0,1
135090,-83.3333333333333,4,2,2,5,0,1
135173,-83.3333333333333,4,2,2,80,0,1
135340,-100,4,2,2,80,0,1
138840,-90.9090909090909,4,2,2,80,0,1
142840,-90.9090909090909,4,2,2,40,0,0
145506,-166.666666666667,4,2,2,40,0,0
148173,-142.857142857143,4,2,99,50,0,0
148840,-142.857142857143,4,2,99,50,0,0
150840,-125,4,2,99,50,0,0
153173,-153.846153846154,4,2,99,50,0,0
153423,-153.846153846154,4,2,99,5,0,0
153506,-111.111111111111,4,2,2,60,0,0
154506,-111.111111111111,4,2,2,60,0,0
158173,327.868852459016,4,2,2,60,1,0
158502,333.333333333333,4,2,2,60,1,0
158835,333.333333333333,4,2,2,70,1,0
158835,-90.9090909090909,4,2,2,70,0,0
159835,327.868852459016,4,2,2,70,1,0
160162,333.333333333333,4,2,2,70,1,0
160662,-90.9090909090909,4,2,2,70,0,0
161173,333.333333333333,4,2,2,70,1,0
161506,333.333333333333,4,2,2,70,1,0
161506,-90.9090909090909,4,2,2,70,0,0
161756,-90.9090909090909,4,2,2,5,0,0
161839,-90.9090909090909,4,2,2,70,0,0
164672,-111.111111111111,4,2,2,70,0,0
166840,350.877192982456,4,2,2,80,1,0
168769,333.333333333333,4,2,2,80,1,0
169102,392.156862745098,4,2,2,80,1,0
169494,333.333333333333,4,2,2,80,1,0
169494,-107.52688172043,4,2,2,80,0,0
171660,-100,4,2,2,80,0,0
172160,-166.666666666667,4,2,2,80,0,0
173160,-125,4,2,2,80,0,0
173660,-100,4,2,2,80,0,0
174244,-100,4,2,2,5,0,0
174327,-100,4,2,2,80,0,0
174817,-100,4,2,2,90,0,0
174827,-90.9090909090909,4,2,2,90,0,1
177494,-66.6666666666667,4,2,2,90,0,1
177994,-62.5,4,2,2,90,0,1
178244,-62.5,4,2,2,5,0,1
178327,-62.5,4,2,2,90,0,1
178994,-90.9090909090909,4,2,2,90,0,1
179244,-90.9090909090909,4,2,2,5,0,1
179327,-90.9090909090909,4,2,2,90,0,1
180160,-83.3333333333333,4,2,22,90,0,1
180660,-83.3333333333333,4,2,22,90,0,1
183077,-83.3333333333333,4,2,22,5,0,1
183160,-83.3333333333333,4,2,22,90,0,1
185493,-83.3333333333333,4,2,2,90,0,1
185743,-83.3333333333333,4,2,2,5,0,1
185827,-83.3333333333333,4,2,2,90,0,1
185993,-83.3333333333333,4,2,2,90,0,1
186493,-90.9090909090909,4,2,2,90,0,1
186743,-90.9090909090909,4,2,2,5,0,1
186827,-90.9090909090909,4,2,2,90,0,1
188160,-66.6666666666667,4,2,2,90,0,1
188660,-58.8235294117647,4,2,2,90,0,1
188910,-58.8235294117647,4,2,2,5,0,1
188993,-58.8235294117647,4,2,2,90,0,1
189827,-83.3333333333333,4,2,2,90,0,1
190160,-90.9090909090909,4,2,2,90,0,1
190827,-83.3333333333333,4,2,2,90,0,1
191077,-83.3333333333333,4,2,2,5,0,1
191160,-83.3333333333333,4,2,2,90,0,1
191327,-100,4,2,2,90,0,1
194827,-90.9090909090909,4,2,2,90,0,1
199327,-83.3333333333333,4,2,2,90,0,1
200077,-83.3333333333333,4,2,2,5,0,1
200160,-83.3333333333333,4,2,2,90,0,1
201483,-83.3333333333333,4,2,2,80,0,1
201493,-125,4,2,2,80,0,0
201743,-125,4,2,2,5,0,0
201827,-125,4,2,2,80,0,0
204160,-90.9090909090909,4,2,2,80,0,0
206827,-76.9230769230769,4,2,2,80,0,0
207077,-76.9230769230769,4,2,2,5,0,0
207160,-76.9230769230769,4,2,2,80,0,0
207577,-76.9230769230769,4,2,2,5,0,0
207660,-76.9230769230769,4,2,2,80,0,0
208077,-76.9230769230769,4,2,2,5,0,0
208160,-76.9230769230769,4,2,2,80,0,0
210827,-76.9230769230769,4,2,2,70,0,0
211493,-76.9230769230769,4,2,2,60,0,0
212160,-76.9230769230769,4,2,2,50,0,0
212493,-76.9230769230769,4,2,2,40,0,0
212827,-76.9230769230769,4,2,2,30,0,0
213160,-76.9230769230769,4,2,2,20,0,0
213327,-76.9230769230769,4,2,2,10,0,0
213493,-76.9230769230769,4,2,2,5,0,0

[Colours]
Combo1 : 254,234,199
Combo2 : 105,123,250
Combo3 : 255,189,157
Combo4 : 244,138,138

[HitObjects]
52,195,243,5,2,0:0:0:0:
83,209,413,1,2,0:0:0:0:
114,223,584,1,2,0:0:0:0:
145,237,755,1,2,0:0:0:0:
215,349,1097,1,2,0:0:0:0:
275,233,1268,1,2,0:0:0:0:
145,237,1439,1,2,0:0:0:0:
145,237,1952,6,0,B|80:217|90:302|7:273,2,136,2|2|2,0:0|0:0|0:0,0:0:0:0:
490,47,2978,6,0,B|472:34|464:8|464:8|442:146|442:146|435:112|417:95,1,238,2|2,0:0|0:0,0:0:0:0:
338,74,4003,1,2,0:0:0:0:
241,182,4174,2,0,P|296:162|355:159,1,119,2|2,0:0|0:0,0:0:0:0:
169,11,4858,2,0,P|153:98|113:177,1,178.5,2|0,0:0|0:0,0:0:0:0:
172,290,5542,1,2,0:0:0:0:
177,299,5713,2,0,P|209:308|251:324,1,59.4999999999999,2|0,0:0|0:0,0:0:0:0:
118,168,6042,1,2,0:0:0:0:
113,177,6207,2,0,P|56:193|0:212,1,119,2|0,0:0|1:0,0:0:0:0:
98,45,6702,5,8,0:0:0:0:
194,213,6866,1,0,1:0:0:0:
418,22,7373,2,0,P|459:90|508:85,2,136.198333333333,2|2|2,0:0|0:0|0:0,0:0:0:0:
508,298,8366,6,0,B|467:258|414:270|414:270|397:303|359:309,1,170,6|8,1:2|0:0,0:0:0:0:
325,138,8866,1,2,0:1:0:0:
325,138,8949,1,8,0:0:0:0:
325,138,9032,2,0,L|340:231,1,85,0|2,1:0|0:1,0:0:0:0:
214,344,9365,1,8,0:0:0:0:
141,167,9532,1,2,0:1:0:0:
23,280,9699,6,0,P|68:287|119:312,1,85,2|2,1:2|0:1,0:0:0:0:
246,197,10032,1,10,0:0:0:0:
96,6,10199,2,0,P|111:103|148:177,1,170,2|2,0:1|0:1,0:0:0:0:
104,302,10699,2,0,P|69:328|6:328,1,85,10|2,0:0|0:1,0:0:0:0:
65,136,11032,6,0,P|107:142|141:167,1,85,2|2,1:2|0:1,0:0:0:0:
239,55,11365,1,8,0:0:0:0:
372,123,11532,1,2,0:1:0:0:
372,123,11615,1,8,0:0:0:0:
372,123,11699,2,0,P|417:116|443:86,1,85,2|2,1:2|0:1,0:0:0:0:
335,18,12032,1,8,0:0:0:0:
297,219,12199,1,2,0:1:0:0:
297,219,12282,1,0,0:0:0:0:
297,219,12365,6,0,P|255:213|227:182,1,85,2|2,1:2|0:1,0:0:0:0:
115,141,12699,1,10,0:0:0:0:
10,296,12865,2,0,B|54:255|101:281|101:281|120:319|157:327,1,170,2|2,0:1|0:1,0:0:0:0:
297,219,13365,1,12,0:0:0:0:
327,224,13449,1,8,0:0:0:0:
348,247,13532,1,8,0:0:0:0:
351,278,13615,1,8,0:0:0:0:
334,304,13699,6,0,P|292:310|264:341,1,85,6|2,1:2|0:1,0:0:0:0:
196,233,14032,2,0,P|190:147|148:55,1,170,8|0,0:0|1:0,0:0:0:0:
269,102,14532,1,2,0:1:0:0:
110,0,14699,1,8,0:0:0:0:
101,182,14865,1,2,0:1:0:0:
101,182,14949,1,0,0:0:0:0:
101,182,15032,6,0,P|53:205|2:198,1,85,2|2,1:2|0:1,0:0:0:0:
158,70,15365,1,10,0:0:0:0:
302,209,15532,2,0,B|382:235|377:141|468:178,1,170,2|2,0:1|0:1,0:0:0:0:
501,191,15949,1,0,0:0:0:0:
501,191,16032,1,8,0:0:0:0:
394,61,16199,1,2,0:1:0:0:
302,209,16365,6,0,P|317:255|319:313,1,85,2|2,1:2|0:1,0:0:0:0:
449,377,16699,2,0,P|453:334|467:294,1,85,8|2,0:0|0:1,0:0:0:0:
486,247,16949,1,8,0:0:0:0:
486,247,17032,2,0,P|446:272|379:277,1,85,0|2,1:0|0:1,0:0:0:0:
315,117,17365,1,8,0:0:0:0:
245,318,17532,1,2,0:1:0:0:
245,318,17615,1,0,0:0:0:0:
245,318,17699,5,2,1:2:0:0:
409,279,17865,1,10,0:1:0:0:
223,153,18032,1,14,0:0:0:0:
397,38,18199,1,8,0:3:0:0:
397,38,18282,1,8,0:3:0:0:
397,38,18365,2,0,L|404:97,1,42.5,4|0,0:3|0:0,0:0:0:0:
295,243,18532,2,0,L|302:184,1,42.5,4|0,0:3|1:0,0:0:0:0:
234,59,18699,1,8,0:0:0:0:
427,202,19032,6,0,P|461:176|504:173,1,76.5000000000001,2|2,1:2|0:0,0:0:0:0:
495,42,19376,1,10,0:0:0:0:
495,42,19549,1,2,1:2:0:0:
382,120,19721,2,0,P|374:80|367:33,1,76.5000000000001,2|0,0:0|1:0,0:0:0:0:
231,102,20066,2,0,P|224:145|216:189,1,76.5000000000001,10|0,0:1|0:0,0:0:0:0:
348,273,20411,6,0,B|420:259|412:339|492:322,1,153,2|8,1:2|0:0,0:0:0:0:
353,365,20928,1,2,1:2:0:0:
266,231,21100,1,2,0:0:0:0:
412,194,21273,1,2,1:2:0:0:
271,323,21445,2,0,P|233:325|200:305,1,76.5000000000001,10|0,0:1|0:0,0:0:0:0:
11,280,21790,6,0,P|65:272|100:315,1,114.75,2|0,1:2|0:0,0:0:0:0:
105,349,22135,1,10,0:0:0:0:
187,219,22307,1,0,1:0:0:0:
91,46,22480,2,0,B|108:68|125:87|125:87|111:131|96:195,1,153,2|10,0:0|0:1,0:0:0:0:
200,305,22997,1,2,0:0:0:0:
278,192,23169,6,0,P|318:182|353:173,1,76.5000000000001,2|2,1:2|0:0,0:0:0:0:
451,273,23514,1,10,0:0:0:0:
509,139,23687,1,2,1:2:0:0:
467,294,23859,2,0,B|396:274|408:366|327:341,1,153,2|10,0:0|0:1,0:0:0:0:
332,342,24549,6,0,P|300:313|257:306,1,76.5000000000001,2|2,1:2|0:0,0:0:0:0:
370,205,24894,1,10,0:0:0:0:
370,205,25066,1,2,1:2:0:0:
500,249,25238,2,0,L|485:162,1,76.5000000000001,2|0,0:0|1:0,0:0:0:0:
406,304,25583,2,0,L|391:391,1,76.5000000000001,10|0,0:1|0:0,0:0:0:0:
298,284,25928,6,0,B|226:270|234:350|154:333,1,153,2|10,1:2|0:0,0:0:0:0:
48,242,26445,1,2,1:2:0:0:
185,189,26618,1,2,0:0:0:0:
178,211,26790,1,2,1:2:0:0:
81,124,26963,1,10,0:1:0:0:
74,102,27135,1,2,0:0:0:0:
188,13,27307,5,2,1:2:0:0:
188,13,27652,2,0,P|189:57|221:95,1,76.5000000000001,10|0,0:0|1:0,0:0:0:0:
74,102,27997,2,0,P|73:146|41:184,1,76.5000000000001,2|0,0:0|1:0,0:0:0:0:
93,16,28342,1,10,0:1:0:0:
156,147,28514,1,2,0:0:0:0:
290,64,28687,6,0,B|351:44|351:44|365:19|365:19|434:0,1,152.999995330811,2|10,1:2|0:1,0:0:0:0:
512,65,29209,1,2,1:2:0:0:
425,166,29376,1,10,0:0:0:0:
512,272,29548,1,8,0:3:0:0:
512,272,29634,1,4,0:3:0:0:
512,272,29720,2,0,L|433:290,1,80.7499999999999,4|0,0:3|0:0,0:0:0:0:
268,315,30066,6,0,P|328:308|357:362,2,119,4|2|2,1:2|0:0|0:0,0:0:0:0:
185,247,31094,1,6,0:3:0:0:
185,247,31266,1,0,0:0:0:0:
156,350,31437,2,0,L|98:362,1,59.4999999999999,2|8,0:0|0:0,0:0:0:0:
18,286,31780,2,0,L|76:274,1,59.4999999999999,6|0,0:3|0:0,0:0:0:0:
185,247,32123,6,0,P|198:179|152:140,1,127.5,6|0,1:2|0:0,0:0:0:0:
43,109,32466,2,0,B|96:96|96:96|111:74|111:74|168:61,1,127.5,6|0,1:2|0:0,0:0:0:0:
228,92,32808,5,4,1:2:0:0:
336,256,33145,2,0,L|413:238,1,59.4999999999999,2|8,0:0|0:3,0:0:0:0:
494,177,33482,2,0,L|476:254,1,59.4999999999999,2|0,0:0|0:0,0:0:0:0:
409,155,33819,2,0,L|422:97,1,59.4999999999999,6|0,0:3|0:0,0:0:0:0:
508,20,34156,1,2,1:2:0:0:
507,121,34324,1,8,0:0:0:0:
409,155,34493,1,6,0:3:0:0:
343,71,34661,1,4,0:3:0:0:
249,122,34830,6,0,P|262:191|215:230,1,127.5,6|0,1:2|0:0,0:0:0:0:
104,263,35182,2,0,B|158:274|158:274|175:299|175:299|229:311,1,140.25,6|0,1:2|0:0,0:0:0:0:
307,274,35522,5,4,1:2:0:0:
491,304,35859,2,0,P|489:342|505:371,1,68,10|2,0:0|0:0,0:0:0:0:
394,275,36196,2,0,P|408:244|405:211,1,68,2|2,1:2|1:2,0:0:0:0:
408,86,36533,2,0,P|472:104|503:74,1,102,10|0,0:0|0:0,0:0:0:0:
512,55,36870,1,2,1:2:0:0:
359,0,37038,2,0,L|373:67,1,68,2|8,1:2|0:0,0:0:0:0:
337,176,37375,5,2,0:0:0:0:
255,67,37544,1,2,1:2:0:0:
169,206,37713,1,2,1:2:0:0:
87,50,37881,1,14,0:0:0:0:
247,154,38050,1,2,0:0:0:0:
91,258,38218,6,0,L|0:241,1,68,6|0,1:2|0:0,0:0:0:0:
161,112,38555,1,10,0:1:0:0:
253,247,38724,1,2,0:0:0:0:
332,99,38892,2,0,L|429:81,1,76.5000000000001,10|0,0:1|1:0,0:0:0:0:
508,311,39229,2,0,L|432:297,1,76.5000000000001,10|0,0:1|1:0,0:0:0:0:
483,111,39566,5,10,0:1:0:0:
358,273,39735,1,0,1:0:0:0:
257,74,39904,1,10,0:1:0:0:
440,181,40072,2,0,L|340:200,1,85,2|10,1:2|0:1,0:0:0:0:
196,356,40409,2,0,L|296:375,1,85,2|10,1:2|0:1,0:0:0:0:
162,248,40746,1,2,0:0:0:0:
91,384,40915,6,0,P|56:306|-6:311,1,153,6|0,1:2|0:0,0:0:0:0:
2,144,41589,1,8,0:3:0:0:
82,196,41757,1,4,0:3:0:0:
166,60,41926,1,10,0:0:0:0:
167,71,42010,1,0,0:0:0:0:
169,83,42095,1,0,1:0:0:0:
172,94,42179,1,0,0:0:0:0:
174,106,42263,2,0,L|227:97,1,34,8|0,0:0|0:0,0:0:0:0:
321,196,42432,2,0,L|268:187,1,34,10|0,0:0|0:0,0:0:0:0:
326,78,42600,6,0,P|378:85|412:57,1,89.2499999999999,2|0,0:0|0:0,0:0:0:0:
512,23,42937,2,0,B|500:41|487:55|487:55|499:91|512:136,1,119.630696368408,2|0,0:0|1:0,0:0:0:0:
497,217,43201,1,0,1:0:0:0:
483,226,43277,6,0,P|401:208|310:194,1,165.75,10|0,0:0|0:0,0:0:0:0:
211,132,43601,6,0,P|182:177|192:222,1,102,6|2,1:2|0:1,0:0:0:0:
210,375,43934,2,0,P|185:327|141:313,1,102,10|2,0:0|0:1,0:0:0:0:
0,255,44267,2,0,P|53:257|87:226,1,102,2|2,1:2|0:1,0:0:0:0:
72,52,44601,1,10,0:0:0:0:
211,132,44767,2,0,P|264:134|298:103,1,102,2|0,0:1|1:0,0:0:0:0:
512,158,45101,2,0,P|459:156|425:187,1,102,2|8,0:1|0:0,0:0:0:0:
393,384,45434,6,0,B|422:286|308:296|337:200,1,204,2|2,0:1|0:1,0:0:0:0:
405,100,45934,1,8,0:0:0:0:
512,158,46101,1,2,0:1:0:0:
337,201,46267,6,0,P|287:191|237:181,1,93.5,2|2,1:2|0:1,0:0:0:0:
70,223,46601,1,10,0:0:0:0:
211,86,46767,1,2,0:1:0:0:
211,86,46851,1,8,0:0:0:0:
211,86,46934,1,0,1:0:0:0:
53,0,47101,1,2,0:1:0:0:
148,163,47267,1,10,0:0:0:0:
276,18,47434,6,0,P|319:27|376:38,1,93.5,2|0,0:1|1:0,0:0:0:0:
512,134,47767,1,2,0:1:0:0:
481,16,47934,1,10,0:0:0:0:
392,162,48101,2,0,P|379:213|413:266,1,93.5,2|0,0:1|1:0,0:0:0:0:
256,384,48434,2,0,P|269:333|235:280,1,93.5,2|8,0:1|0:0,0:0:0:0:
377,355,48767,1,2,0:1:0:0:
283,193,48934,6,0,B|195:166|188:271|90:232,1,187,6|8,1:2|0:0,0:0:0:0:
0,150,49434,1,2,0:1:0:0:
58,327,49600,1,0,1:0:0:0:
130,137,49767,1,2,0:1:0:0:
253,302,49934,6,0,P|304:311|352:286,1,93.5,10|2,0:0|0:1,0:0:0:0:
306,103,50267,2,0,P|298:159|282:218,1,93.5,2|2,1:2|0:1,0:0:0:0:
462,331,50600,2,0,P|469:274|485:215,1,93.5,10|2,0:0|0:1,0:0:0:0:
487,207,50850,1,8,0:0:0:0:
487,207,50934,1,2,1:2:0:0:
378,50,51100,1,2,0:1:0:0:
512,127,51267,1,10,0:0:0:0:
386,264,51434,1,2,0:1:0:0:
306,103,51600,6,0,B|248:87|214:21|214:21|211:96|165:137,1,255,6|0,1:2|1:0,0:0:0:0:
0,201,52100,2,0,B|42:189|68:140|68:140|71:195|105:227,1,191.25,14|0,0:0|0:0,0:0:0:0:
106,226,52434,1,2,1:2:0:0:
117,46,52600,1,14,0:0:0:0:
254,179,52767,1,2,0:0:0:0:
321,0,52934,1,0,1:0:0:0:
412,118,53100,6,0,P|493:110|502:45,1,140.25,14|0,0:0|0:0,0:0:0:0:
500,43,53434,1,0,1:0:0:0:
332,147,53600,1,8,0:3:0:0:
229,17,53767,1,8,0:3:0:0:
188,16,53850,1,8,0:3:0:0:
156,42,53934,1,8,0:3:0:0:
131,81,54017,1,4,0:3:0:0:
92,108,54100,1,4,0:3:0:0:
42,111,54184,1,4,0:3:0:0:
0,81,54267,6,0,P|30:127|20:172,1,102,6|0,1:2|0:0,0:0:0:0:
13,359,54600,2,0,P|35:314|81:296,1,102,10|2,0:0|0:1,0:0:0:0:
248,206,54934,2,0,P|198:210|160:178,1,102,2|2,1:2|0:1,0:0:0:0:
334,153,55267,1,10,0:0:0:0:
493,255,55434,6,0,P|499:204|515:140,1,102,2|0,0:1|1:0,0:0:0:0:
353,356,55767,2,0,P|347:305|331:241,1,102,2|8,0:1|0:0,0:0:0:0:
348,57,56100,6,0,B|250:28|260:142|164:113,1,204,2|2,0:1|0:1,0:0:0:0:
62,0,56600,1,8,0:0:0:0:
141,105,56767,1,2,0:1:0:0:
10,234,56934,6,0,P|82:240|121:311,1,153,2|0,1:2|0:0,0:0:0:0:
128,329,57267,1,10,0:0:0:0:
256,85,57434,2,0,P|269:136|278:199,1,102,2|0,0:1|1:0,0:0:0:0:
445,343,57767,2,0,P|452:292|465:243,1,102,2|8,0:1|0:0,0:0:0:0:
288,295,58100,1,2,0:1:0:0:
394,147,58267,6,0,B|424:83|500:96|500:96|449:115|437:141,1,204,2|10,1:2|0:0,0:0:0:0:
388,259,58767,1,2,0:1:0:0:
388,259,58850,1,2,0:1:0:0:
388,259,58934,1,0,1:0:0:0:
276,179,59100,2,0,P|248:173|221:164,1,51,2|2,0:1|0:1,0:0:0:0:
133,212,59267,2,0,P|79:222|35:236,1,102,10|2,0:0|0:1,0:0:0:0:
195,367,59600,6,0,B|223:344|226:300|226:300|247:340|296:343,1,153,6|0,1:2|0:0,0:0:0:0:
332,352,59934,2,0,P|340:298|350:250,1,102,10|2,0:0|0:1,0:0:0:0:
236,179,60267,1,0,1:0:0:0:
404,119,60434,1,2,0:1:0:0:
299,0,60600,6,0,P|264:56|200:26,1,140.25,10|0,0:0|0:0,0:0:0:0:
178,1,60934,2,0,P|183:50|185:102,1,93.5,2|2,1:2|0:1,0:0:0:0:
12,189,61267,2,0,P|16:140|23:96,1,93.5,10|2,0:0|0:1,0:0:0:0:
162,239,61600,1,2,1:2:0:0:
57,325,61767,1,2,0:1:0:0:
12,189,61934,2,0,P|64:184|92:144,1,93.5,10|2,0:0|0:1,0:0:0:0:
281,63,62267,6,0,B|280:38|302:18|302:18|231:-5|159:48|177:138|209:158,1,255,6|8,1:2|0:0,0:0:0:0:
12,189,62767,2,0,B|11:168|-5:153|-5:153|51:133|109:177|95:248|69:265,1,191.25,6|0,0:1|0:0,0:0:0:0:
86,254,63100,1,2,0:1:0:0:
191,135,63267,1,10,0:0:0:0:
255,330,63434,1,2,0:1:0:0:
173,223,63600,5,2,1:2:0:0:
333,49,63767,1,14,0:0:0:0:
357,273,63934,2,0,P|309:254|259:246,1,102,14|0,0:0|1:0,0:0:0:0:
347,49,64267,2,0,P|393:42|436:25,1,93.5,10|8,0:0|0:3,0:0:0:0:
485,206,64600,1,10,0:3:0:0:
459,248,64684,1,4,0:3:0:0:
462,290,64767,1,4,0:3:0:0:
484,320,64850,1,4,0:3:0:0:
512,333,64934,6,0,B|443:310|442:401|374:376,1,153,6|0,1:2|0:0,0:0:0:0:
359,371,65267,1,2,1:2:0:0:
241,280,65434,2,0,L|256:183,1,85,14|0,0:0|0:0,0:0:0:0:
140,293,65767,1,2,1:2:0:0:
62,185,65934,2,0,P|103:179|141:197,1,85,14|0,0:0|1:0,0:0:0:0:
345,111,66267,6,0,P|307:129|266:123,1,85,10|8,0:0|0:3,0:0:0:0:
119,39,66600,1,2,1:2:0:0:
245,0,66767,1,14,0:0:0:0:
147,156,66934,2,0,L|135:240,1,85,2|0,0:0|1:0,0:0:0:0:
342,302,67267,2,0,L|330:218,1,85,10|0,0:0|1:0,0:0:0:0:
165,366,67600,6,0,B|207:327|260:342|260:342|275:376|312:383,1,170,6|10,1:2|0:3,0:0:0:0:
474,290,68100,1,6,0:3:0:0:
474,290,68184,1,4,0:3:0:0:
474,290,68267,2,0,L|486:374,1,85,0|2,1:0|0:0,0:0:0:0:
338,290,68600,2,0,L|350:206,1,85,0|6,1:0|0:3,0:0:0:0:
387,117,68850,1,4,0:3:0:0:
397,133,68934,6,0,P|438:152|483:146,1,93.5,4|0,1:2|0:0,0:0:0:0:
351,29,69267,1,8,0:3:0:0:
260,167,69434,1,8,0:3:0:0:
194,22,69600,2,0,P|147:76|76:68,1,140.25,8|0,0:2|1:0,0:0:0:0:
62,62,69934,1,10,0:0:0:0:
155,181,70100,1,2,1:2:0:0:
0,295,70267,6,0,L|19:203,1,93.5,6|0,1:2|0:0,0:0:0:0:
91,358,70600,1,10,0:1:0:0:
168,279,70767,2,0,P|259:260|358:243,1,187,2|0,0:0|1:0,0:0:0:0:
467,133,71267,2,0,P|421:130|383:156,1,93.5,10|0,0:1|0:0,0:0:0:0:
466,317,71600,6,0,L|446:225,1,93.5,2|2,1:1|1:2,0:0:0:0:
368,352,71934,1,10,0:1:0:0:
293,289,72100,2,0,P|247:282|206:305,1,93.5,2|2,1:2|0:1,0:0:0:0:
59,364,72434,2,0,L|78:272,1,93.5,2|10,1:2|0:1,0:0:0:0:
158,207,72767,1,2,0:0:0:0:
39,131,72934,6,0,P|84:137|124:115,1,93.5,2|0,1:1|0:0,0:0:0:0:
145,96,73184,1,0,0:0:0:0:
145,96,73267,1,0,1:0:0:0:
261,0,73434,6,0,B|232:98|346:88|317:184,1,204,10|0,0:1|1:0,0:0:0:0:
224,364,73934,2,0,P|256:291|322:315,1,153,10|0,0:1|0:0,0:0:0:0:
342,329,74267,1,10,0:3:0:0:
192,190,74434,1,8,0:0:0:0:
429,73,74600,1,8,0:0:0:0:
266,0,74767,5,8,0:0:0:0:
270,25,74850,1,8,0:0:0:0:
276,51,74934,1,10,0:0:0:0:
281,76,75017,1,8,0:3:0:0:
286,103,75100,1,4,0:3:0:0:
291,129,75184,1,0,1:0:0:0:
297,154,75267,5,10,0:0:0:0:
463,239,75434,1,2,0:0:0:0:
348,359,75600,2,0,P|320:319|337:273,1,102,6|0,1:2|0:0,0:0:0:0:
350,259,75934,1,2,0:0:0:0:
232,252,76100,6,0,P|162:266|96:293,1,136,10|4,0:3|0:3,0:0:0:0:
197,157,76600,1,6,0:3:0:0:
197,157,76767,1,2,0:0:0:0:
327,217,76934,6,0,B|386:202|386:202|403:179|403:179|473:164,1,136,6|2,1:2|0:0,0:0:0:0:
312,80,77434,2,0,L|223:58,1,68,2|0,0:0|0:0,0:0:0:0:
82,132,77767,1,2,1:2:0:0:
124,2,77934,1,12,0:0:0:0:
245,64,78100,1,2,0:0:0:0:
245,64,78184,1,0,0:0:0:0:
245,64,78267,6,0,P|322:64|398:13,1,153,6|0,1:2|0:0,0:0:0:0:
410,0,78600,2,0,P|415:53|441:112,1,102,10|0,0:1|1:0,0:0:0:0:
512,230,78934,1,2,1:1:0:0:
405,360,79100,1,0,1:0:0:0:
253,202,79267,2,0,P|330:201|406:253,1,153,10|0,0:1|0:0,0:0:0:0:
406,252,79600,5,2,1:2:0:0:
321,64,79767,1,2,1:2:0:0:
491,102,79934,1,10,0:0:0:0:
406,252,80100,2,0,B|338:231|334:305|255:283,1,153,6|0,1:2|0:0,0:0:0:0:
245,282,80434,1,2,1:2:0:0:
57,317,80600,1,10,0:1:0:0:
165,382,80767,1,2,0:0:0:0:
136,225,80934,6,0,P|130:180|99:139,1,85,2|0,1:2|1:0,0:0:0:0:
100,3,81267,1,10,0:1:0:0:
202,83,81434,1,0,0:0:0:0:
202,83,81517,1,8,0:0:0:0:
202,83,81600,2,0,P|246:73|306:59,1,85,2|0,1:1|1:0,0:0:0:0:
444,115,81934,1,10,0:1:0:0:
361,234,82100,1,2,0:0:0:0:
361,234,82184,1,0,0:0:0:0:
361,234,82267,6,0,P|312:245|257:258,1,85,2|2,1:2|1:2,0:0:0:0:
183,346,82600,1,10,0:0:0:0:
19,203,82767,2,0,B|63:162|110:188|110:188|129:226|166:234,1,170,6|0,1:2|1:0,0:0:0:0:
315,119,83267,1,10,0:1:0:0:
310,89,83350,1,2,0:0:0:0:
287,68,83434,1,2,0:0:0:0:
256,65,83517,1,2,0:0:0:0:
230,82,83600,6,0,P|224:124|193:152,1,85,2|0,1:2|1:0,0:0:0:0:
3,108,83934,2,0,P|49:45|133:78,1,170,10|2,0:1|1:1,0:0:0:0:
198,241,84434,1,0,1:0:0:0:
230,82,84600,1,10,0:1:0:0:
93,168,84767,1,2,1:2:0:0:
93,168,84850,1,0,0:0:0:0:
93,168,84934,6,0,P|61:204|11:214,1,85,2|2,1:2|1:2,0:0:0:0:
126,68,85267,1,10,0:0:0:0:
285,177,85434,2,0,B|365:151|360:245|451:208,1,170,6|2,1:2|1:2,0:0:0:0:
484,195,85850,1,0,0:0:0:0:
484,195,85934,1,10,0:1:0:0:
328,84,86100,1,2,0:0:0:0:
163,169,86267,6,0,P|178:123|180:65,1,85,2|0,1:2|1:0,0:0:0:0:
310,1,86600,2,0,P|314:44|328:84,1,85,10|0,0:1|0:0,0:0:0:0:
347,131,86850,1,8,0:0:0:0:
347,131,86934,2,0,P|307:106|240:101,1,85,2|0,1:1|1:0,0:0:0:0:
176,260,87267,1,10,0:1:0:0:
106,60,87434,1,2,0:0:0:0:
106,60,87517,1,0,0:0:0:0:
106,60,87600,5,2,1:2:0:0:
270,99,87767,1,2,1:2:0:0:
84,225,87934,1,10,0:0:0:0:
258,340,88100,1,6,1:2:0:0:
258,340,88184,1,0,0:0:0:0:
258,340,88267,2,0,L|265:281,1,42.5
156,135,88434,2,0,L|163:194,1,42.5,8|0,0:0|0:0,0:0:0:0:
95,319,88600,1,8,0:0:0:0:
55,68,88924,6,0,B|44:79|21:74|-4:25|70:-36|168:26|155:137,1,255,6|2,1:2|0:0,0:0:0:0:
346,150,90303,6,0,B|319:116|255:124|250:186|254:190|257:194|260:198|269:237|213:283|168:241,1,255,6|2,1:2|0:0,0:0:0:0:
5,224,91682,5,2,1:2:0:0:
5,224,92027,2,0,P|46:222|82:204,1,76.5000000000001,2|0,0:0|1:0,0:0:0:0:
99,316,92372,2,0,P|176:328|248:359,1,153,10|0,0:0|0:0,0:0:0:0:
169,242,92889,1,0,1:0:0:0:
233,168,93061,2,0,P|267:183|306:185,2,76.5000000000001,2|2|2,0:0|0:0|0:0,0:0:0:0:
154,5,93579,6,0,P|157:85|117:180,1,153,2|0,1:2|1:0,0:0:0:0:
0,64,94096,2,0,P|41:62|77:44,1,76.5000000000001,8|0,0:0|0:0,0:0:0:0:
220,99,94441,6,0,B|231:97|238:83|222:46|157:46|117:101|135:157,1,178.5,2|2,1:2|0:0,0:0:0:0:
240,261,95130,2,0,L|226:185,1,59.4999999999999,10|0,0:0|0:0,0:0:0:0:
138,262,95475,2,0,L|152:338,1,59.4999999999999,2|0,0:0|1:0,0:0:0:0:
248,362,95820,1,2,0:0:0:0:
248,362,95992,5,0,1:0:0:0:
332,305,96165,1,0,1:0:0:0:
332,305,96337,1,2,0:0:0:0:
422,366,96510,6,0,L|433:306,1,61.6249999999998,8|2,0:0|0:0,0:0:0:0:
343,244,96867,2,0,L|331:308,1,61.2,2|2,0:0|0:0,0:0:0:0:
439,199,97199,1,2,1:2:0:0:
439,199,97371,1,0,1:0:0:0:
349,138,97543,6,0,P|383:99|433:93,1,102,2|0,0:0|0:0,0:0:0:0:
480,77,97888,2,0,P|407:61|324:40,1,140.25,8|0,0:0|0:0,0:0:0:0:
323,39,98233,1,2,0:0:0:0:
222,150,98405,1,2,0:0:0:0:
236,1,98578,5,2,1:2:0:0:
314,129,98750,1,0,1:0:0:0:
218,244,98923,1,8,0:0:0:0:
305,370,99095,1,10,0:3:0:0:
305,370,99181,1,8,0:3:0:0:
305,370,99267,2,0,P|353:354|423:346,1,93.5,2|0,1:2|1:0,0:0:0:0:
222,150,99612,2,0,P|175:142|131:127,1,93.5,8|0,0:0|0:0,0:0:0:0:
96,305,99958,6,0,P|36:298|7:352,2,119,4|2|2,1:2|1:2|0:0,0:0:0:0:
179,237,100986,1,10,0:0:0:0:
179,237,101158,1,0,1:0:0:0:
208,340,101329,2,0,L|266:352,1,59.4999999999999,2|8,1:2|0:0,0:0:0:0:
346,276,101672,2,0,L|288:264,1,59.4999999999999,2|8,1:2|0:0,0:0:0:0:
179,237,102015,6,0,B|164:245|151:258|151:258|177:161,1,127.5,6|0,1:2|0:0,0:0:0:0:
286,97,102358,2,0,P|220:87|195:35,1,127.5,6|0,1:2|0:0,0:0:0:0:
114,102,102700,5,6,1:2:0:0:
15,204,103040,2,0,L|92:186,1,59.4999999999999,10|8,0:3|0:3,0:0:0:0:
30,53,103381,2,0,L|12:130,1,59.4999999999999,6|4,0:3|0:3,0:0:0:0:
114,102,103722,2,0,L|127:44,1,59.4999999999999,6|4,0:3|0:3,0:0:0:0:
169,181,104063,5,10,0:3:0:0:
257,141,104234,1,8,0:3:0:0:
306,242,104404,1,6,0:3:0:0:
400,180,104575,1,4,0:3:0:0:
449,297,104745,6,0,B|472:262|513:270|513:270|483:281|471:301,1,127.5,6|0,1:2|0:0,0:0:0:0:
349,354,105086,2,0,P|289:336|215:317,1,127.5,6|0,1:2|0:0,0:0:0:0:
306,242,105431,5,6,1:2:0:0:
413,76,105768,2,0,L|427:9,1,68,10|2,0:0|1:2,0:0:0:0:
510,105,106105,2,0,L|495:171,1,68,10|2,0:3|1:2,0:0:0:0:
304,182,106442,2,0,P|368:164|399:194,1,102,10|0,0:0|0:0,0:0:0:0:
408,213,106779,1,2,1:2:0:0:
312,353,106947,2,0,L|328:287,1,68,2|8,1:2|0:0,0:0:0:0:
436,327,107284,5,2,1:2:0:0:
357,161,107453,1,2,1:2:0:0:
226,256,107622,1,2,1:2:0:0:
174,56,107790,1,14,0:0:0:0:
259,163,107959,1,2,0:0:0:0:
128,273,108127,6,0,L|47:256,1,68,6|0,1:2|0:0,0:0:0:0:
161,180,108464,1,10,0:1:0:0:
289,332,108633,1,2,0:0:0:0:
306,77,108801,2,0,P|348:72|406:55,1,76.5000000000001,10|0,0:1|1:0,0:0:0:0:
505,285,109138,2,0,P|467:276|427:270,1,79.0500000000001,10|0,0:1|1:0,0:0:0:0:
460,112,109458,5,10,0:1:0:0:
376,342,109635,1,0,1:0:0:0:
259,163,109813,1,10,0:1:0:0:
148,364,109981,2,0,P|140:315|125:265,1,93.5,2|10,1:2|0:1,0:0:0:0:
357,109,110318,2,0,P|365:158|380:208,1,93.5,2|10,1:2|0:1,0:0:0:0:
150,169,110655,1,2,0:0:0:0:
254,4,110824,6,0,P|284:68|353:53,1,153,6|0,1:2|0:0,0:0:0:0:
508,83,111498,1,8,0:3:0:0:
442,13,111666,1,4,0:3:0:0:
458,162,111835,5,10,0:0:0:0:
443,158,111919,1,8,0:0:0:0:
427,155,112003,1,0,1:0:0:0:
412,152,112088,1,0,1:0:0:0:
396,150,112172,2,0,L|353:141,1,34,8|0,0:0|0:0,0:0:0:0:
269,259,112340,2,0,L|306:252,1,34,10|0,0:0|0:0,0:0:0:0:
201,137,112509,6,0,P|163:114|117:118,1,89.2499999999999,2|0,0:0|0:0,0:0:0:0:
54,32,112842,2,0,P|84:33|124:18,1,57.8,2|0,0:0|0:0,0:0:0:0:
201,3,113009,6,0,B|230:94|116:81|151:187,1,204,4|0,1:2|0:0,0:0:0:0:
39,381,113507,6,0,P|68:336|58:291,1,102,6|2,1:2|0:1,0:0:0:0:
83,126,113840,2,0,P|107:173|151:187,1,102,10|2,0:0|0:1,0:0:0:0:
276,292,114173,2,0,P|222:289|188:320,1,102,2|2,1:2|0:1,0:0:0:0:
277,173,114507,1,10,0:0:0:0:
402,314,114673,2,0,P|408:261|432:188,1,102,2|0,0:1|1:0,0:0:0:0:
181,107,115007,2,0,P|175:160|151:233,1,102,2|8,0:1|0:0,0:0:0:0:
295,49,115340,6,0,B|389:33|383:140|476:120,1,204,2|2,0:1|0:1,0:0:0:0:
464,14,115840,1,8,0:0:0:0:
310,148,116007,1,2,0:1:0:0:
452,302,116173,6,0,P|406:313|358:335,1,93.5,2|2,1:2|0:1,0:0:0:0:
417,181,116507,1,10,0:0:0:0:
270,357,116673,1,2,0:1:0:0:
270,357,116757,1,8,0:0:0:0:
270,357,116840,1,0,1:0:0:0:
217,122,117007,1,2,0:1:0:0:
335,247,117173,1,10,0:0:0:0:
168,372,117340,6,0,P|125:353|79:342,1,93.5,2|0,0:1|1:0,0:0:0:0:
50,129,117673,1,2,0:1:0:0:
206,290,117840,1,10,0:0:0:0:
4,239,118007,2,0,P|46:220|92:210,1,93.5,2|0,0:1|1:0,0:0:0:0:
201,29,118340,2,0,P|156:18|113:0,1,93.5,2|8,0:1|0:0,0:0:0:0:
212,136,118673,1,2,0:1:0:0:
339,0,118840,6,0,B|319:84|431:72|408:173,1,187,6|8,1:2|0:0,0:0:0:0:
310,282,119340,1,2,0:1:0:0:
306,157,119507,1,0,1:0:0:0:
432,302,119673,1,2,0:1:0:0:
249,361,119840,6,0,P|202:363|153:393,1,93.5,10|2,0:0|0:1,0:0:0:0:
148,231,120173,2,0,L|166:133,1,93.5,2|2,1:2|0:1,0:0:0:0:
2,249,120506,2,0,L|20:347,1,93.5,10|2,0:0|0:1,0:0:0:0:
25,373,120756,1,8,0:0:0:0:
25,373,120840,1,2,1:2:0:0:
148,231,121006,1,2,0:1:0:0:
0,151,121173,1,10,0:0:0:0:
98,311,121340,1,2,0:1:0:0:
245,201,121506,6,0,B|292:161|298:87|298:87|330:154|389:172,1,255,6|0,1:2|1:0,0:0:0:0:
285,8,122006,2,0,L|325:243,1,216.75,14|0,0:0|0:0,0:0:0:0:
327,254,122340,1,2,1:2:0:0:
210,148,122506,1,14,0:0:0:0:
149,303,122673,1,2,0:0:0:0:
15,150,122840,1,0,1:0:0:0:
0,350,123006,6,0,L|101:318,1,93.5,14|0,0:0|1:0,0:0:0:0:
110,106,123340,1,0,1:0:0:0:
232,247,123506,1,8,0:3:0:0:
340,15,123673,1,8,0:3:0:0:
340,50,123756,1,8,0:3:0:0:
356,79,123840,1,8,0:3:0:0:
380,103,123923,1,4,0:3:0:0:
413,112,124006,1,4,0:3:0:0:
447,112,124090,1,4,0:3:0:0:
478,96,124173,6,0,P|466:148|490:187,1,102,6|0,1:2|0:0,0:0:0:0:
362,384,124506,2,0,P|368:331|392:258,1,102,10|2,0:0|0:1,0:0:0:0:
229,152,124840,2,0,P|243:103|249:53,1,102,2|2,1:2|0:1,0:0:0:0:
373,190,125173,1,10,0:0:0:0:
174,283,125340,2,0,P|225:271|264:296,1,102,2|0,0:1|1:0,0:0:0:0:
464,203,125673,2,0,P|412:214|373:189,1,102,2|8,0:1|0:0,0:0:0:0:
204,4,126006,6,0,B|159:95|273:105|228:194,1,204,2|2,0:1|0:1,0:0:0:0:
144,280,126506,1,8,0:0:0:0:
48,203,126673,1,2,0:1:0:0:
228,193,126840,6,0,B|292:180|292:180|320:192|320:192|388:177,1,153,2|0,1:2|0:0,0:0:0:0:
399,174,127173,1,10,0:0:0:0:
359,0,127340,2,0,B|337:30|337:30|356:106,1,102,2|0,0:1|1:0,0:0:0:0:
482,125,127673,2,0,B|504:155|504:155|485:231,1,102,2|8,0:1|0:0,0:0:0:0:
351,259,128006,1,2,0:1:0:0:
484,369,128173,6,0,B|439:345|432:283|432:283|408:339|350:350,1,204,2|10,1:2|0:0,0:0:0:0:
198,355,128673,1,2,0:1:0:0:
198,355,128756,1,2,0:1:0:0:
198,355,128840,1,0,1:0:0:0:
268,255,129006,2,0,P|274:227|283:200,1,51,2|2,0:1|0:1,0:0:0:0:
193,152,129173,2,0,P|183:98|169:54,1,102,10|2,0:0|0:1,0:0:0:0:
335,115,129506,6,0,P|423:132|447:85,1,153,6|0,1:2|0:0,0:0:0:0:
464,44,129840,2,0,P|472:95|494:149,1,102,10|2,0:0|0:1,0:0:0:0:
373,241,130173,1,0,1:0:0:0:
512,305,130340,1,2,0:1:0:0:
369,384,130506,2,0,B|386:363|402:345|402:345|387:303|374:242,1,140.25,10|0,0:0|0:0,0:0:0:0:
373,241,130840,6,0,P|320:236|294:189,1,93.5,2|2,1:2|0:1,0:0:0:0:
447,87,131173,2,0,B|456:136|474:176|474:176,1,93.5,10|2,0:0|0:1,0:0:0:0:
340,110,131506,1,2,1:2:0:0:
198,171,131673,1,2,0:1:0:0:
99,23,131840,2,0,B|90:72|72:112|72:112,1,93.5,10|2,0:0|0:1,0:0:0:0:
21,262,132173,6,0,B|-2:293|1:326|1:326|23:282|103:233|162:276,1,255,6|8,1:2|0:0,0:0:0:0:
240,384,132673,2,0,B|205:296|337:288|290:188,1,216.75,6|0,0:1|0:0,0:0:0:0:
280,171,133006,1,2,0:1:0:0:
388,28,133173,1,10,0:0:0:0:
201,86,133340,1,2,0:1:0:0:
431,143,133506,5,2,1:2:0:0:
246,0,133673,1,14,0:0:0:0:
290,189,133840,2,0,P|327:155|331:106,1,102,14|0,0:0|1:0,0:0:0:0:
440,241,134173,2,0,P|443:286|476:318,1,93.5,10|8,0:0|0:3,0:0:0:0:
271,327,134506,1,10,0:3:0:0:
223,311,134590,1,4,0:3:0:0:
182,325,134673,1,4,0:3:0:0:
159,354,134756,1,4,0:3:0:0:
151,384,134840,6,0,B|138:320|138:320|150:292|150:292|135:224,1,153,6|0,1:2|0:0,0:0:0:0:
132,213,135173,1,2,1:2:0:0:
238,96,135340,2,0,L|220:186,1,85,14|0,0:0|0:0,0:0:0:0:
77,141,135673,1,2,1:2:0:0:
0,249,135840,2,0,P|41:255|79:237,1,85,14|0,0:0|1:0,0:0:0:0:
159,108,136173,6,0,P|197:90|238:96,1,85,10|8,0:0|0:3,0:0:0:0:
413,58,136506,1,2,1:2:0:0:
294,0,136673,1,14,0:0:0:0:
345,166,136840,2,0,L|327:256,1,85,2|0,0:0|1:0,0:0:0:0:
512,170,137173,2,0,L|496:87,1,85,10|0,0:0|1:0,0:0:0:0:
502,321,137506,6,0,B|460:282|407:297|407:297|392:331|357:337,1,170,6|10,1:2|0:3,0:0:0:0:
249,219,138006,1,6,0:3:0:0:
249,219,138090,1,4,0:3:0:0:
249,219,138173,2,0,P|290:209|327:229,1,85,0|2,1:0|0:0,0:0:0:0:
236,352,138506,2,0,P|198:370|158:361,1,85,0|6,1:0|0:3,0:0:0:0:
114,275,138756,1,4,0:3:0:0:
127,262,138840,6,0,L|145:170,1,93.5,4|0,1:0|0:0,0:0:0:0:
63,12,139173,1,8,0:3:0:0:
0,129,139340,1,8,0:3:0:0:
36,139,139423,1,8,0:3:0:0:
74,121,139506,1,8,0:2:0:0:
111,88,139590,1,8,0:3:0:0:
161,69,139673,1,8,0:3:0:0:
216,80,139756,1,0,1:0:0:0:
253,126,139840,5,10,0:0:0:0:
353,294,140006,1,2,1:2:0:0:
485,131,140173,2,0,P|442:148|396:153,1,93.5,6|0,1:2|0:0,0:0:0:0:
338,63,140506,1,10,0:1:0:0:
306,218,140673,6,0,B|221:177|227:307|115:253,1,187,2|0,0:0|1:0,0:0:0:0:
38,115,141173,2,0,P|83:119|116:152,1,93.5,10|0,0:1|0:0,0:0:0:0:
13,308,141506,2,0,L|33:216,1,93.5,2|2,1:1|1:2,0:0:0:0:
109,363,141840,1,10,0:1:0:0:
137,262,142006,2,0,P|185:262|222:235,1,93.5,2|2,1:2|0:1,0:0:0:0:
316,59,142340,2,0,L|336:151,1,93.5,2|10,1:2|0:1,0:0:0:0:
330,263,142673,1,2,0:0:0:0:
452,342,142840,5,6,1:2:0:0:
256,192,142923,12,2,145173,0:0:0:0:
327,303,145506,6,0,P|353:259|413:246,1,102,2|2,0:0|0:0,0:0:0:0:
480,182,146006,2,0,P|503:226|484:284,1,102,2|0,0:0|0:0,0:0:0:0:
506,374,146506,2,0,P|454:372|413:327,1,102,2|2,0:0|0:0,0:0:0:0:
327,303,147006,6,0,L|266:293,2,50.9999999999999,2|2|2,0:0|0:0|0:0,0:0:0:0:
216,366,147506,2,0,L|155:376,1,50.9999999999999,2|2,0:0|0:0,0:0:0:0:
104,302,147840,1,2,0:1:0:0:
128,23,148173,6,0,B|153:6|153:6|138:105,1,119,2|0,1:2|0:0,0:0:0:0:
42,130,148673,1,2,1:2:0:0:
123,198,148840,2,0,P|187:197|228:150,1,119,8|2,0:1|0:0,0:0:0:0:
292,41,149340,2,0,P|258:48|236:67,1,59.4999999999999,0|0,1:0|0:0,0:0:0:0:
330,148,149673,1,2,1:2:0:0:
330,148,149840,1,2,1:2:0:0:
435,4,150173,6,0,B|448:23|462:40|462:40|447:76|430:130,1,119,10|2,0:1|0:0,0:0:0:0:
512,335,150840,6,0,B|484:317|479:277|479:277|463:314|430:321,1,136,2|0,1:2|0:0,0:0:0:0:
343,270,151340,1,2,1:2:0:0:
258,380,151506,2,0,P|247:310|228:244,1,136,8|2,0:1|0:0,0:0:0:0:
305,159,152006,2,0,P|342:155|365:135,1,68,0|0,1:0|0:0,0:0:0:0:
190,131,152340,1,2,1:2:0:0:
190,131,152506,1,0,1:0:0:0:
0,41,152840,6,0,L|13:112,1,68,10|0,0:0|0:0,0:0:0:0:
82,210,153173,2,0,L|66:300,1,82.8749999999999,2|0,0:1|0:0,0:0:0:0:
115,374,153506,6,0,P|69:310|3:331,1,153,2|0,1:2|1:0,0:0:0:0:
160,268,154006,2,0,L|173:192,1,76.5000000000001,2|0,1:2|0:0,0:0:0:0:
242,59,154340,1,2,1:2:0:0:
140,91,154506,1,10,0:0:0:0:
274,161,154673,2,0,L|350:148,1,76.5000000000001,2|0,0:0|1:0,0:0:0:0:
512,175,155006,1,2,0:0:0:0:
446,77,155173,1,2,0:0:0:0:
416,247,155340,6,0,B|347:229|349:311|275:288,1,153,2|0,1:2|1:0,0:0:0:0:
105,279,155840,1,8,0:0:0:0:
178,369,156006,1,2,0:0:0:0:
193,219,156173,2,0,L|180:143,1,76.5000000000001,0|0,1:2|0:0,0:0:0:0:
232,54,156506,1,2,0:0:0:0:
100,76,156673,6,0,B|65:55|58:13|58:13|38:52|-3:65,1,153,2|2,1:2|1:2,0:0:0:0:
41,153,157173,1,10,0:0:0:0:
180,143,157340,2,0,B|214:134|214:134|232:142|232:142|267:133,1,76.5000000000001,2|0,0:0|1:0,0:0:0:0:
339,201,157673,1,2,0:0:0:0:
451,13,157840,6,0,B|434:82|434:82|450:117|450:117|431:187,1,152.999995330811,2|0,0:0|0:0,0:0:0:0:
350,105,158336,1,0,1:0:0:0:
466,267,158502,1,8,0:1:0:0:
466,267,158835,6,0,B|376:242|394:359|298:329,1,187,6|0,1:2|1:0,0:0:0:0:
114,190,159335,2,0,P|142:233|127:280,1,93.5,10|0,0:1|0:0,0:0:0:0:
213,370,159668,1,0,1:0:0:0:
239,199,159835,1,10,0:1:0:0:
20,331,159998,1,0,1:0:0:0:
24,116,160162,5,10,0:1:0:0:
133,271,160328,1,0,1:0:0:0:
133,271,160495,1,0,1:0:0:0:
220,14,160662,2,0,P|279:100|348:63,1,187,10|0,0:1|1:0,0:0:0:0:
512,100,161173,1,10,0:1:0:0:
328,182,161339,1,0,1:0:0:0:
440,0,161506,6,0,L|423:148,1,140.25,14|0,0:0|0:0,0:0:0:0:
423,157,161839,1,2,1:2:0:0:
484,303,162006,2,0,P|453:268|408:260,1,93.5,10|0,0:0|0:0,0:0:0:0:
308,384,162339,2,0,L|297:291,1,93.5,2|0,0:0|1:0,0:0:0:0:
226,206,162672,1,2,0:0:0:0:
100,350,162839,5,0,1:0:0:0:
4,190,163006,1,8,0:0:0:0:
196,307,163172,1,0,1:0:0:0:
286,92,163339,1,8,0:0:0:0:
409,254,163506,5,0,1:0:0:0:
199,119,163672,1,8,0:0:0:0:
321,351,163839,1,8,0:0:0:0:
400,57,164006,1,8,0:0:0:0:
226,206,164172,5,6,1:2:0:0:
128,59,164339,1,8,0:0:0:0:
100,292,164506,1,10,0:0:0:0:
12,166,164672,6,0,B|104:142|104:142|112:177|141:191,1,153,4|0,1:2|0:0,0:0:0:0:
379,181,165172,5,10,0:0:0:0:
428,213,165256,1,8,0:0:0:0:
439,271,165339,1,8,0:0:0:0:
405,319,165422,1,8,0:0:0:0:
346,328,165506,1,6,1:2:0:0:
254,230,165672,5,8,0:3:0:0:
135,188,165839,5,10,0:3:0:0:
95,161,165922,1,8,0:3:0:0:
85,115,166006,1,4,0:3:0:0:
113,77,166089,1,4,0:3:0:0:
160,69,166172,1,10,0:3:0:0:
305,26,166339,5,8,0:3:0:0:
295,59,166422,1,8,0:3:0:0:
288,94,166506,1,6,0:3:0:0:
279,128,166589,1,4,0:3:0:0:
271,163,166672,1,4,0:3:0:0:
262,196,166756,1,4,0:3:0:0:
254,230,166840,5,6,1:2:0:0:
256,192,166927,12,2,168594,0:0:0:0:
84,165,168769,5,2,0:0:0:0:
95,166,168852,1,2,0:0:0:0:
107,168,168935,1,2,0:0:0:0:
118,171,169019,1,2,0:0:0:0:
130,173,169102,1,2,0:0:0:0:
274,252,169494,6,0,B|339:227|351:153|351:153|436:149|491:80|491:80|495:96|499:109|499:109|427:122|369:199,1,474.30001483635,6|2,1:2|0:0,0:0:0:0:
383,49,170827,5,0,1:0:0:0:
483,216,170994,1,14,0:0:0:0:
200,176,171327,5,2,1:2:0:0:
170,278,171494,1,0,1:0:0:0:
117,110,171660,6,0,B|95:56|29:62|29:62|66:80|80:109,1,170,14|0,0:0|1:0,0:0:0:0:
200,176,172160,6,0,B|316:139|306:299|424:251,1,254.999999999999,6|2,1:2|0:0,0:0:0:0:
495,186,173160,2,0,P|512:216|514:249,1,68,2|2,0:0|0:0,0:0:0:0:
403,156,173494,1,0,1:0:0:0:
507,7,173660,2,0,B|490:48|490:48|513:82,1,85,14|2,0:0|0:0,0:0:0:0:
354,65,173994,6,0,B|297:76|297:76|286:88|286:88|227:100,1,127.5,14|0,0:0|0:0,0:0:0:0:
218,103,174327,2,0,L|146:91,1,42.5,2|0,1:2|0:0,0:0:0:0:
82,44,174494,1,8,0:0:0:0:
30,64,174577,1,8,0:0:0:0:
9,114,174660,1,8,0:0:0:0:
29,164,174744,1,8,0:0:0:0:
78,184,174827,6,0,B|165:172|158:280|261:252,1,187,6|8,1:2|0:0,0:0:0:0:
428,194,175327,1,2,0:1:0:0:
317,169,175494,1,0,1:0:0:0:
375,341,175660,1,2,0:1:0:0:
241,255,175827,6,0,P|191:246|157:207,1,93.5,10|2,0:0|0:1,0:0:0:0:
3,309,176160,2,0,P|48:293|107:280,1,93.5,2|2,1:2|0:1,0:0:0:0:
191,127,176494,2,0,P|145:116|101:100,1,93.5,10|2,0:0|0:1,0:0:0:0:
0,0,176827,1,2,1:2:0:0:
32,155,176994,1,2,0:1:0:0:
182,3,177160,1,10,0:0:0:0:
317,169,177327,1,2,0:1:0:0:
512,60,177494,6,0,B|511:80|519:110|519:110|484:62|414:35|375:43|375:43|397:55|409:77,1,255,6|0,1:2|1:0,0:0:0:0:
401,382,177994,2,0,B|361:300|479:300|424:185,1,204,14|0,0:0|0:0,0:0:0:0:
416,168,178327,1,2,1:2:0:0:
288,56,178494,1,14,0:0:0:0:
226,216,178660,1,2,0:0:0:0:
60,39,178827,1,0,1:0:0:0:
0,265,178994,6,0,P|82:265|96:329,1,140.25,14|0,0:0|0:0,0:0:0:0:
102,331,179327,1,0,1:0:0:0:
226,216,179494,1,8,0:3:0:0:
256,352,179660,1,8,0:3:0:0:
293,354,179744,1,8,0:3:0:0:
326,329,179827,1,8,0:3:0:0:
356,288,179910,1,4,0:3:0:0:
400,260,179994,1,4,0:3:0:0:
456,259,180077,1,4,0:3:0:0:
502,296,180160,6,0,P|474:248|486:204,1,102,6|0,1:2|0:0,0:0:0:0:
247,177,180494,2,0,P|301:176|333:209,1,102,10|2,0:0|0:1,0:0:0:0:
472,14,180827,2,0,P|444:59|399:72,1,102,2|2,1:2|0:1,0:0:0:0:
211,31,181160,1,10,0:0:0:0:
269,238,181327,6,0,P|275:187|291:123,1,102,2|0,0:1|1:0,0:0:0:0:
70,45,181660,2,0,P|64:96|48:160,1,102,2|8,0:1|0:0,0:0:0:0:
99,382,181994,6,0,B|70:287|184:297|155:199,1,204,2|2,0:1|0:1,0:0:0:0:
128,13,182494,1,8,0:0:0:0:
52,145,182660,1,2,0:1:0:0:
239,114,182827,6,0,P|322:121|340:63,1,153,2|0,1:2|0:0,0:0:0:0:
336,44,183160,1,10,0:0:0:0:
511,5,183327,2,0,P|498:56|489:119,1,102,2|0,0:1|1:0,0:0:0:0:
355,314,183660,2,0,P|349:264|336:215,1,102,2|8,0:1|0:0,0:0:0:0:
495,255,183994,1,2,0:1:0:0:
400,134,184160,6,0,B|360:108|353:45|353:45|329:105|274:119,1,204,2|10,1:2|0:0,0:0:0:0:
336,215,184660,1,2,0:1:0:0:
336,215,184744,1,2,0:1:0:0:
336,215,184827,1,0,1:0:0:0:
215,203,184994,2,0,P|187:209|160:218,1,51,2|2,0:1|0:1,0:0:0:0:
100,124,185160,2,0,P|46:114|2:100,1,102,10|2,0:0|0:1,0:0:0:0:
56,221,185493,6,0,P|73:309|26:333,1,153,6|0,1:2|0:0,0:0:0:0:
0,355,185827,2,0,P|51:363|105:384,1,102,10|2,0:0|0:1,0:0:0:0:
209,290,186160,1,0,1:0:0:0:
317,384,186327,1,2,0:1:0:0:
500,295,186493,6,0,B|472:274|468:232|468:232|448:270|417:273,1,140.25,10|0,0:0|0:0,0:0:0:0:
376,280,186827,2,0,P|364:226|352:176,1,93.5,2|2,1:2|0:1,0:0:0:0:
492,4,187160,2,0,P|503:57|516:108,1,93.5,10|2,0:0|0:1,0:0:0:0:
401,85,187493,1,2,1:2:0:0:
248,160,187660,1,2,0:1:0:0:
251,1,187827,2,0,P|239:49|201:74,1,93.5,10|2,0:0|0:1,0:0:0:0:
19,63,188160,6,0,B|20:43|-1:23|-1:23|69:0|138:58|113:145,1,255,6|8,1:2|0:0,0:0:0:0:
5,289,188660,2,0,P|105:263|238:240,1,216.75,6|0,0:1|0:0,0:0:0:0:
242,240,188993,1,2,0:1:0:0:
353,382,189160,1,10,0:0:0:0:
351,149,189327,1,2,0:1:0:0:
182,335,189493,5,2,1:2:0:0:
246,104,189660,1,14,0:0:0:0:
400,275,189827,2,0,P|447:256|497:248,1,102,14|0,0:0|1:0,0:0:0:0:
474,56,190160,2,0,P|427:49|384:32,1,93.5,10|8,0:0|0:3,0:0:0:0:
192,16,190493,1,10,0:3:0:0:
154,49,190577,1,4,0:3:0:0:
111,55,190660,1,4,0:3:0:0:
78,38,190743,1,4,0:3:0:0:
58,14,190827,6,0,B|73:77|73:77|95:97|95:97|111:165,1,153,6|0,1:2|0:0,0:0:0:0:
113,177,191160,1,2,1:2:0:0:
0,287,191327,2,0,L|18:197,1,85,14|0,0:0|0:0,0:0:0:0:
79,340,191660,1,2,1:2:0:0:
192,235,191827,2,0,P|233:229|271:247,1,85,14|0,0:0|1:0,0:0:0:0:
475,161,192160,6,0,P|437:179|396:173,1,85,10|8,0:0|0:3,0:0:0:0:
249,89,192493,1,2,1:2:0:0:
375,50,192660,1,14,0:0:0:0:
277,206,192827,2,0,L|265:290,1,85,2|0,0:0|1:0,0:0:0:0:
92,245,193160,2,0,L|80:161,1,85,14|0,0:0|1:0,0:0:0:0:
33,373,193493,6,0,B|81:367|98:326|98:326|148:324|177:358,1,170,6|10,1:2|0:3,0:0:0:0:
288,384,193993,1,6,0:3:0:0:
288,384,194077,1,4,0:3:0:0:
288,384,194160,2,0,P|308:346|303:299,1,85,0|2,1:0|0:0,0:0:0:0:
435,158,194493,2,0,P|432:199|452:236,1,85,0|6,1:0|0:3,0:0:0:0:
498,317,194743,1,4,0:3:0:0:
488,333,194827,6,0,L|393:312,1,93.5,6|0,1:2|0:0,0:0:0:0:
298,176,195160,1,8,0:3:0:0:
163,344,195327,1,8,0:3:0:0:
154,308,195410,1,8,0:3:0:0:
146,273,195493,1,8,0:2:0:0:
138,239,195577,1,8,0:3:0:0:
130,204,195660,1,8,0:3:0:0:
122,170,195743,1,0,1:0:0:0:
114,135,195827,5,10,0:0:0:0:
188,0,195993,1,2,1:2:0:0:
316,107,196160,6,0,P|360:123|404:110,1,93.5,6|0,1:2|0:0,0:0:0:0:
289,16,196493,1,10,0:1:0:0:
221,150,196660,2,0,P|240:241|257:340,1,187,2|0,0:0|1:0,0:0:0:0:
431,200,197160,2,0,P|388:185|344:198,1,93.5,10|0,0:1|0:0,0:0:0:0:
370,384,197493,6,0,P|379:335|390:292,1,93.5,2|2,1:1|1:2,0:0:0:0:
256,333,197827,1,10,0:1:0:0:
127,242,197993,2,0,P|138:287|146:334,1,93.5,2|2,1:2|0:1,0:0:0:0:
221,150,198327,6,0,P|189:116|144:108,1,93.5,2|10,1:2|0:1,0:0:0:0:
10,225,198660,1,2,0:0:0:0:
24,10,198827,2,0,P|35:56|42:101,1,93.5,2|0,1:1|0:0,0:0:0:0:
47,122,199077,1,0,0:0:0:0:
47,122,199160,1,0,1:0:0:0:
69,324,199327,6,0,B|117:265|187:284|187:284|204:324|247:332,1,204,10|0,0:1|1:0,0:0:0:0:
394,282,199827,2,0,P|368:206|300:224,1,153,10|0,0:1|0:0,0:0:0:0:
289,231,200160,1,10,0:3:0:0:
178,133,200327,1,8,0:0:0:0:
69,324,200493,1,8,0:0:0:0:
0,187,200660,5,8,0:0:0:0:
26,192,200743,1,8,0:0:0:0:
54,198,200827,1,10,0:0:0:0:
81,203,200910,1,8,0:3:0:0:
111,209,200993,1,4,0:3:0:0:
138,214,201077,1,0,1:0:0:0:
165,220,201160,5,14,0:0:0:0:
233,352,201327,1,2,0:0:0:0:
341,164,201493,2,0,P|336:212|374:243,1,102,6|0,1:2|0:0,0:0:0:0:
391,249,201827,1,2,0:0:0:0:
512,339,201993,6,0,P|442:353|376:380,1,136,10|4,0:3|0:3,0:0:0:0:
268,282,202493,1,6,0:3:0:0:
268,282,202660,1,2,0:0:0:0:
150,380,202827,6,0,B|91:362|91:362|75:339|75:339|5:321,1,136,6|2,1:2|0:0,0:0:0:0:
114,221,203327,2,0,L|179:201,1,68,2|0,0:0|0:0,0:0:0:0:
16,124,203660,1,2,1:2:0:0:
16,124,203743,1,0,1:0:0:0:
16,124,203827,1,12,0:0:0:0:
157,0,203993,1,2,0:0:0:0:
157,0,204077,1,0,0:0:0:0:
157,0,204160,6,0,B|181:26|203:48|203:48|182:104|154:199,1,187,6|10,1:2|0:0,0:0:0:0:
1,309,204660,2,0,P|93:287|214:263,1,187,2|0,0:0|1:0,0:0:0:0:
342,327,205160,2,0,P|305:282|319:228,1,93.5,10|0,0:0|0:0,0:0:0:0:
273,84,205493,6,0,P|257:124|243:177,1,93.5,2|0,1:2|1:0,0:0:0:0:
367,145,205827,1,8,0:0:0:0:
512,275,205993,2,0,B|475:244|470:194|470:194|445:241|397:257,1,187,2|0,0:0|1:0,0:0:0:0:
270,322,206493,2,0,P|307:277|293:223,1,93.5,10|0,0:0|0:0,0:0:0:0:
149,0,206827,6,0,L|187:173,1,165.75,6|0,1:2|0:0,0:0:0:0:
193,191,207160,1,0,1:0:0:0:
383,384,207327,6,0,L|421:211,1,165.75,14|0,0:0|0:0,0:0:0:0:
427,193,207660,1,0,1:0:0:0:
512,3,207827,6,0,P|476:66|394:45,1,165.75,14|0,0:0|0:0,0:0:0:0:
374,26,208160,1,0,1:0:0:0:
296,151,208327,1,14,0:0:0:0:
149,0,208493,1,2,0:0:0:0:
40,221,208660,5,0,1:0:0:0:
25,56,208827,1,10,0:0:0:0:
187,278,208993,1,0,1:0:0:0:
263,46,209160,1,10,0:0:0:0:
139,188,209327,5,6,1:2:0:0:
256,192,209410,12,0,213493,0:0:0:0:
