osu file format v14

[General]
AudioFilename: audio.mp3
AudioLeadIn: 0
PreviewTime: 47332
Countdown: 1
SampleSet: None
StackLeniency: 0.7
Mode: 3
LetterboxInBreaks: 0
SpecialStyle: 0
WidescreenStoryboard: 1

[Editor]
Bookmarks: 29032
DistanceSpacing: 2.5
BeatDivisor: 4
GridSize: 8
TimelineZoom: 1

[Metadata]
Title:Better Me Better You
TitleUnicode:Better Me Better You
Artist:Clara Mae & Jake Miller
ArtistUnicode:Clara Mae & Jake Miller
Creator:Umo-
Version:Horrible Relationship
Source:
Tags:
BeatmapID:1786302
BeatmapSetID:854862

[Difficulty]
HPDrainRate:7.5
CircleSize:7
OverallDifficulty:8
ApproachRate:5
SliderMultiplier:1.4
SliderTickRate:1

[Events]
//Background and Video events
0,0,"betteryou.jpg",0,0
//Break Periods
//Storyboard Layer 0 (Background)
//Storyboard Layer 1 (Fail)
//Storyboard Layer 2 (Pass)
//Storyboard Layer 3 (Foreground)
//Storyboard Sound Samples

[TimingPoints]
232,600,4,1,0,30,1,0
48232,-100,4,1,0,30,0,1
65032,-100,4,1,0,30,0,0
67432,-100,4,1,0,30,0,1
77032,-100,4,1,0,30,0,0

[HitObjects]
475,192,232,128,0,532:0:0:0:0:
182,192,532,128,0,682:0:0:0:0:
109,192,682,128,0,832:0:0:0:0:
329,192,982,128,0,1132:0:0:0:0:
256,192,1132,128,0,1432:0:0:0:0:
329,192,1432,128,0,2032:0:0:0:0:
36,192,1732,128,0,1882:0:0:0:0:
109,192,1882,128,0,2032:0:0:0:0:
182,192,2182,128,0,2332:0:0:0:0:
256,192,2332,128,0,2632:0:0:0:0:
475,192,2632,128,0,3232:0:0:0:0:
329,192,2932,128,0,3082:0:0:0:0:
182,192,3082,128,0,3232:0:0:0:0:
329,192,3382,1,0,0:0:0:0:
475,192,3832,128,0,4432:0:0:0:0:
182,192,4132,128,0,4282:0:0:0:0:
256,192,4282,128,0,4432:0:0:0:0:
109,192,4432,128,0,4732:0:0:0:0:
475,192,4732,128,0,4882:0:0:0:0:
402,192,4882,128,0,5032:0:0:0:0:
329,192,5032,128,0,5632:0:0:0:0:
109,192,5332,128,0,5482:0:0:0:0:
36,192,5482,128,0,5632:0:0:0:0:
182,192,5782,128,0,5932:0:0:0:0:
256,192,5932,128,0,6082:0:0:0:0:
402,192,6082,128,0,6232:0:0:0:0:
475,192,6232,128,0,6832:0:0:0:0:
109,192,6532,128,0,6682:0:0:0:0:
256,192,6682,128,0,6832:0:0:0:0:
329,192,6982,128,0,7132:0:0:0:0:
256,192,7132,128,0,7432:0:0:0:0:
109,192,7432,128,0,8032:0:0:0:0:
475,192,7732,128,0,7882:0:0:0:0:
402,192,7882,128,0,8032:0:0:0:0:
329,192,9832,1,0,0:0:0:0:
329,192,10282,1,0,0:0:0:0:
329,192,11032,1,0,0:0:0:0:
329,192,11482,1,0,0:0:0:0:
109,192,12232,1,0,0:0:0:0:
109,192,12682,1,0,0:0:0:0:
109,192,13432,1,0,0:0:0:0:
182,192,14032,1,0,0:0:0:0:
256,192,14632,1,0,0:0:0:0:
256,192,15082,1,0,0:0:0:0:
256,192,15832,1,0,0:0:0:0:
256,192,16282,1,0,0:0:0:0:
402,192,17032,1,0,0:0:0:0:
402,192,17482,1,0,0:0:0:0:
402,192,18232,1,0,0:0:0:0:
36,192,18232,128,0,18832:0:0:0:0:
402,192,18682,1,0,0:0:0:0:
329,192,18832,1,0,0:0:0:0:
475,192,19432,1,0,0:0:0:0:
475,192,19882,1,0,0:0:0:0:
475,192,20632,1,0,0:0:0:0:
475,192,21082,1,0,0:0:0:0:
329,192,21832,1,0,0:0:0:0:
329,192,22282,1,0,0:0:0:0:
402,192,23032,1,0,0:0:0:0:
256,192,23632,1,0,0:0:0:0:
182,192,24232,1,0,0:0:0:0:
182,192,24682,1,0,0:0:0:0:
182,192,25432,1,0,0:0:0:0:
182,192,25882,1,0,0:0:0:0:
109,192,26632,1,0,0:0:0:0:
329,192,28432,128,0,29032:0:0:0:0:
402,192,29032,128,0,29632:0:0:0:0:
182,192,29482,1,0,0:0:0:0:
329,192,29632,1,0,0:0:0:0:
256,192,29632,1,0,0:0:0:0:
109,192,29782,1,0,0:0:0:0:
182,192,29932,1,0,0:0:0:0:
329,192,30082,128,0,30832:0:0:0:0:
36,192,30232,1,0,0:0:0:0:
109,192,30382,1,0,0:0:0:0:
256,192,30682,1,0,0:0:0:0:
182,192,30832,1,0,0:0:0:0:
475,192,30832,1,0,0:0:0:0:
36,192,30982,128,0,31432:0:0:0:0:
256,192,31132,1,0,0:0:0:0:
475,192,31432,128,0,31882:0:0:0:0:
256,192,31582,1,0,0:0:0:0:
329,192,31732,1,0,0:0:0:0:
256,192,31882,128,0,32182:0:0:0:0:
36,192,32032,1,0,0:0:0:0:
109,192,32032,1,0,0:0:0:0:
182,192,32182,128,0,32632:0:0:0:0:
329,192,32332,1,0,0:0:0:0:
402,192,32482,1,0,0:0:0:0:
109,192,32632,128,0,33082:0:0:0:0:
475,192,32782,1,0,0:0:0:0:
36,192,33082,128,0,33532:0:0:0:0:
402,192,33232,1,0,0:0:0:0:
329,192,33232,1,0,0:0:0:0:
475,192,33532,1,0,0:0:0:0:
256,192,33532,128,0,33832:0:0:0:0:
109,192,33832,128,0,34132:0:0:0:0:
182,192,33982,1,0,0:0:0:0:
475,192,34282,1,0,0:0:0:0:
402,192,34432,1,0,0:0:0:0:
329,192,34432,1,0,0:0:0:0:
182,192,34582,128,0,35032:0:0:0:0:
256,192,34732,1,0,0:0:0:0:
329,192,34882,1,0,0:0:0:0:
475,192,35032,128,0,35482:0:0:0:0:
109,192,35182,1,0,0:0:0:0:
256,192,35482,128,0,35782:0:0:0:0:
329,192,35632,1,0,0:0:0:0:
182,192,35632,1,0,0:0:0:0:
402,192,35782,128,0,36232:0:0:0:0:
109,192,35932,1,0,0:0:0:0:
36,192,36082,1,0,0:0:0:0:
475,192,36232,128,0,36682:0:0:0:0:
182,192,36382,1,0,0:0:0:0:
402,192,36682,128,0,36982:0:0:0:0:
109,192,36832,1,0,0:0:0:0:
36,192,36832,1,0,0:0:0:0:
329,192,36982,128,0,37432:0:0:0:0:
182,192,37132,1,0,0:0:0:0:
36,192,37282,1,0,0:0:0:0:
256,192,37432,128,0,37882:0:0:0:0:
182,192,37582,1,0,0:0:0:0:
182,192,37882,128,0,38332:0:0:0:0:
109,192,38032,1,0,0:0:0:0:
402,192,38032,1,0,0:0:0:0:
256,192,38332,128,0,38632:0:0:0:0:
329,192,38332,1,0,0:0:0:0:
475,192,38632,128,0,39232:0:0:0:0:
109,192,38782,1,0,0:0:0:0:
182,192,39082,1,0,0:0:0:0:
329,192,39082,1,0,0:0:0:0:
402,192,39232,1,0,0:0:0:0:
109,192,39232,1,0,0:0:0:0:
329,192,39532,1,0,0:0:0:0:
36,192,39532,1,0,0:0:0:0:
475,192,39832,128,0,40432:0:0:0:0:
182,192,39982,1,0,0:0:0:0:
402,192,40132,1,0,0:0:0:0:
329,192,40132,1,0,0:0:0:0:
182,192,40282,1,0,0:0:0:0:
109,192,40282,1,0,0:0:0:0:
329,192,40432,1,0,0:0:0:0:
402,192,40432,1,0,0:0:0:0:
109,192,40732,1,0,0:0:0:0:
182,192,40732,1,0,0:0:0:0:
329,192,40882,1,0,0:0:0:0:
402,192,40882,1,0,0:0:0:0:
109,192,41032,128,0,41482:0:0:0:0:
182,192,41032,128,0,41482:0:0:0:0:
329,192,41482,1,0,0:0:0:0:
475,192,41482,1,0,0:0:0:0:
402,192,41632,1,0,0:0:0:0:
256,192,41632,1,0,0:0:0:0:
109,192,41782,128,0,41932:0:0:0:0:
182,192,41932,1,0,0:0:0:0:
475,192,41932,1,0,0:0:0:0:
329,192,41932,1,0,0:0:0:0:
36,192,42232,128,0,42832:0:0:0:0:
475,192,42532,1,0,0:0:0:0:
402,192,42532,1,0,0:0:0:0:
182,192,42682,1,0,0:0:0:0:
256,192,42682,1,0,0:0:0:0:
475,192,42832,1,0,0:0:0:0:
402,192,42832,1,0,0:0:0:0:
109,192,42982,128,0,43132:0:0:0:0:
329,192,43132,128,0,43432:0:0:0:0:
36,192,43432,1,0,0:0:0:0:
182,192,43432,1,0,0:0:0:0:
256,192,43582,1,0,0:0:0:0:
402,192,43882,1,0,0:0:0:0:
475,192,43882,1,0,0:0:0:0:
109,192,44032,1,0,0:0:0:0:
329,192,44032,1,0,0:0:0:0:
36,192,44032,1,0,0:0:0:0:
256,192,44182,128,0,44932:0:0:0:0:
475,192,44332,1,0,0:0:0:0:
402,192,44632,1,0,0:0:0:0:
36,192,44932,1,0,0:0:0:0:
109,192,44932,1,0,0:0:0:0:
402,192,45082,1,0,0:0:0:0:
475,192,45082,1,0,0:0:0:0:
109,192,45232,1,0,0:0:0:0:
36,192,45232,1,0,0:0:0:0:
329,192,45382,128,0,45532:0:0:0:0:
475,192,45532,1,0,0:0:0:0:
36,192,45532,1,0,0:0:0:0:
329,192,45682,1,0,0:0:0:0:
182,192,45682,1,0,0:0:0:0:
109,192,45832,128,0,46282:0:0:0:0:
402,192,45832,128,0,46282:0:0:0:0:
256,192,46282,128,0,46432:0:0:0:0:
402,192,46432,128,0,46882:0:0:0:0:
109,192,46432,128,0,46882:0:0:0:0:
256,192,46882,128,0,47032:0:0:0:0:
402,192,47032,128,0,47482:0:0:0:0:
109,192,47032,128,0,47482:0:0:0:0:
182,192,47482,1,0,0:0:0:0:
329,192,47482,1,0,0:0:0:0:
256,192,47557,1,0,0:0:0:0:
329,192,47632,1,0,0:0:0:0:
36,192,47932,1,0,0:0:0:0:
109,192,47932,1,0,0:0:0:0:
256,192,48082,1,0,0:0:0:0:
402,192,48082,1,0,0:0:0:0:
182,192,48232,1,0,0:0:0:0:
329,192,48232,1,0,0:0:0:0:
475,192,48232,1,0,0:0:0:0:
36,192,48232,1,0,0:0:0:0:
109,192,48382,1,0,0:0:0:0:
182,192,48532,128,0,48832:0:0:0:0:
329,192,48682,1,0,0:0:0:0:
256,192,48832,1,0,0:0:0:0:
36,192,48832,1,0,0:0:0:0:
329,192,48982,1,0,0:0:0:0:
109,192,49132,1,0,0:0:0:0:
402,192,49432,1,0,0:0:0:0:
329,192,49432,1,0,0:0:0:0:
256,192,49582,1,0,0:0:0:0:
182,192,49732,1,0,0:0:0:0:
36,192,49882,128,0,50032:0:0:0:0:
109,192,50032,1,0,0:0:0:0:
329,192,50032,1,0,0:0:0:0:
475,192,50032,1,0,0:0:0:0:
256,192,50182,1,0,0:0:0:0:
329,192,50332,1,0,0:0:0:0:
36,192,50332,1,0,0:0:0:0:
109,192,50632,1,0,0:0:0:0:
182,192,50632,1,0,0:0:0:0:
109,192,50782,1,0,0:0:0:0:
182,192,50782,1,0,0:0:0:0:
402,192,50932,1,0,0:0:0:0:
329,192,50932,1,0,0:0:0:0:
402,192,51082,1,0,0:0:0:0:
329,192,51082,1,0,0:0:0:0:
36,192,51232,1,0,0:0:0:0:
182,192,51232,1,0,0:0:0:0:
109,192,51232,1,0,0:0:0:0:
256,192,51382,128,0,51532:0:0:0:0:
402,192,51532,128,0,51682:0:0:0:0:
329,192,51532,128,0,51682:0:0:0:0:
36,192,51832,1,0,0:0:0:0:
109,192,51832,1,0,0:0:0:0:
182,192,51982,1,0,0:0:0:0:
329,192,52132,128,0,52432:0:0:0:0:
182,192,52282,1,0,0:0:0:0:
475,192,52432,1,0,0:0:0:0:
109,192,52432,1,0,0:0:0:0:
36,192,52582,1,0,0:0:0:0:
256,192,52732,128,0,53032:0:0:0:0:
475,192,52882,1,0,0:0:0:0:
182,192,53032,1,0,0:0:0:0:
36,192,53032,1,0,0:0:0:0:
256,192,53182,1,0,0:0:0:0:
475,192,53332,128,0,53632:0:0:0:0:
36,192,53482,1,0,0:0:0:0:
402,192,53632,1,0,0:0:0:0:
182,192,53632,1,0,0:0:0:0:
109,192,53632,1,0,0:0:0:0:
256,192,53782,1,0,0:0:0:0:
329,192,53932,128,0,54232:0:0:0:0:
475,192,54232,1,0,0:0:0:0:
109,192,54232,1,0,0:0:0:0:
256,192,54382,1,0,0:0:0:0:
182,192,54532,1,0,0:0:0:0:
402,192,54682,1,0,0:0:0:0:
109,192,54682,128,0,54832:0:0:0:0:
182,192,54832,1,0,0:0:0:0:
329,192,54832,1,0,0:0:0:0:
256,192,54982,1,0,0:0:0:0:
329,192,55132,1,0,0:0:0:0:
36,192,55132,128,0,55432:0:0:0:0:
475,192,55432,1,0,0:0:0:0:
402,192,55432,1,0,0:0:0:0:
475,192,55582,1,0,0:0:0:0:
402,192,55582,1,0,0:0:0:0:
109,192,55732,1,0,0:0:0:0:
36,192,55732,1,0,0:0:0:0:
36,192,55882,1,0,0:0:0:0:
109,192,55882,1,0,0:0:0:0:
402,192,56032,1,0,0:0:0:0:
329,192,56032,1,0,0:0:0:0:
475,192,56032,1,0,0:0:0:0:
256,192,56182,128,0,56332:0:0:0:0:
329,192,56332,128,0,56482:0:0:0:0:
36,192,56332,128,0,56482:0:0:0:0:
402,192,56632,1,0,0:0:0:0:
109,192,56632,1,0,0:0:0:0:
329,192,56782,1,0,0:0:0:0:
256,192,56932,128,0,57232:0:0:0:0:
402,192,57232,1,0,0:0:0:0:
475,192,57232,1,0,0:0:0:0:
36,192,57232,1,0,0:0:0:0:
109,192,57382,1,0,0:0:0:0:
256,192,57532,128,0,57832:0:0:0:0:
475,192,57682,1,0,0:0:0:0:
182,192,57832,1,0,0:0:0:0:
36,192,57832,1,0,0:0:0:0:
329,192,57982,1,0,0:0:0:0:
109,192,58132,128,0,58432:0:0:0:0:
329,192,58282,1,0,0:0:0:0:
182,192,58432,1,0,0:0:0:0:
475,192,58432,1,0,0:0:0:0:
256,192,58432,1,0,0:0:0:0:
402,192,58582,1,0,0:0:0:0:
329,192,58732,128,0,59032:0:0:0:0:
109,192,59032,1,0,0:0:0:0:
182,192,59032,1,0,0:0:0:0:
402,192,59182,1,0,0:0:0:0:
256,192,59332,1,0,0:0:0:0:
329,192,59482,1,0,0:0:0:0:
36,192,59482,128,0,59632:0:0:0:0:
109,192,59632,1,0,0:0:0:0:
182,192,59632,1,0,0:0:0:0:
256,192,59782,1,0,0:0:0:0:
329,192,59932,1,0,0:0:0:0:
475,192,59932,128,0,60232:0:0:0:0:
182,192,60232,1,0,0:0:0:0:
36,192,60232,1,0,0:0:0:0:
182,192,60382,1,0,0:0:0:0:
36,192,60382,1,0,0:0:0:0:
329,192,60532,1,0,0:0:0:0:
475,192,60532,1,0,0:0:0:0:
475,192,60682,1,0,0:0:0:0:
329,192,60682,1,0,0:0:0:0:
109,192,60832,1,0,0:0:0:0:
182,192,60832,1,0,0:0:0:0:
36,192,60832,1,0,0:0:0:0:
256,192,60982,128,0,61132:0:0:0:0:
109,192,61132,128,0,61282:0:0:0:0:
182,192,61132,128,0,61282:0:0:0:0:
475,192,61432,1,0,0:0:0:0:
36,192,61432,1,0,0:0:0:0:
182,192,61582,1,0,0:0:0:0:
329,192,61732,128,0,62032:0:0:0:0:
402,192,61882,1,0,0:0:0:0:
36,192,62032,1,0,0:0:0:0:
475,192,62032,1,0,0:0:0:0:
109,192,62032,1,0,0:0:0:0:
182,192,62182,1,0,0:0:0:0:
256,192,62332,128,0,62632:0:0:0:0:
475,192,62482,1,0,0:0:0:0:
36,192,62632,1,0,0:0:0:0:
329,192,62632,1,0,0:0:0:0:
182,192,62782,1,0,0:0:0:0:
329,192,62932,128,0,63232:0:0:0:0:
256,192,63082,1,0,0:0:0:0:
402,192,63232,1,0,0:0:0:0:
36,192,63232,1,0,0:0:0:0:
475,192,63232,1,0,0:0:0:0:
109,192,63382,1,0,0:0:0:0:
182,192,63532,128,0,63832:0:0:0:0:
475,192,63832,1,0,0:0:0:0:
36,192,63832,1,0,0:0:0:0:
329,192,63982,1,0,0:0:0:0:
402,192,64132,1,0,0:0:0:0:
256,192,64282,128,0,64432:0:0:0:0:
109,192,64282,1,0,0:0:0:0:
329,192,64432,1,0,0:0:0:0:
36,192,64432,1,0,0:0:0:0:
182,192,64582,1,0,0:0:0:0:
109,192,64732,128,0,65032:0:0:0:0:
329,192,64732,1,0,0:0:0:0:
182,192,65032,1,0,0:0:0:0:
402,192,65032,1,0,0:0:0:0:
402,192,65182,1,0,0:0:0:0:
182,192,65182,1,0,0:0:0:0:
329,192,65332,1,0,0:0:0:0:
109,192,65332,1,0,0:0:0:0:
329,192,65482,1,0,0:0:0:0:
109,192,65482,1,0,0:0:0:0:
36,192,65632,1,0,0:0:0:0:
182,192,65632,1,0,0:0:0:0:
402,192,65632,1,0,0:0:0:0:
256,192,65782,128,0,65932:0:0:0:0:
329,192,65932,128,0,66082:0:0:0:0:
475,192,65932,128,0,66082:0:0:0:0:
36,192,66232,128,0,66532:0:0:0:0:
402,192,66382,1,0,0:0:0:0:
109,192,66532,128,0,66832:0:0:0:0:
329,192,66682,1,0,0:0:0:0:
475,192,66832,1,0,0:0:0:0:
402,192,66832,1,0,0:0:0:0:
256,192,66982,128,0,67432:0:0:0:0:
109,192,67132,1,0,0:0:0:0:
182,192,67282,1,0,0:0:0:0:
475,192,67432,1,0,0:0:0:0:
36,192,67432,1,0,0:0:0:0:
402,192,67432,1,0,0:0:0:0:
36,192,67732,128,0,68032:0:0:0:0:
329,192,67882,1,0,0:0:0:0:
402,192,68032,1,0,0:0:0:0:
475,192,68032,1,0,0:0:0:0:
256,192,68182,1,0,0:0:0:0:
182,192,68332,128,0,68632:0:0:0:0:
36,192,68632,1,0,0:0:0:0:
109,192,68632,1,0,0:0:0:0:
329,192,68782,1,0,0:0:0:0:
475,192,68932,128,0,69232:0:0:0:0:
256,192,69082,1,0,0:0:0:0:
329,192,69232,1,0,0:0:0:0:
36,192,69232,1,0,0:0:0:0:
109,192,69232,1,0,0:0:0:0:
182,192,69382,1,0,0:0:0:0:
256,192,69532,128,0,69832:0:0:0:0:
402,192,69832,1,0,0:0:0:0:
36,192,69832,1,0,0:0:0:0:
109,192,69982,1,0,0:0:0:0:
256,192,69982,1,0,0:0:0:0:
329,192,70132,1,0,0:0:0:0:
36,192,70282,1,0,0:0:0:0:
402,192,70282,1,0,0:0:0:0:
329,192,70432,1,0,0:0:0:0:
109,192,70432,1,0,0:0:0:0:
182,192,70582,128,0,70732:0:0:0:0:
329,192,70732,128,0,70882:0:0:0:0:
475,192,70882,128,0,71032:0:0:0:0:
36,192,71032,128,0,71332:0:0:0:0:
182,192,71182,1,0,0:0:0:0:
329,192,71332,128,0,71632:0:0:0:0:
402,192,71482,1,0,0:0:0:0:
256,192,71632,1,0,0:0:0:0:
182,192,71632,1,0,0:0:0:0:
109,192,71782,128,0,72232:0:0:0:0:
475,192,71932,1,0,0:0:0:0:
256,192,72082,1,0,0:0:0:0:
475,192,72232,1,0,0:0:0:0:
36,192,72232,1,0,0:0:0:0:
329,192,72382,1,0,0:0:0:0:
402,192,72532,128,0,72832:0:0:0:0:
182,192,72682,1,0,0:0:0:0:
475,192,72832,1,0,0:0:0:0:
36,192,72832,128,0,73132:0:0:0:0:
329,192,72982,1,0,0:0:0:0:
256,192,73132,128,0,73432:0:0:0:0:
329,192,73432,1,0,0:0:0:0:
475,192,73432,128,0,73732:0:0:0:0:
182,192,73582,1,0,0:0:0:0:
109,192,73732,128,0,74032:0:0:0:0:
329,192,73882,1,0,0:0:0:0:
256,192,74032,1,0,0:0:0:0:
36,192,74032,1,0,0:0:0:0:
475,192,74032,1,0,0:0:0:0:
402,192,74182,1,0,0:0:0:0:
256,192,74332,128,0,74632:0:0:0:0:
182,192,74482,1,0,0:0:0:0:
475,192,74632,1,0,0:0:0:0:
109,192,74632,1,0,0:0:0:0:
329,192,74782,1,0,0:0:0:0:
402,192,74782,1,0,0:0:0:0:
36,192,74932,1,0,0:0:0:0:
256,192,74932,1,0,0:0:0:0:
182,192,75082,1,0,0:0:0:0:
329,192,75082,1,0,0:0:0:0:
402,192,75232,1,0,0:0:0:0:
109,192,75232,1,0,0:0:0:0:
256,192,75382,128,0,75532:0:0:0:0:
109,192,75532,128,0,75682:0:0:0:0:
475,192,75832,128,0,76132:0:0:0:0:
36,192,75982,1,0,0:0:0:0:
402,192,76132,128,0,76432:0:0:0:0:
182,192,76282,1,0,0:0:0:0:
36,192,76432,1,0,0:0:0:0:
329,192,76432,1,0,0:0:0:0:
256,192,76582,128,0,77032:0:0:0:0:
109,192,76732,1,0,0:0:0:0:
182,192,76882,1,0,0:0:0:0:
