osu file format v14

[General]
AudioFilename: audio.mp3
AudioLeadIn: 0
PreviewTime: 17054
Countdown: 0
SampleSet: Soft
StackLeniency: 0.3
Mode: 0
LetterboxInBreaks: 0
WidescreenStoryboard: 0

[Editor]
DistanceSpacing: 1
BeatDivisor: 2
GridSize: 8
TimelineZoom: 0.3999999

[Metadata]
Title:Sofia
TitleUnicode:Sofia
Artist:Clairo
ArtistUnicode:Clairo
Creator:Qiyana
Version:Easy
Source:
Tags:dyl-byl nyantiaz tiktok immunity claire elizabeth cottrill english alternative indie pop
BeatmapID:2788617
BeatmapSetID:1346543

[Difficulty]
HPDrainRate:2
CircleSize:3
OverallDifficulty:2
ApproachRate:3.5
SliderMultiplier:1
SliderTickRate:1

[Events]
//Background and Video events
0,0,"owo.jpg",0,0
//Break Periods
2,135997,143053
//Storyboard Layer 0 (Background)
//Storyboard Layer 1 (Fail)
//Storyboard Layer 2 (Pass)
//Storyboard Layer 3 (Foreground)
//Storyboard Layer 4 (Overlay)
//Storyboard Sound Samples

[TimingPoints]
63.5172413793102,530.973451327434,4,2,1,69,1,0
34045,-100,4,2,1,80,0,1
51036,-100,4,2,1,69,0,0
85019,-100,4,2,1,80,0,1
102010,-100,4,2,1,80,0,0
119001,-100,4,2,1,69,0,0
152983,-100,4,2,1,80,0,1
184842,-100,4,2,1,69,0,0

[Colours]
Combo1 : 252,197,252
Combo2 : 227,147,230
Combo3 : 155,218,255

[HitObjects]
351,108,17054,6,0,L|348:207,1,100,2|8,3:2|0:0,0:0:0:0:
287,287,18116,2,0,B|237:296|237:296|187:282,1,100,2|8,3:2|0:0,0:0:0:0:
128,362,19178,2,0,P|92:257|159:188,1,200,2|2,3:2|3:2,0:0:0:0:
46,19,21302,6,0,L|145:23,1,100,2|8,3:2|0:0,0:0:0:0:
236,66,22364,2,0,L|335:62,1,100,2|8,3:2|0:0,0:0:0:0:
426,105,23426,2,0,P|438:59|418:7,2,100,2|8|2,3:2|0:0|3:2,0:0:0:0:
376,192,25019,1,8,0:0:0:0:
419,282,25550,6,0,P|373:294|321:273,1,100,2|8,3:2|0:0,0:0:0:0:
275,190,26612,2,0,L|278:89,1,100,2|8,3:2|0:0,0:0:0:0:
190,41,27674,2,0,B|131:65|88:41|99:31|54:-3|-11:33,1,200,2|2,3:2|3:2,0:0:0:0:
50,221,29798,6,0,L|47:323,1,100,2|8,3:2|0:0,0:0:0:0:
137,364,30859,2,0,P|183:376|235:355,1,100,2|8,3:2|0:0,0:0:0:0:
322,318,31921,2,0,L|424:321,2,100,2|8|2,3:2|0:0|3:2,0:0:0:0:
250,249,33514,1,8,0:0:0:0:
312,171,34045,6,0,P|324:125|303:73,1,100,2|8,3:2|0:0,0:0:0:0:
228,14,35107,2,0,L|126:17,1,100,2|8,3:2|0:0,0:0:0:0:
33,50,36169,2,0,B|9:109|33:152|43:141|77:186|41:251,1,200,2|2,3:2|3:2,0:0:0:0:
15,336,37762,1,8,0:0:0:0:
108,370,38293,6,0,P|156:351|217:363,1,100,2|8,3:2|0:0,0:0:0:0:
287,302,39355,2,0,P|335:321|396:309,1,100,2|8,3:2|0:0,0:0:0:0:
469,265,40417,2,0,P|486:309|472:363,2,100,2|8|2,3:2|0:0|3:2,0:0:0:0:
402,190,42010,1,8,0:0:0:0:
447,100,42541,6,0,L|450:1,2,100,2|8|2,3:2|0:0|3:2,0:0:0:0:
347,109,44134,1,8,0:0:0:0:
300,197,44665,2,0,P|213:233|131:176,1,200,2|2,3:2|3:2,0:0:0:0:
87,88,46258,1,8,0:0:0:0:
153,12,46789,6,0,B|203:3|203:3|253:17,1,100,2|8,3:2|0:0,0:0:0:0:
327,80,47851,2,0,B|377:89|377:89|427:75,1,100,2|8,3:2|0:0,0:0:0:0:
502,137,48913,2,0,L|496:349,1,200,2|2,3:2|3:2,0:0:0:0:
403,298,50505,1,8,0:0:0:0:
322,357,51036,6,0,B|263:381|220:357|231:347|186:313|121:349,1,200,2|0,3:2|3:0,0:0:0:0:
48,161,53160,2,0,B|107:136|150:160|139:170|184:204|249:168,1,200,2|0,3:2|3:0,0:0:0:0:
329,129,54753,1,0,3:0:0:0:
373,39,55284,6,0,P|427:117|391:206,1,200,2|0,3:2|3:0,0:0:0:0:
454,285,56877,1,0,3:0:0:0:
370,340,57408,2,0,P|330:317|273:316,1,100,2|0,3:2|3:0,0:0:0:0:
183,280,58470,2,0,P|143:303|86:304,1,100,0|0,3:0|3:0,0:0:0:0:
9,245,59532,6,0,B|-15:186|9:143|19:154|53:109|17:44,1,200,2|0,3:2|3:0,0:0:0:0:
218,14,61656,2,0,B|277:-10|320:14|309:24|354:58|419:22,1,200,2|0,3:2|3:0,0:0:0:0:
512,196,63780,6,0,L|511:301,1,100,2|0,3:2|3:0,0:0:0:0:
425,348,64842,2,0,B|376:361|376:361|320:345,1,100,0|0,3:0|3:0,0:0:0:0:
239,302,65904,2,0,B|180:277|137:301|148:311|103:345|38:309,1,200,2|0,3:2|3:0,0:0:0:0:
1,225,67497,1,0,3:0:0:0:
51,138,68028,6,0,P|93:114|168:128,1,100,2|8,3:2|0:0,0:0:0:0:
232,161,69090,2,0,P|274:185|349:171,1,100,2|8,3:2|0:0,0:0:0:0:
421,159,70152,2,0,L|419:50,2,100,2|8|2,3:2|0:0|3:2,0:0:0:0:
389,253,71744,1,8,0:0:0:0:
454,328,72275,6,0,P|412:352|337:338,1,100,2|8,3:2|0:0,0:0:0:0:
265,379,73337,1,2,3:2:0:0:
212,294,73868,1,8,0:0:0:0:
121,337,74399,2,0,P|71:338|28:314,1,100,2|8,3:2|0:0,0:0:0:0:
6,216,75461,2,0,L|7:116,1,100,2|8,3:2|0:0,0:0:0:0:
85,54,76523,6,0,B|144:29|187:53|176:63|221:97|286:61,1,200,2|2,3:2|3:2,0:0:0:0:
373,44,78116,1,8,0:0:0:0:
459,92,78647,2,0,P|475:137|453:206,2,100,2|8|2,3:2|0:0|3:2,0:0:0:0:
373,144,80240,1,8,0:0:0:0:
291,202,80771,6,0,L|289:301,1,100,2|8,3:2|0:0,0:0:0:0:
203,353,81833,2,0,B|155:365|155:365|103:349,1,100,2|8,3:2|0:0,0:0:0:0:
18,302,82895,2,0,B|-7:243|17:200|27:211|61:166|25:101,1,200,2|2,3:2|3:2,0:0:0:0:
0,14,84488,1,8,0:0:0:0:
100,5,85019,6,0,P|142:30|196:24,1,100,2|8,3:2|0:0,0:0:0:0:
275,80,86081,2,0,P|317:55|371:61,1,100,2|8,3:2|0:0,0:0:0:0:
457,101,87143,2,0,L|454:309,1,200,2|2,3:2|3:2,0:0:0:0:
362,342,88736,1,8,0:0:0:0:
297,265,89267,6,0,L|298:165,1,100,2|8,3:2|0:0,0:0:0:0:
236,85,90329,2,0,B|188:70|188:70|136:85,1,100,2|8,3:2|0:0,0:0:0:0:
63,19,91390,2,0,P|38:61|44:115,1,100,2|8,3:2|0:0,0:0:0:0:
86,200,92452,1,2,3:2:0:0:
12,267,92983,1,8,0:0:0:0:
68,349,93514,6,0,B|127:324|170:348|159:358|204:392|269:356,1,200,2|2,3:2|3:2,0:0:0:0:
352,325,95107,1,8,0:0:0:0:
441,369,95638,2,0,P|451:320|436:273,1,100,2|8,3:2|0:0,0:0:0:0:
384,188,96700,2,0,P|373:139|388:92,1,100,2|8,3:2|0:0,0:0:0:0:
344,3,97762,6,0,P|392:-7|439:7,2,100,2|8|2,3:2|0:0|3:2,0:0:0:0:
259,57,99355,1,8,0:0:0:0:
180,118,99886,2,0,L|182:218,1,100,2|8,3:2|0:0,0:0:0:0:
243,297,100948,2,0,B|292:308|292:308|343:295,1,100,2|8,3:2|0:0,0:0:0:0:
431,337,102010,6,0,B|442:291|442:291|423:239,1,100,2|8,3:2|0:0,0:0:0:0:
508,185,103072,2,0,B|474:151|474:151|419:142,1,100,2|8,3:2|0:0,0:0:0:0:
346,79,104134,2,0,B|263:79|263:79|233:101|233:101|152:101,1,200,2|2,3:2|3:2,0:0:0:0:
78,34,105727,1,8,0:0:0:0:
0,96,106258,6,0,L|2:199,1,100,2|8,3:2|0:0,0:0:0:0:
91,239,107320,2,0,B|139:252|139:252|193:235,1,100,2|8,3:2|0:0,0:0:0:0:
284,260,108382,1,2,3:2:0:0:
331,171,108913,1,8,0:0:0:0:
286,81,109444,2,0,B|334:68|334:68|388:85,1,100,2|8,3:2|0:0,0:0:0:0:
472,125,110505,6,0,B|472:208|472:208|450:238|450:238|450:319,1,200,2|2,3:2|3:2,0:0:0:0:
366,373,112098,1,8,0:0:0:0:
273,335,112629,2,0,B|224:323|224:323|170:339,1,100,2|8,3:2|0:0,0:0:0:0:
104,268,113691,2,0,L|98:168,1,100,2|8,3:2|0:0,0:0:0:0:
172,100,114753,6,0,L|174:0,2,100,2|8|2,3:2|0:0|3:2,0:0:0:0:
252,159,116346,1,8,0:0:0:0:
330,221,116877,2,0,B|352:179|352:179|342:109,1,100,2|8,3:2|0:0,0:0:0:0:
267,63,117939,1,2,3:2:0:0:
172,100,118470,1,8,0:0:0:0:
111,21,119001,6,0,P|75:126|142:195,1,200,2|2,3:2|3:2,0:0:0:0:
49,253,120594,1,8,0:0:0:0:
96,341,121125,2,0,B|155:317|198:341|187:351|232:385|297:349,1,200,2|2,3:2|3:2,0:0:0:0:
435,219,123249,6,0,P|444:172|426:123,1,100,2|8,3:2|0:0,0:0:0:0:
508,65,124311,2,0,P|472:32|420:23,1,100,2|8,3:2|0:0,0:0:0:0:
340,81,125373,2,0,P|303:113|254:122,2,100,2|8|2,3:2|0:0|3:2,0:0:0:0:
259,21,126966,1,8,0:0:0:0:
175,67,127497,6,0,B|122:71|83:35|83:35|99:86|74:136,1,200,2|2,3:2|3:2,0:0:0:0:
30,221,129090,1,8,0:0:0:0:
58,316,129621,2,0,L|160:313,1,100,2|8,3:2|0:0,0:0:0:0:
225,239,130682,2,0,L|222:137,1,100,2|8,3:2|0:0,0:0:0:0:
301,77,131744,6,0,P|196:41|127:108,1,200,2|2,3:2|3:2,0:0:0:0:
94,183,133337,1,8,0:0:0:0:
140,271,133868,2,0,L|245:272,1,100,2|8,3:2|0:0,0:0:0:0:
315,206,134930,2,0,B|328:157|328:157|310:109,1,100,2|8,3:2|0:0,0:0:0:0:
30,242,144488,6,0,L|27:352,2,100,2|8|2,3:2|0:0|3:2,0:0:0:0:
95,166,146081,1,8,0:0:0:0:
174,226,146612,2,0,P|211:246|271:239,1,100,2|8,3:2|0:0,0:0:0:0:
361,205,147674,2,0,L|358:105,1,100,2|8,3:2|0:0,0:0:0:0:
269,58,148736,6,0,P|348:5|436:43,1,200,2|2,3:2|3:2,0:0:0:0:
483,132,150329,1,8,0:0:0:0:
416,206,150859,2,0,L|316:209,1,100,2|8,3:2|0:0,0:0:0:0:
229,259,151921,2,0,L|129:256,1,100,2|8,3:2|0:0,0:0:0:0:
66,334,152983,6,0,P|27:246|80:166,1,200,2|2,3:2|3:2,0:0:0:0:
28,80,154576,1,8,0:0:0:0:
118,36,155107,2,0,P|159:64|217:66,1,100,2|8,3:2|0:0,0:0:0:0:
273,143,156169,2,0,L|272:252,1,100,2|8,3:2|0:0,0:0:0:0:
191,302,157231,6,0,P|278:340|358:287,1,200,2|2,3:2|3:2,0:0:0:0:
448,331,158824,1,8,0:0:0:0:
504,248,159355,2,0,L|503:149,1,100,2|8,3:2|0:0,0:0:0:0:
436,73,160417,2,0,B|387:61|387:61|337:75,1,100,2|8,3:2|0:0,0:0:0:0:
252,23,161479,6,0,P|235:69|247:117,1,100,2|8,3:2|0:0,0:0:0:0:
325,178,162541,2,0,L|324:284,1,100,2|8,3:2|0:0,0:0:0:0:
271,362,163603,2,0,P|317:378|365:366,2,100,2|8|2,3:2|0:0|3:2,0:0:0:0:
180,319,165196,1,8,0:0:0:0:
89,362,165727,6,0,B|65:303|89:260|99:271|133:226|97:161,1,200,2|2,3:2|3:2,0:0:0:0:
65,77,167320,1,8,0:0:0:0:
158,40,167851,2,0,P|200:66|256:66,1,100,2|8,3:2|0:0,0:0:0:0:
343,33,168913,1,2,3:2:0:0:
424,90,169444,1,8,0:0:0:0:
485,11,169975,6,0,P|523:98|468:180,1,200,2|2,3:2|3:2,0:0:0:0:
494,275,171567,1,8,0:0:0:0:
402,313,172098,2,0,P|363:281|302:278,2,100,2|8|2,3:2|0:0|3:2,0:0:0:0:
325,377,173691,1,8,0:0:0:0:
233,337,174222,6,0,B|174:313|131:337|142:347|97:381|32:345,1,200,2|2,3:2|3:2,0:0:0:0:
6,256,175815,1,8,0:0:0:0:
48,165,176346,2,0,P|90:139|146:139,1,100,2|8,3:2|0:0,0:0:0:0:
227,185,177408,2,0,L|224:285,1,100,2|8,3:2|0:0,0:0:0:0:
145,346,178470,6,0,P|232:384|312:331,1,200,2|2,3:2|3:2,0:0:0:0:
411,345,180063,1,8,0:0:0:0:
486,279,180594,2,0,L|483:179,1,100,2|8,3:2|0:0,0:0:0:0:
415,105,181656,2,0,B|366:95|366:95|316:108,1,100,2|8,3:2|0:0,0:0:0:0:
255,28,182718,6,0,P|216:115|269:195,1,200,2|2,3:2|3:2,0:0:0:0:
346,258,184311,1,8,0:0:0:0:
295,344,184842,1,2,3:2:0:0:
