osu file format v14

[General]
AudioFilename: Shiroiruka Fukkatsu no Jumon.mp3
AudioLeadIn: 0
PreviewTime: 65378
Countdown: 0
SampleSet: Soft
StackLeniency: 0.7
Mode: 0
LetterboxInBreaks: 1
WidescreenStoryboard: 1

[Editor]
DistanceSpacing: 1.4
BeatDivisor: 3
GridSize: 16
TimelineZoom: 1

[Metadata]
Title:Shiroiruka Fukkatsu no Jumon
TitleUnicode:シロイルカふっかつのじゅもん
Artist:Ckiro
ArtistUnicode:Ckiro
Creator:Mirai Akari
Version:Restoration
Source:Nico Nico Douga
Tags:電脳少女シロ バーチャルyoutuber love song 探して siro virtual hicca hicari
BeatmapID:1516888
BeatmapSetID:717807

[Difficulty]
HPDrainRate:6
CircleSize:4
OverallDifficulty:7
ApproachRate:8.4
SliderMultiplier:1.6
SliderTickRate:1

[Events]
//Background and Video events
0,0,"BG.jpg",0,0
Video,0,"Shiroiruka Fukkatsu no Jumon.avi"
//Break Periods
//Storyboard Layer 0 (Background)
//Storyboard Layer 1 (Fail)
//Storyboard Layer 2 (Pass)
//Storyboard Layer 3 (Foreground)
//Storyboard Sound Samples

[TimingPoints]
450,428.571428571429,4,2,1,70,1,0
31092,-1000,4,2,1,70,0,0
31200,-1000,4,2,1,5,0,0
32807,-100,4,2,1,70,0,0
34521,-1000,4,2,1,65,0,0
34628,-1000,4,2,1,60,0,0
34735,-1000,4,2,1,55,0,0
34842,-1000,4,2,1,50,0,0
34950,-1000,4,2,1,45,0,0
35057,-1000,4,2,1,40,0,0
35164,-1000,4,2,1,35,0,0
35271,-1000,4,2,1,30,0,0
35378,-1000,4,2,1,25,0,0
35485,-1000,4,2,1,20,0,0
35592,-1000,4,2,1,15,0,0
35700,-1000,4,2,1,10,0,0
35807,-1000,4,2,1,5,0,0
36235,-181.818181818182,4,2,2,5,0,0
36664,-142.857142857143,4,2,1,10,0,0
37092,-117.647058823529,4,2,1,20,0,0
37521,-100,4,2,1,40,0,0
37950,-100,4,2,1,50,0,0
38164,-80,4,2,1,75,0,0
65592,-80,4,2,1,75,0,1
68164,-50,4,2,1,75,0,1
68807,-80,4,2,1,75,0,1
71592,-50,4,2,1,75,0,1
72235,-80,4,2,1,75,0,1
75021,-49.5049504950495,4,2,1,75,0,1
75878,-80,4,2,1,70,0,0
77592,-80,4,2,1,40,0,0
81020,-80,4,2,1,70,0,0

[HitObjects]
196,229,21,6,0,L|316:229,1,120
378,168,450,6,0,P|421:229|378:291,1,160,2|8,0:0|0:0,0:0:0:0:
256,315,1092,1,2,0:0:0:0:
256,315,1200,1,0,0:0:0:0:
256,315,1307,1,0,0:0:0:0:
155,224,1521,1,2,0:0:0:0:
127,357,1735,1,8,0:0:0:0:
155,224,1950,1,2,0:0:0:0:
282,226,2164,5,2,0:0:0:0:
188,317,2378,1,2,0:0:0:0:
62,281,2592,1,8,0:0:0:0:
30,154,2807,1,2,0:0:0:0:
250,97,3021,1,2,0:0:0:0:
124,62,3235,2,0,L|23:62,2,80,2|8|2,0:0|0:0|0:0,0:0:0:0:
250,97,3878,5,2,0:0:0:0:
154,190,4092,1,0,0:0:0:0:
255,273,4307,1,8,0:0:0:0:
350,130,4521,2,0,P|356:78|333:33,1,80,2|0,0:0|0:0,0:0:0:0:
156,112,4950,2,0,P|145:150|153:189,2,80,2|8|0,0:0|0:0|0:0,0:0:0:0:
262,71,5592,5,2,0:0:0:0:
228,199,5807,1,2,0:0:0:0:
372,107,6021,2,0,L|466:107,1,80,8|0,0:0|0:0,0:0:0:0:
471,234,6450,1,2,0:0:0:0:
321,194,6664,1,0,0:0:0:0:
321,194,6771,1,0,0:0:0:0:
321,194,6878,1,8,0:0:0:0:
457,163,7092,1,2,0:0:0:0:
327,69,7307,5,2,0:0:0:0:
392,218,7521,2,0,P|393:272|368:301,1,80,2|8,0:0|0:0,0:0:0:0:
250,155,7950,2,0,P|296:127|333:134,1,80,2|0,0:0|0:0,0:0:0:0:
267,309,8378,1,2,0:0:0:0:
267,309,8592,2,0,P|219:282|207:246,1,80,8|2,0:0|0:0,0:0:0:0:
396,311,9021,6,0,L|396:358,1,40,2|0,0:0|0:0,0:0:0:0:
457,243,9235,2,0,L|457:145,1,80,2|8,0:0|0:0,0:0:0:0:
282,193,9664,1,2,0:0:0:0:
282,193,9771,1,0,0:0:0:0:
282,193,9878,1,0,0:0:0:0:
297,293,10092,1,0,0:0:0:0:
374,149,10307,1,8,0:0:0:0:
396,311,10521,1,2,0:0:0:0:
444,222,10735,5,2,0:0:0:0:
297,293,10950,2,0,P|264:282|189:293,1,80,2|8,0:0|0:0,0:0:0:0:
339,371,11378,2,0,P|384:300|355:232,1,160,2|0,0:0|0:0,0:0:0:0:
282,193,12021,1,8,0:0:0:0:
396,311,12235,1,0,0:0:0:0:
442,154,12450,5,2,0:0:0:0:
311,80,12664,2,0,P|360:83|392:54,2,80,2|8|0,0:0|0:0|0:0,0:0:0:0:
165,31,13307,1,2,0:0:0:0:
158,223,13521,1,0,0:0:0:0:
252,86,13735,2,0,L|246:29,1,40,8|0,0:0|0:0,0:0:0:0:
80,47,13950,2,0,L|75:86,1,40,2|0,0:0|0:0,0:0:0:0:
95,201,14164,6,0,P|92:150|21:158,1,120,2|0,0:0|0:0,0:0:0:0:
19,232,14592,1,8,0:0:0:0:
115,321,14807,1,2,0:0:0:0:
183,180,15021,1,2,0:0:0:0:
31,308,15235,1,0,0:0:0:0:
202,333,15450,1,8,0:0:0:0:
95,201,15664,6,0,L|103:102,1,80,2|0,0:0|0:0,0:0:0:0:
101,121,16092,1,0,0:0:0:0:
225,218,16307,6,0,L|306:274,1,80,8|0,0:0|0:0,0:0:0:0:
290,263,16735,1,2,0:0:0:0:
290,263,16842,1,0,0:0:0:0:
290,263,16950,1,0,0:0:0:0:
145,322,17164,6,0,L|72:356,1,80,8|2,0:0|0:0,0:0:0:0:
298,362,17592,6,0,L|412:308,1,120,2|0,0:0|0:0,0:0:0:0:
484,363,18021,2,0,P|443:368|376:348,1,80,8|2,0:0|0:0,0:0:0:0:
306,207,18450,1,2,0:0:0:0:
298,362,18664,1,0,0:0:0:0:
391,222,18878,1,8,0:0:0:0:
221,336,19092,6,0,P|181:321|125:327,1,80,2|0,0:0|0:0,0:0:0:0:
50,350,19521,1,0,0:0:0:0:
107,241,19735,1,8,0:0:0:0:
244,265,19950,1,0,0:0:0:0:
59,291,20164,1,2,0:0:0:0:
115,157,20378,6,0,L|164:144,1,40,2|0,0:0|0:0,0:0:0:0:
271,190,20592,6,0,L|233:201,1,40,10|0,0:0|0:0,0:0:0:0:
142,82,20807,6,0,L|181:85,1,40,2|0,0:0|0:0,0:0:0:0:
244,265,21021,6,0,L|204:261,1,40,2|0,0:0|0:0,0:0:0:0:
108,241,21235,1,2,0:0:0:0:
196,353,21450,1,8,0:0:0:0:
321,319,21664,2,0,P|337:273|325:209,1,80,2|0,0:0|0:0,0:0:0:0:
256,113,22092,1,0,0:0:0:0:
256,113,22200,1,0,0:0:0:0:
256,113,22307,2,0,P|256:152|271:189,1,80,8|2,0:0|0:0,0:0:0:0:
401,227,22735,6,0,L|494:214,1,80,2|2,0:0|0:0,0:0:0:0:
405,123,23164,1,8,0:0:0:0:
400,330,23378,2,0,L|320:318,1,80,2|0,0:0|0:0,0:0:0:0:
325,134,23807,1,0,0:0:0:0:
325,134,23914,1,0,0:0:0:0:
325,134,24021,2,0,L|404:122,1,80,8|0,0:0|0:0,0:0:0:0:
271,189,24450,1,2,0:0:0:0:
320,358,24664,6,0,L|320:318,1,40,2|0,0:0|0:0,0:0:0:0:
164,335,24878,2,0,L|164:295,1,40,8|0,0:0|0:0,0:0:0:0:
281,291,25092,2,0,L|281:251,1,40,2|0,0:0|0:0,0:0:0:0:
191,191,25307,1,2,0:0:0:0:
56,235,25521,1,2,0:0:0:0:
12,100,25735,1,8,0:0:0:0:
147,56,25950,1,2,0:0:0:0:
147,56,26057,1,0,0:0:0:0:
147,56,26164,6,0,P|159:101|148:142,1,80,2|0,0:0|0:0,0:0:0:0:
56,235,26592,1,8,0:0:0:0:
56,235,26807,2,0,P|88:202|129:191,1,80,2|0,0:0|0:0,0:0:0:0:
260,224,27235,2,0,P|215:211|185:181,2,80,0|8|0,0:0|0:0|0:0,0:0:0:0:
288,111,27878,5,2,0:0:0:0:
366,247,28092,2,0,P|371:290|364:343,1,80,0|8,0:0|0:0,0:0:0:0:
190,190,28521,2,0,P|186:150|191:110,1,80,2|2,0:0|0:0,0:0:0:0:
205,81,28842,1,0,0:0:0:0:
231,62,28950,1,2,0:0:0:0:
262,59,29057,1,0,0:0:0:0:
292,68,29164,5,8,0:0:0:0:
288,111,29271,1,0,0:0:0:0:
308,149,29378,1,2,0:0:0:0:
345,171,29485,1,0,0:0:0:0:
388,161,29592,6,0,P|423:146|459:161,1,80,8|0,0:0|0:0,0:0:0:0:
436,117,30021,2,0,P|400:102|365:118,1,80,8|0,0:0|0:0,0:0:0:0:
341,73,30342,1,0,0:0:0:0:
341,73,30450,2,0,P|376:58|412:73,1,80,8|0,0:0|0:0,0:0:0:0:
346,255,30878,1,8,0:0:0:0:
287,138,31092,6,0,L|227:138,1,60
227,138,32807,5,8,0:0:0:0:
148,286,33021,2,0,B|107:286|107:286|75:262,1,80,2|0,0:0|0:0,0:0:0:0:
205,212,33450,2,0,B|209:173|209:173|189:137,1,80,8|0,0:0|0:0,0:0:0:0:
96,121,33771,1,0,0:0:0:0:
96,121,33878,2,0,B|59:136|59:136|39:171,1,80,8|0,0:0|0:0,0:0:0:0:
183,87,34307,1,8,0:0:0:0:
256,256,34521,6,2,L|258:256,1,2
310,236,34628,6,2,L|308:236,1,2
321,185,34735,6,2,L|323:185,1,2
297,144,34843,6,2,L|295:144,1,2
253,133,34950,6,2,L|251:133,1,2
214,149,35057,6,2,L|216:149,1,2
199,180,35164,6,2,L|197:180,1,2
192,211,35271,6,2,L|194:211,1,2
182,236,35378,6,2,L|180:236,1,2
157,244,35485,6,2,L|159:244,1,2
139,246,35593,6,2,L|137:246,1,2
122,239,35700,6,2,L|124:239,1,2
118,228,35807,6,2,L|116:228,1,2
142,74,36235,6,0,P|175:57|199:58,1,44.0000013427735
338,104,36664,6,0,P|306:81|287:76,1,55.9999982910157,8|0,0:0|0:0,0:0:0:0:
108,206,37092,6,0,P|138:178|185:167,1,68.0000012969971,8|0,0:0|0:0,0:0:0:0:
386,240,37521,6,0,P|355:209|312:200,1,80,8|0,0:0|0:0,0:0:0:0:
158,323,37950,5,2,0:0:0:0:
410,370,38164,6,0,B|453:344|453:344|453:294,1,100,6|2,0:0|0:0,0:0:0:0:
412,144,38592,1,8,0:0:0:0:
354,275,38807,1,2,0:0:0:0:
478,201,39021,1,0,0:0:0:0:
346,91,39235,1,8,0:0:0:0:
346,91,39342,1,0,0:0:0:0:
346,91,39450,1,8,0:0:0:0:
389,229,39664,1,2,0:0:0:0:
312,331,39878,6,0,P|274:300|212:298,1,100,2|0,0:0|0:0,0:0:0:0:
129,354,40307,1,8,0:0:0:0:
184,213,40521,1,2,0:0:0:0:
37,274,40735,2,0,P|75:305|137:307,1,100,2|0,0:0|0:0,0:0:0:0:
114,163,41164,1,8,0:0:0:0:
110,249,41378,1,8,0:0:0:0:
221,114,41592,5,0,0:0:0:0:
221,114,41807,2,0,L|113:79,1,100,2|8,0:0|0:0,0:0:0:0:
58,235,42235,1,2,0:0:0:0:
245,268,42451,5,2,0:0:0:0:
250,262,42557,1,0,0:0:0:0:
251,255,42665,1,8,0:0:0:0:
247,249,42772,1,0,0:0:0:0:
239,247,42878,1,2,0:0:0:0:
233,250,42986,1,0,0:0:0:0:
230,257,43092,1,8,0:0:0:0:
231,264,43199,1,0,0:0:0:0:
235,269,43307,6,0,P|284:247|335:249,1,100,2|0,0:0|0:0,0:0:0:0:
460,306,43735,2,0,L|457:239,1,50,8|0,0:0|0:0,0:0:0:0:
454,169,43950,1,2,0:0:0:0:
319,114,44164,1,0,0:0:0:0:
256,197,44378,1,2,0:0:0:0:
229,52,44592,2,0,L|293:45,1,50,8|0,0:0|0:0,0:0:0:0:
383,33,44807,2,0,L|333:38,1,50,2|0,0:0|0:0,0:0:0:0:
189,128,45021,6,0,L|83:118,1,100,8|0,0:0|0:0,0:0:0:0:
319,114,45450,2,0,L|213:104,1,100,8|0,0:0|0:0,0:0:0:0:
445,98,45878,2,0,L|345:88,1,100,8|0,0:0|0:0,0:0:0:0:
251,34,46307,1,8,0:0:0:0:
309,195,46521,1,2,0:0:0:0:
309,195,46628,1,0,0:0:0:0:
309,195,46735,1,0,0:0:0:0:
138,158,46950,6,0,P|136:182|144:206,1,50,2|0,0:0|0:0,0:0:0:0:
199,97,47164,2,0,P|150:69|91:80,1,100,8|2,0:0|0:0,0:0:0:0:
53,157,47485,1,2,0:0:0:0:
53,157,47592,2,0,P|53:213|92:259,1,100,2|2,0:0|0:0,0:0:0:0:
178,254,47914,1,0,0:0:0:0:
178,254,48021,2,0,P|211:238|229:219,1,50,8|0,0:0|0:0,0:0:0:0:
268,114,48235,2,0,P|252:81|233:62,1,50,8|0,0:0|0:0,0:0:0:0:
134,98,48450,5,2,0:0:0:0:
94,278,48664,2,0,L|108:339,1,50
277,351,48878,2,0,L|288:302,1,50,8|0,0:0|0:0,0:0:0:0:
232,197,49092,2,0,L|220:245,1,50
399,323,49307,2,0,L|387:274,1,50,8|0,0:0|0:0,0:0:0:0:
403,175,49521,1,2,0:0:0:0:
403,175,49628,1,0,0:0:0:0:
403,175,49735,1,8,0:0:0:0:
234,297,49950,5,2,0:0:0:0:
234,297,50057,1,0,0:0:0:0:
234,297,50164,2,0,P|209:247|128:272,1,150,2|0,0:0|0:0,0:0:0:0:
166,358,50592,2,0,P|197:273|161:202,1,150,8|0,0:0|0:0,0:0:0:0:
99,178,51021,5,2,0:0:0:0:
94,171,51127,1,2,0:0:0:0:
92,163,51235,1,2,0:0:0:0:
97,157,51342,1,2,0:0:0:0:
106,154,51449,1,2,0:0:0:0:
112,158,51557,1,2,0:0:0:0:
116,165,51664,1,2,0:0:0:0:
114,173,51771,1,2,0:0:0:0:
110,179,51878,5,4,0:0:0:0:
75,23,52092,2,0,P|124:23|182:11,1,100,2|8,0:0|0:0,0:0:0:0:
306,129,52521,1,2,0:0:0:0:
138,102,52735,1,0,0:0:0:0:
318,35,52950,1,2,0:0:0:0:
237,213,53164,1,8,0:0:0:0:
237,213,53271,1,0,0:0:0:0:
237,213,53378,1,0,0:0:0:0:
215,70,53592,5,2,0:0:0:0:
316,238,53807,1,2,0:0:0:0:
414,109,54021,2,0,L|419:9,1,100,8|0,0:0|0:0,0:0:0:0:
323,173,54450,2,0,L|406:227,1,100,8|0,0:0|0:0,0:0:0:0:
312,62,54878,2,0,L|254:91,1,50,8|0,0:0|0:0,0:0:0:0:
200,169,55092,5,2,0:0:0:0:
200,169,55200,1,2,0:0:0:0:
200,169,55307,1,2,0:0:0:0:
125,108,55521,2,0,P|162:73|212:70,1,100,2|8,0:0|0:0,0:0:0:0:
275,230,55950,2,0,P|237:264|187:267,1,100,2|0,0:0|0:0,0:0:0:0:
70,194,56378,1,0,0:0:0:0:
97,296,56592,1,8,0:0:0:0:
70,194,56807,1,0,0:0:0:0:
171,221,57021,5,0,0:0:0:0:
257,384,57235,1,2,0:0:0:0:
51,358,57450,2,0,P|23:315|41:245,1,100,8|2,0:0|0:0,0:0:0:0:
70,194,57771,1,0,0:0:0:0:
70,194,57878,1,8,0:0:0:0:
156,358,58092,1,2,0:0:0:0:
284,216,58307,2,0,P|274:192|258:174,1,50,8|0,0:0|0:0,0:0:0:0:
281,345,58521,2,0,P|305:348|330:343,1,50,2|2,0:0|0:0,0:0:0:0:
170,277,58949,6,0,P|155:296|147:320,1,50,8|0,0:0|0:0,0:0:0:0:
381,262,59164,6,0,B|353:112,1,150,12|0,0:0|0:0,0:0:0:0:
353,114,59592,1,2,0:0:0:0:
244,198,59807,1,2,0:0:0:0:
470,209,60021,2,0,P|471:268|451:317,1,100,8|0,0:0|0:0,0:0:0:0:
297,378,60450,6,0,P|284:359|281:330,1,50,2|0,0:0|0:0,0:0:0:0:
329,209,60664,1,0,0:0:0:0:
329,209,60771,1,0,0:0:0:0:
329,209,60878,2,0,L|380:201,1,50,8|0,0:0|0:0,0:0:0:0:
499,103,61092,2,0,L|448:95,1,50,2|0,0:0|0:0,0:0:0:0:
343,79,61307,1,2,0:0:0:0:
427,214,61521,1,8,0:0:0:0:
427,58,61735,1,8,0:0:0:0:
346,242,61950,1,2,0:0:0:0:
498,103,62164,6,0,P|462:135|413:141,1,100,2|0,0:0|0:0,0:0:0:0:
250,36,62592,1,8,0:0:0:0:
276,196,62807,1,2,0:0:0:0:
276,196,62914,1,0,0:0:0:0:
276,196,63021,2,0,L|288:83,1,100,2|0,0:0|0:0,0:0:0:0:
121,15,63450,2,0,L|127:76,1,50,8|0,0:0|0:0,0:0:0:0:
109,171,63664,1,2,0:0:0:0:
109,171,63771,1,0,0:0:0:0:
109,171,63878,5,2,0:0:0:0:
109,171,63985,2,0,P|153:143|211:168,1,100,2|0,0:0|0:0,0:0:0:0:
109,253,64307,2,0,P|78:250|44:229,1,50,8|0,0:0|0:0,0:0:0:0:
267,204,64521,2,0,P|249:221|227:233,1,50,2|0,0:0|0:0,0:0:0:0:
287,109,64735,1,0,0:0:0:0:
301,112,64842,1,0,0:0:0:0:
315,115,64950,1,2,0:0:0:0:
329,118,65057,1,0,0:0:0:0:
343,121,65164,1,10,0:0:0:0:
204,94,65378,5,0,0:0:0:0:
419,140,65592,2,0,L|419:240,1,100,2|0,0:0|0:0,0:0:0:0:
262,153,66021,2,0,L|262:53,1,100,8|2,0:0|0:0,0:0:0:0:
216,260,66450,1,2,0:0:0:0:
66,260,66664,1,0,0:0:0:0:
65,87,66878,2,0,L|176:87,1,100,8|2,0:0|0:0,0:0:0:0:
319,177,67307,5,2,0:0:0:0:
319,27,67521,1,2,0:0:0:0:
225,227,67735,5,8,0:0:0:0:
420,227,67950,1,2,0:0:0:0:
419,133,68164,6,0,P|353:304|512:211,1,480,4|8,0:0|0:0,0:0:0:0:
355,57,69021,6,0,L|255:57,1,100,2|0,0:0|0:0,0:0:0:0:
178,206,69450,2,0,L|78:206,1,100,8|2,0:0|0:0,0:0:0:0:
273,141,69878,1,2,0:0:0:0:
274,324,70092,1,0,0:0:0:0:
434,206,70307,2,0,L|334:206,1,100,8|2,0:0|0:0,0:0:0:0:
151,138,70735,5,2,0:0:0:0:
151,308,70950,1,2,0:0:0:0:
229,194,71164,5,8,0:0:0:0:
229,374,71379,1,2,0:0:0:0:
131,232,71592,6,0,P|91:69|222:204,1,480,4|8,0:0|0:0,0:0:0:0:
305,52,72450,5,2,0:0:0:0:
388,242,72664,1,0,0:0:0:0:
358,43,72878,5,8,0:0:0:0:
334,250,73092,1,2,0:0:0:0:
408,63,73307,5,2,0:0:0:0:
284,230,73521,1,0,0:0:0:0:
441,105,73735,5,8,0:0:0:0:
251,188,73949,1,2,0:0:0:0:
429,208,74164,5,2,0:0:0:0:
263,85,74378,1,2,0:0:0:0:
449,158,74592,5,8,0:0:0:0:
243,135,74806,1,2,0:0:0:0:
441,105,75021,6,0,B|408:64|408:64|358:43|358:43|305:53|305:53|264:86|264:86|244:137|244:137|251:189|251:189|284:231|284:231|334:252|334:252|389:242|389:242|429:209|429:209|449:159|449:159|430:33,1,646.399987177735
154,43,77592,5,2,0:0:0:0:
229,144,78020,5,2,0:0:0:0:
125,240,78449,5,2,0:0:0:0:
100,116,78878,5,2,0:0:0:0:
299,91,79306,5,2,0:0:0:0:
192,250,79735,5,2,0:0:0:0:
352,239,80163,5,2,0:0:0:0:
149,147,80592,5,2,0:0:0:0:
102,339,81021,6,0,L|210:326,1,66.6666666666667,2|0,0:0|0:0,0:0:0:0:
258,328,81307,1,8,0:0:0:0:
342,266,81450,1,2,0:0:0:0:
251,232,81593,1,0,0:0:0:0:
268,332,81736,1,8,0:0:0:0:
323,226,81879,6,0,P|332:191|331:151,1,66.6666666666667,2|0,0:0|0:0,0:0:0:0:
199,68,82164,1,8,0:0:0:0:
151,143,82307,2,0,P|151:176|160:208,1,66.6666666666667,2|0,0:0|0:0,0:0:0:0:
352,256,82593,1,8,0:0:0:0:
434,200,82736,5,2,0:0:0:0:
442,293,82879,1,0,0:0:0:0:
369,350,83021,1,8,0:0:0:0:
280,320,83164,5,2,0:0:0:0:
231,240,83307,1,0,0:0:0:0:
137,241,83450,1,8,0:0:0:0:
82,317,83593,5,2,0:0:0:0:
165,358,83736,2,0,L|240:318,1,66.6666666666667,0|8,0:0|0:0,0:0:0:0:
345,125,84021,2,0,L|325:206,1,66.6666666666667,2|0,0:0|0:0,0:0:0:0:
137,169,84307,1,8,0:0:0:0:
256,44,84450,1,4,0:0:0:0:
