osu file format v14

[General]
AudioFilename: audio.mp3
AudioLeadIn: 0
PreviewTime: 67222
Countdown: 0
SampleSet: Soft
StackLeniency: 0.7
Mode: 0
LetterboxInBreaks: 0
WidescreenStoryboard: 1

[Editor]
Bookmarks: 22746,45071,67397,89722,112048,137164,159490
DistanceSpacing: 2
BeatDivisor: 8
GridSize: 16
TimelineZoom: 1.5

[Metadata]
Title:L2M (feat. Kelsey Kuan)
TitleUnicode:L2M (feat. Kelsey Kuan)
Artist:City Girl
ArtistUnicode:City Girl
Creator:Hinsvar
Version:Hard
Source:
Tags:lie to me C-GIRL English hip hop hip-hop hiphop chillhop pop lofi lo-fi Niva
BeatmapID:3409068
BeatmapSetID:1668789

[Difficulty]
HPDrainRate:4
CircleSize:4
OverallDifficulty:6
ApproachRate:7.3
SliderMultiplier:2.4
SliderTickRate:1

[Events]
//Background and Video events
0,0,"josh-hild-VnI741B7l1c-unsplash.jpg",0,0
//Break Periods
2,89922,99333
//Storyboard Layer 0 (Background)
//Storyboard Layer 1 (Fail)
//Storyboard Layer 2 (Pass)
//Storyboard Layer 3 (Foreground)
//Storyboard Layer 4 (Overlay)
//Storyboard Sound Samples

[TimingPoints]
433,697.674418604651,4,2,1,60,1,0
8746,697.674418604651,4,2,1,60,1,0
11594,697.674418604651,4,2,1,60,1,0
22746,697.674418604651,4,2,1,60,1,0
45071,-111.111111111111,4,2,1,60,0,0
45770,-111.111111111111,4,2,1,50,0,0
67397,-100,4,2,1,60,0,0
69490,-125,4,2,1,60,0,0
70187,-100,4,2,1,60,0,0
79257,-100,4,2,1,5,0,0
81350,-100,4,2,1,60,0,0
89722,-125,4,2,1,40,0,0
110652,-125,4,2,1,45,0,0
112048,-125,4,2,1,50,0,0
113443,-111.111111111111,4,2,1,50,0,0
114315,-111.111111111111,4,2,1,55,0,0
114839,697.674418604651,4,2,1,60,1,0

[Colours]
Combo1 : 151,191,185
Combo2 : 68,210,247
Combo3 : 247,101,85
Combo4 : 118,150,235

[HitObjects]
470,99,22746,5,6,3:2:0:0:
470,99,23443,2,0,L|453:36,2,60,8|0|0,0:0|0:0|0:0,0:0:0:0:
426,164,23966,1,0,3:0:0:0:
382,229,24141,2,0,L|399:292,1,60,2|0,0:0|0:0,0:0:0:0:
359,354,24490,1,0,3:0:0:0:
286,325,24664,1,0,3:0:0:0:
208,320,24839,2,0,P|176:330|147:344,1,60,8|0,0:0|0:0,0:0:0:0:
61,273,25187,2,0,P|93:263|122:249,1,60,8|0,0:0|0:0,0:0:0:0:
176,177,25536,5,2,3:2:0:0:
176,177,25711,2,0,P|122:146|52:144,1,120
26,73,26234,2,0,P|19:42|22:14,1,60,8|0,0:0|3:0,0:0:0:0:
99,8,26583,2,0,P|106:39|103:67,1,60,0|0,0:0|3:0,0:0:0:0:
185,34,26932,2,0,L|247:32,2,60,2|0|0,0:0|0:0|3:0,0:0:0:0:
216,115,27455,1,0,0:0:0:0:
216,115,27629,1,8,0:0:0:0:
423,63,27978,1,0,3:0:0:0:
346,48,28152,1,0,3:0:0:0:
331,126,28327,6,0,P|389:176|489:157,1,180,2|0,3:2|0:0,0:0:0:0:
505,84,29025,2,0,L|496:24,1,60,8|0,0:0|0:0,0:0:0:0:
485,160,29373,2,0,L|494:220,1,60,0|0,0:0|3:0,0:0:0:0:
454,323,29722,2,0,P|429:268|374:221,1,120,2|0,0:0|3:0,0:0:0:0:
319,156,30246,1,0,3:0:0:0:
319,156,30420,2,0,P|259:165|199:206,1,120,8|8,0:0|0:0,0:0:0:0:
153,283,30943,1,0,0:0:0:0:
153,283,31118,6,0,P|106:244|75:179,1,120,2|0,3:2|0:0,0:0:0:0:
7,159,31641,1,0,0:0:0:0:
73,115,31815,2,0,L|140:106,2,60,8|0|0,0:0|3:0|0:0,0:0:0:0:
266,181,32513,2,0,L|229:228,1,60,2|0,3:2|0:0,0:0:0:0:
182,291,32862,1,0,3:0:0:0:
226,354,33036,2,0,L|268:364,2,30,0|0|8,0:0|0:0|0:0,0:0:0:0:
292,292,33385,1,0,3:0:0:0:
292,292,33559,1,2,3:2:0:0:
207,60,33908,5,6,3:2:0:0:
207,60,34606,2,0,P|198:93|196:135,2,60,8|0|0,0:0|0:0|0:0,0:0:0:0:
275,22,35129,1,0,3:0:0:0:
342,60,35304,2,0,P|350:88|353:118,1,60,2|0,0:0|0:0,0:0:0:0:
416,172,35652,1,0,3:0:0:0:
416,172,35827,1,0,3:0:0:0:
473,234,36001,2,0,L|409:255,1,60,8|0,0:0|0:0,0:0:0:0:
320,217,36350,2,0,L|294:279,1,60,8|0,0:0|0:0,0:0:0:0:
176,269,36699,5,2,3:2:0:0:
176,269,36873,2,0,L|232:376,1,120
305,350,37397,2,0,P|340:348|367:363,1,60,8|0,0:0|3:0,0:0:0:0:
374,267,37746,2,0,P|339:269|312:254,1,60,2|0,0:0|3:0,0:0:0:0:
256,209,38094,2,0,L|246:148,2,60,2|0|0,0:0|0:0|3:0,0:0:0:0:
203,267,38618,1,0,0:0:0:0:
203,267,38792,1,8,0:0:0:0:
103,97,39141,1,0,0:0:0:0:
85,172,39315,1,0,3:0:0:0:
13,234,39490,6,0,P|81:261|154:365,1,180,2|0,3:2|0:0,0:0:0:0:
253,313,40187,2,0,P|235:340|222:384,1,60,8|0,0:0|0:0,0:0:0:0:
179,238,40536,2,0,P|211:240|255:229,1,60,0|0,0:0|3:0,0:0:0:0:
263,164,40885,2,0,P|213:141|156:164,1,120,2|0,0:0|3:0,0:0:0:0:
160,65,41408,1,0,3:0:0:0:
160,65,41583,2,0,P|210:42|267:65,1,120,8|8,0:0|0:0,0:0:0:0:
360,118,42106,1,0,0:0:0:0:
360,118,42280,6,0,L|490:106,1,120,2|0,3:2|0:0,0:0:0:0:
510,34,42804,1,0,0:0:0:0:
431,35,42978,2,0,L|373:11,2,60,8|0|0,0:0|3:0|0:0,0:0:0:0:
512,209,43676,2,0,L|456:231,1,60,2|0,3:2|0:0,0:0:0:0:
402,287,44025,1,0,3:0:0:0:
326,307,44199,2,0,L|291:293,2,30,0|0|8,0:0|0:0|0:0,0:0:0:0:
256,229,44548,1,0,3:0:0:0:
256,229,44722,1,0,3:0:0:0:
113,361,45071,6,0,P|98:258|66:146,1,215.999993408203,6|8,3:2|0:0,0:0:0:0:
28,85,45943,1,0,0:0:0:0:
67,21,46118,2,0,P|90:29|123:32,2,53.9999983520508,0|0|2,0:0|3:0|0:0,0:0:0:0:
233,148,46815,1,0,3:0:0:0:
304,123,46990,1,0,3:0:0:0:
332,47,47164,1,8,0:0:0:0:
480,135,47513,1,8,0:0:0:0:
342,239,47862,6,0,P|342:266|349:300,1,53.9999983520508,2|0,3:2|0:0,0:0:0:0:
395,350,48211,2,0,P|418:336|444:313,1,53.9999983520508
465,248,48559,2,0,P|441:234|408:223,2,53.9999983520508,8|0|0,0:0|3:0|0:0,0:0:0:0:
438,318,49083,1,0,3:0:0:0:
322,366,49257,6,0,P|271:341|251:297,1,107.999996704102,2|0,0:0|3:0,0:0:0:0:
174,227,49780,1,0,0:0:0:0:
174,227,49955,2,0,P|247:205|280:116,1,161.999995056153,8|0,0:0|3:0,0:0:0:0:
351,103,50652,6,0,L|432:93,2,80.9999975280763,2|0|0,3:2|0:0|0:0,0:0:0:0:
354,27,51350,2,0,L|232:7,1,107.999996704102,8|0,0:0|0:0,0:0:0:0:
176,37,51873,1,0,3:0:0:0:
199,109,52048,2,0,L|280:119,2,80.9999975280763,2|0|0,3:2|0:0|3:0,0:0:0:0:
202,185,52745,1,8,0:0:0:0:
54,218,53094,1,8,0:0:0:0:
91,47,53443,6,0,P|56:21|14:2,2,80.9999975280763,2|0|0,3:2|0:0|0:0,0:0:0:0:
120,119,54141,2,0,P|56:129|-1:161,1,107.999996704102,8|0,0:0|0:0,0:0:0:0:
54,218,54664,1,0,0:0:0:0:
54,218,54839,1,2,3:2:0:0:
483,357,56234,6,0,P|441:324|367:301,1,107.999996704102,6|0,3:2|0:0,0:0:0:0:
384,336,56670,1,0,0:0:0:0:
384,336,56757,1,0,0:0:0:0:
308,366,56932,2,0,L|296:303,1,53.9999983520508,8|0,0:0|0:0,0:0:0:0:
230,277,57280,1,0,0:0:0:0:
185,190,57455,6,0,L|132:284,1,107.999996704102,2|0,3:2|0:0,0:0:0:0:
64,313,57978,1,0,3:0:0:0:
64,313,58152,1,0,3:0:0:0:
149,360,58327,2,0,L|213:347,1,53.9999983520508,8|0,0:0|0:0,0:0:0:0:
279,290,58676,2,0,L|343:277,1,53.9999983520508,8|0,0:0|0:0,0:0:0:0:
409,220,59025,5,2,3:2:0:0:
352,169,59199,2,0,P|347:109|395:97,1,107.999996704102
464,32,59722,2,0,P|436:25|405:22,1,53.9999983520508,8|0,0:0|3:0,0:0:0:0:
333,22,60071,1,0,0:0:0:0:
333,22,60245,2,0,L|220:54,1,107.999996704102,2|0,3:2|0:0,0:0:0:0:
169,98,60769,1,0,3:0:0:0:
108,53,60943,2,0,L|115:15,2,26.9999991760254,0|0|8,0:0|0:0|0:0,0:0:0:0:
217,214,61466,1,0,0:0:0:0:
146,240,61641,1,0,3:0:0:0:
75,267,61815,6,0,P|58:344|166:346,1,215.999993408203,2|8,3:2|0:0,0:0:0:0:
307,248,62862,1,0,0:3:0:0:
362,196,63036,2,0,P|415:203|476:231,1,107.999996704102,2|0,3:2|0:3,0:0:0:0:
492,299,63559,1,0,3:0:0:0:
492,299,63734,1,0,3:0:0:0:
395,309,63908,2,0,L|387:371,1,53.9999983520508,8|0,0:0|0:0,0:0:0:0:
291,375,64257,2,0,L|284:321,1,53.9999983520508,8|0,0:0|0:0,0:0:0:0:
198,273,64606,5,2,3:2:0:0:
171,202,64780,2,0,P|199:124|220:28,1,161.999995056153,0|8,0:0|0:0,0:0:0:0:
147,15,65478,2,0,P|117:59|126:114,1,107.999996704102,0|0,3:0|0:0,0:0:0:0:
57,146,66001,1,2,3:2:0:0:
238,117,66350,2,0,L|234:86,2,26.9999991760254,0|0|0,3:0|0:0|0:0,0:0:0:0:
312,104,66699,1,8,0:0:0:0:
293,180,66873,1,0,3:0:0:0:
293,180,67048,1,0,3:0:0:0:
475,24,67397,5,6,3:2:0:0:
475,24,68094,2,0,L|470:88,2,60,8|0|0,0:0|0:0|0:0,0:0:0:0:
397,47,68618,1,0,3:0:0:0:
317,23,68792,2,0,L|322:87,1,60,2|0,0:0|0:0,0:0:0:0:
397,160,69141,1,0,3:0:0:0:
385,236,69315,1,0,3:0:0:0:
373,312,69490,6,0,P|291:322|233:370,1,144,8|0,0:0|0:0,0:0:0:0:
137,291,70187,5,6,3:2:0:0:
214,279,70362,2,0,P|214:228|209:152,1,120,0|0,3:0|0:0,0:0:0:0:
135,97,70885,2,0,L|193:82,1,60,8|0,0:0|3:0,0:0:0:0:
115,24,71234,2,0,L|173:9,1,60,0|0,0:0|3:0,0:0:0:0:
61,78,71583,2,0,L|3:63,2,60,2|0|0,0:0|0:0|3:0,0:0:0:0:
13,149,72106,1,0,0:0:0:0:
13,149,72280,1,8,0:0:0:0:
112,326,72629,2,0,L|170:311,1,60,0|0,0:0|3:0,0:0:0:0:
272,247,72978,6,0,P|207:236|154:136,1,180,2|0,3:2|0:0,0:0:0:0:
242,81,73676,2,0,P|244:107|236:144,1,60,8|0,0:0|0:0,0:0:0:0:
328,150,74025,2,0,P|326:124|334:87,1,60,0|0,0:0|3:0,0:0:0:0:
368,21,74373,2,0,P|421:50|483:70,1,120,2|0,0:0|3:0,0:0:0:0:
512,162,74897,1,0,3:0:0:0:
512,162,75071,2,0,P|459:191|397:211,1,120,8|8,0:0|0:0,0:0:0:0:
330,290,75594,1,0,0:0:0:0:
330,290,75769,6,0,P|383:319|445:339,1,120,2|0,3:2|0:0,0:0:0:0:
501,290,76292,1,0,0:0:0:0:
474,216,76466,2,0,P|474:187|484:155,2,60,8|0|0,0:0|3:0|3:0,0:0:0:0:
339,61,77164,2,0,L|262:46,1,60,10|0,3:2|0:0,0:0:0:0:
214,128,77513,2,0,L|137:146,1,60,8|0,3:2|0:0,0:0:0:0:
104,231,77862,6,0,L|79:253,1,30,8|8,3:2|0:0,0:0:0:0:
191,369,78211,2,0,L|216:347,1,30,8|8,0:0|0:0,0:0:0:0:
184,189,78559,6,0,P|285:177|255:278,1,240,6|0,3:2|0:0,0:0:0:0:
270,197,81350,5,6,3:2:0:0:
270,197,81525,2,0,P|268:132|257:70,1,120
202,22,82048,2,0,P|177:38|142:46,1,60,8|0,0:0|3:0,0:0:0:0:
55,86,82397,2,0,P|80:102|115:110,1,60,0|0,0:0|3:0,0:0:0:0:
138,181,82745,2,0,L|125:244,2,60,2|0|0,0:0|0:0|3:0,0:0:0:0:
201,133,83269,1,0,0:0:0:0:
201,133,83443,1,8,0:0:0:0:
328,292,83792,2,0,L|315:233,1,60,0|0,0:0|3:0,0:0:0:0:
313,124,84141,6,0,P|373:173|488:202,1,180,2|0,3:2|0:0,0:0:0:0:
494,96,84839,2,0,P|463:98|425:116,1,60,8|0,0:0|0:0,0:0:0:0:
384,179,85187,2,0,P|368:205|361:247,1,60,0|0,0:0|3:0,0:0:0:0:
310,329,85536,2,0,P|276:277|211:243,1,120,2|0,0:0|3:0,0:0:0:0:
297,181,86059,1,0,3:0:0:0:
297,181,86234,2,0,P|241:152|168:156,1,120,8|8,0:0|0:0,0:0:0:0:
205,59,86757,1,0,0:0:0:0:
205,59,86932,6,0,P|142:62|81:101,1,120,2|0,3:2|0:0,0:0:0:0:
105,166,87455,1,0,0:0:0:0:
32,138,87629,2,0,L|23:204,2,60,8|0|0,0:0|3:0|0:0,0:0:0:0:
216,23,88327,2,0,L|241:84,1,60,2|0,3:2|0:0,0:0:0:0:
314,99,88676,1,0,3:0:0:0:
381,137,88850,2,0,L|373:170,2,30,0|0|8,0:0|0:0|0:0,0:0:0:0:
388,62,89199,1,0,3:0:0:0:
388,62,89373,1,0,3:0:0:0:
256,192,89722,5,6,3:2:0:0:
471,61,100187,6,0,P|427:65|380:88,1,96
274,198,100885,2,0,P|209:51|7:62,1,384,2|0,0:0|0:0,0:0:0:0:
36,211,102629,5,2,0:0:0:0:
187,184,102978,1,2,0:0:0:0:
160,33,103327,1,0,0:0:0:0:
160,33,104025,5,0,0:0:0:0:
98,122,104373,1,2,0:0:0:0:
36,211,104722,1,2,0:0:0:0:
256,362,105769,1,2,0:0:0:0:
476,211,106466,5,0,0:0:0:0:
325,184,106815,1,2,0:0:0:0:
352,33,107164,1,2,0:0:0:0:
503,59,107513,1,0,0:0:0:0:
503,59,108559,1,2,0:0:0:0:
165,29,109257,6,0,L|179:129,1,96,2|0,0:0|0:0,0:0:0:0:
333,124,109955,2,0,L|347:29,1,96,2|0,0:0|0:0,0:0:0:0:
256,8,110652,1,2,0:0:0:0:
256,104,111001,1,0,0:0:0:0:
256,228,111350,1,2,0:0:0:0:
256,381,111699,1,2,0:0:0:0:
256,381,112048,5,0,0:0:0:0:
27,30,113443,1,10,0:0:0:0:
59,98,113618,2,0,L|122:112,1,53.9999983520508,0|0,3:0|0:0,0:0:0:0:
175,69,113966,2,0,L|238:83,1,53.9999983520508,0|0,3:0|0:0,0:0:0:0:
293,42,114315,1,0,3:0:0:0:
378,28,114490,1,2,3:2:0:0:
474,13,114664,1,2,3:2:0:0:
498,117,114839,6,0,P|475:210|455:362,1,240,6|8,3:2|0:0,0:0:0:0:
280,310,115885,1,0,3:0:0:0:
314,240,116059,2,0,P|320:212|317:177,1,60,0|0,3:0|3:0,0:0:0:0:
129,223,116583,1,0,3:0:0:0:
104,296,116757,1,0,3:0:0:0:
147,360,116932,2,0,L|211:371,1,60,8|0,0:0|0:0,0:0:0:0:
271,308,117280,2,0,L|329:335,1,60,10|0,0:0|0:0,0:0:0:0:
432,369,117629,6,0,P|417:311|417:242,1,120,2|0,3:2|0:0,0:0:0:0:
345,216,118152,1,0,0:0:0:0:
310,145,118327,2,0,P|326:123|363:98,1,60,10|0,0:0|3:0,0:0:0:0:
348,25,118676,1,2,0:0:0:0:
423,7,118850,1,0,3:0:0:0:
488,50,119025,1,0,3:0:0:0:
388,244,119373,5,0,3:0:0:0:
388,244,119461,1,0,3:0:0:0:
388,244,119548,1,0,3:0:0:0:
306,205,119722,2,0,L|293:74,1,120,8|2,0:0|0:0,0:0:0:0:
212,46,120245,1,0,3:0:0:0:
114,139,120420,6,0,P|139:130|178:102,1,60,2|0,3:2|0:0,0:0:0:0:
132,42,120769,2,0,P|106:50|67:78,1,60
35,132,121118,2,0,L|21:264,1,120,8|0,0:0|0:0,0:0:0:0:
78,305,121641,2,0,L|71:375,1,60,0|0,3:0|3:0,0:0:0:0:
206,211,122164,1,0,3:0:0:0:
262,265,122339,2,0,L|255:335,1,60,0|10,3:0|0:0,0:0:0:0:
451,382,122862,1,10,0:0:0:0:
486,312,123036,6,0,L|456:303,2,30,0|0|2,0:0|0:0|3:2,0:0:0:0:
499,217,123385,2,0,L|380:237,1,120
379,118,123908,1,8,0:0:0:0:
379,118,124083,2,0,L|497:138,1,120,0|0,3:0|0:0,0:0:0:0:
451,54,124606,5,2,3:2:0:0:
256,147,124955,1,0,3:0:0:0:
61,54,125304,1,8,0:0:0:0:
5,108,125478,1,0,3:0:0:0:
79,130,125652,1,0,3:0:0:0:
127,352,126001,6,0,P|153:270|166:165,1,180,6|2,3:2|0:0,0:0:0:0:
236,144,126699,2,0,P|225:116|205:79,1,60,8|2,0:0|0:0,0:0:0:0:
312,74,127048,2,0,P|323:46|343:9,1,60,0|0,3:0|3:0,0:0:0:0:
393,125,127397,2,0,P|456:128|501:82,1,120,2|0,0:0|3:0,0:0:0:0:
474,17,127920,1,0,3:0:0:0:
474,17,128094,2,0,P|411:14|366:60,1,120,10|10,0:0|0:0,0:0:0:0:
293,116,128618,5,0,0:0:0:0:
293,116,128705,1,0,0:0:0:0:
293,116,128792,1,0,3:0:0:0:
224,58,128966,2,0,L|97:36,1,120,2|2,0:0|0:0,0:0:0:0:
54,133,129490,2,0,P|81:137|108:116,1,60,8|0,0:0|3:0,0:0:0:0:
127,218,129839,2,0,P|100:214|73:235,1,60,2|0,0:0|3:0,0:0:0:0:
30,303,130187,5,0,0:0:0:0:
30,303,130362,1,0,0:0:0:0:
30,303,130536,2,0,P|42:330|52:370,1,60,2|0,3:2|0:0,0:0:0:0:
83,367,130798,1,0,0:0:0:0:
83,367,130885,2,0,P|127:290|214:233,1,180,8|0,0:0|3:0,0:0:0:0:
265,282,131583,6,0,L|326:271,1,60,0|0,3:0|0:0,0:0:0:0:
377,183,131932,2,0,L|316:194,1,60,2|0,0:0|0:0,0:0:0:0:
267,132,132280,1,8,0:0:0:0:
267,132,132455,1,2,0:0:0:0:
267,132,132629,2,0,L|206:121,1,60,2|0,0:0|3:0,0:0:0:0:
131,40,132978,6,0,P|187:45|260:22,1,120,2|0,3:2|3:0,0:0:0:0:
343,14,133501,1,0,3:0:0:0:
366,107,133676,1,8,0:0:0:0:
268,299,134025,1,10,0:0:0:0:
245,206,134199,1,0,0:0:0:0:
198,267,134373,5,0,3:0:0:0:
139,318,134548,2,0,P|84:296|13:285,1,120,0|0,3:0|0:0,0:0:0:0:
8,213,135071,1,8,0:0:0:0:
8,213,135245,2,0,P|65:197|119:170,1,120,0|0,3:0|0:0,0:0:0:0:
178,92,135769,5,2,3:2:0:0:
253,294,136118,1,0,3:0:0:0:
370,113,136466,1,10,0:0:0:0:
456,155,136641,1,2,3:2:0:0:
377,209,136815,1,0,3:0:0:0:
148,135,137164,6,0,P|77:154|11:253,1,180,6|0,3:2|0:0,0:0:0:0:
61,298,137862,2,0,L|66:365,2,60,8|0|0,0:0|0:0|0:0,0:0:0:0:
126,254,138385,1,0,3:0:0:0:
199,278,138559,2,0,L|194:339,1,60,2|0,0:0|0:0,0:0:0:0:
296,370,138908,1,0,3:0:0:0:
296,370,139083,1,0,3:0:0:0:
396,355,139257,2,0,L|381:236,1,120,8|8,0:0|0:0,0:0:0:0:
420,171,139780,1,0,0:0:0:0:
420,171,139868,1,0,0:0:0:0:
420,171,139955,5,2,3:2:0:0:
482,90,140129,2,0,P|422:83|356:62,1,120
274,32,140652,2,0,L|281:97,1,60,8|0,0:0|3:0,0:0:0:0:
195,122,141001,2,0,L|188:62,1,60,0|0,0:0|3:0,0:0:0:0:
107,22,141350,2,0,L|47:15,2,60,2|0|0,0:0|0:0|3:0,0:0:0:0:
74,110,141873,1,0,0:0:0:0:
74,110,141961,1,0,0:0:0:0:
74,110,142048,1,8,0:0:0:0:
250,224,142397,1,0,0:0:0:0:
190,274,142571,1,0,3:0:0:0:
130,363,142745,6,0,P|93:280|45:194,1,180,2|0,3:2|0:0,0:0:0:0:
55,113,143443,2,0,L|118:145,1,60,8|0,0:0|0:0,0:0:0:0:
146,71,143792,2,0,L|83:39,1,60,0|0,0:0|3:0,0:0:0:0:
237,74,144141,2,0,L|357:42,1,120,2|0,0:0|3:0,0:0:0:0:
365,136,144664,1,0,3:0:0:0:
365,136,144839,2,0,L|481:178,1,120,8|8,0:0|0:0,0:0:0:0:
443,262,145362,1,0,0:0:0:0:
443,262,145536,6,0,L|514:363,1,120,2|0,3:2|0:0,0:0:0:0:
415,361,146059,1,0,0:0:0:0:
349,318,146234,2,0,L|312:369,2,60,8|0|0,0:0|3:0|0:0,0:0:0:0:
227,138,146932,2,0,L|164:147,1,60,2|0,3:2|0:0,0:0:0:0:
114,90,147280,1,0,3:0:0:0:
114,90,147368,1,0,0:0:0:0:
114,90,147455,2,0,L|109:48,2,30,0|0|8,0:0|0:0|0:0,0:0:0:0:
68,154,147804,1,0,3:0:0:0:
68,154,147978,1,0,3:0:0:0:
228,348,148327,6,0,P|224:256|206:152,1,180,6|0,3:2|0:0,0:0:0:0:
268,92,149025,2,0,P|244:94|207:85,2,60,8|0|0,0:0|0:0|0:0,0:0:0:0:
340,62,149548,1,0,3:0:0:0:
470,37,149722,2,0,P|441:30|412:32,1,60,2|0,0:0|0:0,0:0:0:0:
374,142,150071,1,0,3:0:0:0:
374,142,150245,1,0,3:0:0:0:
470,190,150420,2,0,L|484:265,1,60,8|0,0:0|0:0,0:0:0:0:
409,280,150769,1,8,0:0:0:0:
397,362,150943,1,0,0:0:0:0:
397,362,151030,1,0,0:0:0:0:
397,362,151118,5,2,3:2:0:0:
314,302,151292,2,0,L|184:285,1,120
102,259,151815,2,0,P|112:294|114:334,1,60,8|0,0:0|3:0,0:0:0:0:
40,368,152164,2,0,P|30:333|28:293,1,60,0|0,0:0|3:0,0:0:0:0:
102,259,152513,2,0,L|114:178,2,60,2|0|0,0:0|0:0|3:0,0:0:0:0:
181,320,153036,1,0,0:0:0:0:
181,320,153211,1,8,0:0:0:0:
361,225,153559,1,0,0:0:0:0:
437,210,153734,1,0,3:0:0:0:
503,130,153908,6,0,P|413:125|326:76,1,180,2|0,3:2|0:0,0:0:0:0:
238,48,154606,2,0,L|249:127,1,60,8|0,0:0|0:0,0:0:0:0:
317,178,154955,1,0,0:0:0:0:
317,178,155042,1,0,0:0:0:0:
317,178,155129,1,0,3:0:0:0:
301,254,155304,2,0,P|241:244|247:178,1,120,2|0,0:0|3:0,0:0:0:0:
139,223,155827,1,0,3:0:0:0:
139,223,156001,2,0,P|112:168|170:135,1,120,8|8,0:0|0:0,0:0:0:0:
80,66,156525,1,0,0:0:0:0:
80,66,156612,1,0,0:0:0:0:
80,66,156699,6,0,P|109:13|169:41,1,120,2|0,3:2|0:0,0:0:0:0:
226,64,157222,1,0,0:0:0:0:
292,22,157397,2,0,L|361:29,2,60,8|0|0,0:0|3:0|0:0,0:0:0:0:
203,218,158094,2,0,L|134:225,1,60,2|0,3:2|0:0,0:0:0:0:
103,311,158443,1,0,3:0:0:0:
204,340,158618,1,0,0:0:0:0:
204,340,158705,1,0,0:0:0:0:
204,340,158792,1,8,0:0:0:0:
297,361,158966,1,0,3:0:0:0:
386,347,159141,2,0,P|396:288|388:221,1,120,0|2,3:0|0:0,0:0:0:0:
