osu file format v14

[General]
AudioFilename: audio.mp3
AudioLeadIn: 0
PreviewTime: 67222
Countdown: 0
SampleSet: Soft
StackLeniency: 0.7
Mode: 0
LetterboxInBreaks: 0
WidescreenStoryboard: 1

[Editor]
Bookmarks: 22746,45071,67397,89722,112048,137164,159490
DistanceSpacing: 1.5
BeatDivisor: 8
GridSize: 16
TimelineZoom: 1

[Metadata]
Title:L2M (feat. Kelsey Kuan)
TitleUnicode:L2M (feat. Kelsey Kuan)
Artist:City Girl
ArtistUnicode:City Girl
Creator:Hinsvar
Version:Easy
Source:
Tags:lie to me C-GIRL English hip hop hip-hop hiphop chillhop pop lofi lo-fi Niva
BeatmapID:3418762
BeatmapSetID:1668789

[Difficulty]
HPDrainRate:2
CircleSize:2
OverallDifficulty:2.5
ApproachRate:3.5
SliderMultiplier:1.91999999999999
SliderTickRate:1

[Events]
//Background and Video events
0,0,"josh-hild-VnI741B7l1c-unsplash.jpg",0,0
//Break Periods
2,89922,98807
//Storyboard Layer 0 (Background)
//Storyboard Layer 1 (Fail)
//Storyboard Layer 2 (Pass)
//Storyboard Layer 3 (Foreground)
//Storyboard Layer 4 (Overlay)
//Storyboard Sound Samples

[TimingPoints]
433,697.674418604651,4,2,1,60,1,0
8746,697.674418604651,4,2,1,60,1,0
11594,697.674418604651,4,2,1,60,1,0
22746,697.674418604651,4,2,1,60,1,0
45769,-100,4,2,1,50,0,0
67397,-100,4,2,1,60,0,0
89722,-111.111111111111,4,2,1,40,0,0
110652,-111.111111111111,4,2,1,45,0,0
112048,-111.111111111111,4,2,1,50,0,0
113443,-100,4,2,1,50,0,0
114315,-100,4,2,1,55,0,0
114839,697.674418604651,4,2,1,60,1,0

[Colours]
Combo1 : 151,191,185
Combo2 : 68,210,247
Combo3 : 247,101,85
Combo4 : 118,150,235

[HitObjects]
72,320,22746,5,6,3:2:0:0:
220,198,23443,2,0,L|253:94,1,95.9999999999995,8|0,0:0|0:0,0:0:0:0:
343,89,24141,2,0,L|416:169,1,95.9999999999995,2|0,0:0|3:0,0:0:0:0:
465,236,24839,1,8,0:0:0:0:
438,328,25187,1,8,0:0:0:0:
346,357,25536,6,0,P|244:343|158:275,1,191.999999999999,2|8,3:2|0:0,0:0:0:0:
127,208,26583,1,0,0:0:0:0:
167,120,26932,2,0,P|172:71|158:24,1,95.9999999999995,2|0,0:0|3:0,0:0:0:0:
63,35,27629,2,0,P|58:84|72:131,1,95.9999999999995,8|0,0:0|3:0,0:0:0:0:
127,208,28327,5,2,3:2:0:0:
286,101,29025,2,0,P|336:96|390:122,1,95.9999999999995,8|0,0:0|0:0,0:0:0:0:
409,203,29722,2,0,P|320:248|228:318,1,191.999999999999,2|8,0:0|0:0,0:0:0:0:
314,369,30769,1,8,0:0:0:0:
393,315,31118,5,2,3:2:0:0:
481,144,31815,2,0,L|464:50,1,95.9999999999995,8|0,0:0|0:0,0:0:0:0:
373,17,32513,1,2,3:2:0:0:
302,82,32862,1,0,3:0:0:0:
216,39,33211,2,0,P|170:22|113:30,1,95.9999999999995,8|2,0:0|3:2,0:0:0:0:
31,52,33908,5,6,3:2:0:0:
81,237,34606,2,0,L|144:154,1,95.9999999999995,8|0,0:0|0:0,0:0:0:0:
220,109,35304,2,0,L|278:185,1,95.9999999999995,2|0,0:0|3:0,0:0:0:0:
318,273,36001,1,8,0:0:0:0:
407,308,36350,1,8,0:0:0:0:
481,245,36699,6,0,P|501:154|458:65,1,191.999999999999,2|8,3:2|0:0,0:0:0:0:
372,29,37746,1,2,0:0:0:0:
323,112,38094,2,0,P|285:131|215:143,1,95.9999999999995,2|0,0:0|3:0,0:0:0:0:
194,230,38792,2,0,P|232:249|302:261,1,95.9999999999995,8|0,0:0|0:0,0:0:0:0:
321,348,39490,5,2,3:2:0:0:
129,367,40187,2,0,P|115:328|106:268,1,95.9999999999995,8|0,0:0|0:0,0:0:0:0:
35,209,40885,2,0,P|58:102|99:28,1,191.999999999999,2|8,0:0|0:0,0:0:0:0:
169,93,41932,1,8,0:0:0:0:
254,50,42280,5,2,3:2:0:0:
445,66,42978,2,0,P|464:107|470:157,1,95.9999999999995,8|0,0:0|0:0,0:0:0:0:
380,192,43676,1,2,3:2:0:0:
288,164,44025,1,0,3:0:0:0:
209,219,44373,2,0,P|189:260|183:310,1,95.9999999999995,8|0,0:0|3:0,0:0:0:0:
262,363,45071,5,6,3:2:0:0:
451,333,45769,2,0,L|439:234,1,95.9999999999995,8|0,0:0|0:0,0:0:0:0:
489,155,46466,2,0,L|352:13,1,191.999999999999,2|8,0:0|0:0,0:0:0:0:
271,63,47513,1,8,0:0:0:0:
181,24,47862,6,0,P|91:46|24:120,1,191.999999999999,2|8,3:2|0:0,0:0:0:0:
55,208,48908,1,0,0:0:0:0:
146,178,49257,1,2,0:0:0:0:
256,335,49955,1,8,0:0:0:0:
366,178,50652,6,0,P|449:219|504:320,1,191.999999999999,2|8,3:2|0:0,0:0:0:0:
427,365,51699,1,0,0:0:0:0:
354,301,52048,2,0,L|160:259,1,191.999999999999,2|8,0:0|0:0,0:0:0:0:
103,333,53094,1,8,0:0:0:0:
13,301,53443,6,0,P|7:252|24:206,2,95.9999999999995,2|0|8,3:2|0:0|0:0,0:0:0:0:
195,359,54839,1,2,3:2:0:0:
195,359,56234,6,0,P|178:265|176:165,1,191.999999999999,6|8,3:2|0:0,0:0:0:0:
246,26,57455,2,0,P|317:51|408:61,1,143.999999999999,2|0,3:2|3:0,0:0:0:0:
467,110,58327,1,8,0:0:0:0:
494,202,58676,1,8,0:0:0:0:
478,296,59025,6,0,P|403:354|321:317,1,191.999999999999,2|8,3:2|0:0,0:0:0:0:
228,190,60245,2,0,P|279:147|347:168,1,143.999999999999,2|0,3:2|3:0,0:0:0:0:
432,123,61118,2,0,L|421:24,1,95.9999999999995,8|0,0:0|0:0,0:0:0:0:
327,48,61815,6,0,P|228:36|134:14,1,191.999999999999,2|8,3:2|0:0,0:0:0:0:
98,168,63036,2,0,P|168:150|249:143,1,143.999999999999,2|0,3:2|3:0,0:0:0:0:
299,217,63908,1,8,0:0:0:0:
233,287,64257,1,8,0:0:0:0:
306,348,64606,6,0,B|399:322|399:322|496:364,2,191.999999999999,2|8|2,3:2|0:0|3:2,0:0:0:0:
212,369,66350,1,0,3:0:0:0:
140,304,66699,1,8,0:0:0:0:
280,173,67397,5,6,3:2:0:0:
143,37,68094,2,0,P|99:42|55:89,1,95.9999999999995,8|0,0:0|0:0,0:0:0:0:
50,171,68792,2,0,P|76:206|139:221,1,95.9999999999995,2|0,0:0|3:0,0:0:0:0:
212,185,69490,1,8,0:0:0:0:
359,308,70187,6,0,P|446:270|486:174,1,191.999999999999,6|8,3:2|0:0,0:0:0:0:
418,116,71234,1,0,0:0:0:0:
325,141,71583,2,0,L|304:41,1,95.9999999999995,2|0,0:0|3:0,0:0:0:0:
211,69,72280,2,0,L|232:169,1,95.9999999999995,8|0,0:0|0:0,0:0:0:0:
190,250,72978,5,2,3:2:0:0:
43,126,73676,2,0,P|74:80|123:68,1,95.9999999999995,8|0,0:0|0:0,0:0:0:0:
195,23,74373,2,0,P|291:42|360:120,1,191.999999999999,2|8,0:0|0:0,0:0:0:0:
369,202,75420,1,8,0:0:0:0:
289,255,75769,5,2,3:2:0:0:
440,372,76466,2,0,P|467:334|469:276,1,95.9999999999995,8|0,0:0|3:0,0:0:0:0:
438,195,77164,1,10,3:2:0:0:
347,166,77513,1,8,3:2:0:0:
347,70,77862,1,8,3:2:0:0:
438,40,78211,1,8,0:0:0:0:
494,118,78559,5,6,3:2:0:0:
494,118,81350,6,0,P|389:76|287:63,1,191.999999999999,6|8,3:2|0:0,0:0:0:0:
219,35,82397,1,0,0:0:0:0:
123,24,82745,2,0,P|82:40|31:78,1,95.9999999999995,2|0,0:0|3:0,0:0:0:0:
83,155,83443,2,0,P|55:189|30:247,1,95.9999999999995,8|0,0:0|0:0,0:0:0:0:
77,322,84141,5,2,3:2:0:0:
251,242,84839,2,0,P|298:239|358:255,1,95.9999999999995,8|0,0:0|0:0,0:0:0:0:
396,331,85536,2,0,P|313:361|191:368,1,191.999999999999,2|8,0:0|0:0,0:0:0:0:
126,323,86583,1,8,0:0:0:0:
157,232,86932,5,2,3:2:0:0:
249,64,87629,2,0,L|354:89,1,95.9999999999995,8|0,0:0|0:0,0:0:0:0:
378,175,88327,5,2,3:2:0:0:
472,159,88676,1,0,3:0:0:0:
512,245,89025,2,0,L|487:350,1,95.9999999999995,8|0,0:0|3:0,0:0:0:0:
399,367,89722,5,6,3:2:0:0:
69,121,100187,6,0,P|83:84|128:53,1,86.3999973632809
211,32,100885,2,0,P|372:78|475:234,1,345.599989453124,2|0,0:0|0:0,0:0:0:0:
462,312,102629,1,2,0:0:0:0:
367,299,102978,1,2,0:0:0:0:
272,286,103327,1,0,0:0:0:0:
200,110,104025,5,0,0:0:0:0:
295,123,104373,1,2,0:0:0:0:
390,136,104722,1,2,0:0:0:0:
203,351,105769,1,2,0:0:0:0:
54,233,106466,5,0,0:0:0:0:
30,141,106815,1,2,0:0:0:0:
121,116,107164,1,2,0:0:0:0:
146,208,107513,1,0,0:0:0:0:
146,208,108559,1,2,0:0:0:0:
255,52,109257,6,0,P|336:36|460:60,1,172.799994726562,2|2,0:0|0:0,0:0:0:0:
478,125,110304,5,0,0:0:0:0:
434,209,110652,2,0,P|353:225|229:201,1,172.799994726562,2|2,0:0|0:0,0:0:0:0:
211,136,111699,1,2,0:0:0:0:
255,52,112048,5,0,0:0:0:0:
255,52,113443,2,0,P|304:51|360:33,1,95.9999999999995,10|0,0:0|0:0,0:0:0:0:
423,98,114141,2,0,P|424:147|442:203,1,95.9999999999995,0|2,0:0|3:2,0:0:0:0:
397,279,114839,6,0,P|316:252|196:239,1,191.999999999999,6|8,3:2|0:0,0:0:0:0:
61,360,116234,2,0,P|48:330|41:258,1,95.9999999999995,0|0,3:0|3:0,0:0:0:0:
33,171,116932,1,8,0:0:0:0:
64,80,117280,1,10,0:0:0:0:
149,35,117629,6,0,L|249:30,2,95.9999999999995,2|0|10,3:2|0:0|0:0,0:0:0:0:
146,131,118676,2,0,L|241:135,1,95.9999999999995,2|0,0:0|3:0,0:0:0:0:
328,93,119373,1,0,3:0:0:0:
407,146,119722,1,8,0:0:0:0:
417,337,120420,6,0,P|373:355|317:359,1,95.9999999999995,2|0,3:2|0:0,0:0:0:0:
261,286,121118,2,0,P|194:269|111:273,2,143.999999999999,8|0|0,0:0|3:0|3:0,0:0:0:0:
334,224,122513,1,10,0:0:0:0:
267,154,122862,1,10,0:0:0:0:
310,68,123211,6,0,P|395:39|501:59,2,191.999999999999,2|8|2,3:2|0:0|3:2,0:0:0:0:
254,146,124955,1,0,3:0:0:0:
161,172,125304,1,8,0:0:0:0:
75,129,125652,1,0,3:0:0:0:
83,33,126001,6,0,L|239:17,1,143.999999999999,6|2,3:2|0:0,0:0:0:0:
309,66,126873,1,2,0:0:0:0:
260,148,127222,2,0,P|247:203|240:325,1,143.999999999999,0|0,3:0|3:0,0:0:0:0:
318,344,128094,1,10,0:0:0:0:
401,296,128443,1,10,0:0:0:0:
494,316,128792,6,0,P|488:244|473:174,1,143.999999999999,0|2,3:0|0:0,0:0:0:0:
423,91,129664,1,0,3:0:0:0:
341,142,130013,2,0,L|185:126,1,143.999999999999,0|2,3:0|3:2,0:0:0:0:
137,201,130885,1,8,0:0:0:0:
27,358,131583,6,0,P|76:359|129:337,1,95.9999999999995,0|2,3:0|0:0,0:0:0:0:
215,349,132280,2,0,P|232:303|230:245,1,95.9999999999995,8|2,0:0|0:0,0:0:0:0:
304,192,132978,2,0,P|284:88|199:44,1,191.999999999999,2|8,3:2|0:0,0:0:0:0:
128,86,134025,1,10,0:0:0:0:
95,176,134373,5,0,3:0:0:0:
256,279,135071,1,8,0:0:0:0:
417,176,135769,1,2,3:2:0:0:
491,236,136118,1,0,3:0:0:0:
460,326,136466,2,0,P|417:344|365:345,1,95.9999999999995,10|0,0:0|3:0,0:0:0:0:
306,271,137164,5,6,3:2:0:0:
174,130,137862,2,0,L|160:30,1,95.9999999999995,8|0,0:0|0:0,0:0:0:0:
65,49,138559,2,0,L|79:149,1,95.9999999999995,2|0,0:0|3:0,0:0:0:0:
53,237,139257,1,8,0:0:0:0:
26,329,139606,1,8,0:0:0:0:
118,354,139955,6,0,P|216:355|312:338,1,191.999999999999,2|8,3:2|0:0,0:0:0:0:
352,253,141001,1,0,0:0:0:0:
286,182,141350,2,0,P|272:137|296:85,1,95.9999999999995,2|0,0:0|3:0,0:0:0:0:
362,31,142048,2,0,P|407:17|459:41,1,95.9999999999995,8|0,0:0|0:0,0:0:0:0:
504,113,142745,5,2,3:2:0:0:
400,274,143443,2,0,L|297:298,1,95.9999999999995,8|0,0:0|0:0,0:0:0:0:
238,227,144141,2,0,L|22:190,1,191.999999999999,2|8,0:0|0:0,0:0:0:0:
9,106,145187,1,8,0:0:0:0:
64,27,145536,6,0,P|153:21|204:105,1,191.999999999999,2|8,3:2|0:0,0:0:0:0:
182,193,146583,1,0,0:0:0:0:
254,255,146932,1,2,3:2:0:0:
349,249,147280,1,0,3:0:0:0:
416,180,147629,2,0,L|421:81,1,95.9999999999995,8|0,0:0|3:0,0:0:0:0:
341,28,148327,5,6,3:2:0:0:
174,124,149025,2,0,L|178:219,1,95.9999999999995,8|0,0:0|0:0,0:0:0:0:
262,266,149722,2,0,L|218:351,1,95.9999999999995,2|0,0:0|3:0,0:0:0:0:
121,351,150420,1,8,0:0:0:0:
92,259,150769,1,8,0:0:0:0:
108,164,151118,6,0,P|194:138|311:138,1,191.999999999999,2|8,3:2|0:0,0:0:0:0:
360,206,152164,1,0,0:0:0:0:
454,188,152513,2,0,P|479:147|491:94,1,95.9999999999995,2|0,0:0|3:0,0:0:0:0:
424,31,153211,2,0,P|398:71|386:124,1,95.9999999999995,8|0,0:0|0:0,0:0:0:0:
360,206,153908,5,2,3:2:0:0:
228,345,154606,2,0,P|184:351|122:341,1,95.9999999999995,8|0,0:0|0:0,0:0:0:0:
153,250,155304,2,0,P|77:195|47:101,1,191.999999999999,2|8,0:0|0:0,0:0:0:0:
115,37,156350,1,8,0:0:0:0:
210,26,156699,6,0,P|286:81|316:175,1,191.999999999999,2|8,3:2|0:0,0:0:0:0:
279,259,157745,1,0,0:0:0:0:
330,339,158094,1,2,3:2:0:0:
425,348,158443,1,0,3:0:0:0:
482,270,158792,2,0,P|493:224|482:170,1,95.9999999999995,8|0,0:0|3:0,0:0:0:0:
449,87,159490,5,2,0:0:0:0:
