osu file format v14

[General]
AudioFilename: K-ON! Non-Stop Mix (99%Ver.).mp3
AudioLeadIn: 0
PreviewTime: 609938
Countdown: 0
SampleSet: Soft
StackLeniency: 0.7
Mode: 0
LetterboxInBreaks: 0
WidescreenStoryboard: 1

[Editor]
Bookmarks: 1172,75671,138172,222427,281150,347069,435069,507069,639932,724513,755072,888933,978034,1065698,1134680,1212030,1218246,1372263,1374832,1458577
DistanceSpacing: 1.1
BeatDivisor: 8
GridSize: 4
TimelineZoom: 4.899998

[Metadata]
Title:K-ON!! Non-Stop Mix (99% Mio ver.)
TitleUnicode:K-ON!! Non-Stop Mix 【99%澪ver.】
Artist:Citrus feat. Akiyama Mio
ArtistUnicode:しとらす feat. 秋山 澪
Creator:CXu
Version:Marathon
Source:K-ON!!
Tags:Heart Goes Boom!! Seishun Vibration Tokimeki Sugar Fuwa Time Come With Me!! Our MAGIC Samidare 20 Love Listen!! Hello Little Girl NO, Thank you! Soukuu Monologue Let's Go! Sweet Bitter Beauty Song Pure Don't Say "Lazy" Girls In Wonderland Hikasa Yoko Long Song
BeatmapID:1680437
BeatmapSetID:93630

[Difficulty]
HPDrainRate:5
CircleSize:4
OverallDifficulty:8.5
ApproachRate:9
SliderMultiplier:2
SliderTickRate:2

[Events]
//Background and Video events
0,0,"BG.jpg",0,0
//Break Periods
2,133268,136298
2,271125,277984
2,435442,442475
2,641517,648898
2,894863,899468
2,1134877,1138389
//Storyboard Layer 0 (Background)
//Storyboard Layer 1 (Fail)
//Storyboard Layer 2 (Pass)
//Storyboard Layer 3 (Foreground)
//Storyboard Sound Samples

[TimingPoints]
1166,333.333333333333,4,2,0,50,1,0
5165,-100,4,2,1,70,0,0
22165,-100,4,2,1,75,0,0
22499,-100,4,2,1,80,0,0
41165,-100,4,2,1,70,0,0
45165,-100,4,2,1,75,0,0
45499,-100,4,2,1,80,0,0
45832,-100,4,2,1,85,0,0
46165,-100,4,2,1,90,0,0
46332,-100,4,2,1,90,0,1
69165,-100,4,2,1,90,0,0
70499,-100,4,2,1,70,0,0
91832,331.491712707182,4,2,0,100,1,0
94483,329.67032967033,4,2,0,100,1,0
97120,327.868852459016,4,2,0,100,1,0
99742,326.086956521739,4,2,0,100,1,0
102350,324.324324324324,4,2,0,100,1,0
104944,322.58064516129,4,2,0,100,1,0
107524,320.855614973262,4,2,0,100,1,0
110090,319.148936170213,4,2,0,100,1,0
112643,-100,4,2,0,100,0,1
130515,-100,4,2,0,100,0,0
138160,319.148936170213,4,2,0,100,1,0
189223,-100,4,2,0,100,0,1
210925,-100,4,2,0,100,0,0
222415,319.148936170213,4,2,0,100,1,0
253053,-100,4,2,0,100,0,1
270925,-100,4,2,0,100,0,0
286256,319.148936170213,4,2,0,100,1,1
292638,326.086956521739,4,2,0,100,1,1
296551,-100,4,2,0,100,0,0
303724,342.857142857143,4,2,0,100,1,0
304409,333.333333333333,4,2,0,100,1,0
328409,-100,4,2,0,100,0,1
339075,-100,4,2,0,100,0,0
413742,-100,4,2,0,100,0,1
435075,-100,4,2,0,100,0,0
488408,-100,4,2,0,100,0,1
507075,-100,4,2,0,100,0,0
549742,-100,4,2,0,100,0,1
568408,-100,4,2,0,100,0,0
571075,340.909090909091,4,2,0,100,1,0
609938,340.909090909091,4,2,0,100,1,0
609938,-100,4,2,0,100,0,1
629028,-100,4,2,0,100,0,0
639954,681.818181818182,4,2,0,100,1,0
649503,-66.6666666666667,4,2,0,100,0,0
661772,-66.6666666666667,4,2,0,100,0,0
667215,674.157303370787,4,2,0,100,1,0
667215,-66.6666666666667,4,2,0,100,0,0
683393,666.666666666667,4,2,0,100,1,0
683393,-66.6666666666667,4,2,0,100,0,0
688726,662.983425414365,4,2,0,100,1,0
688726,-66.6666666666667,4,2,0,100,0,0
704637,-66.6666666666667,4,2,0,100,0,1
721212,-100,4,2,0,100,0,0
724503,331.491712707182,4,2,0,100,1,0
777541,-200,4,2,0,100,0,0
777873,-100,4,2,0,100,0,0
778867,-100,4,2,0,100,0,1
796105,-100,4,2,0,100,0,0
797441,662.983425414365,4,2,0,100,1,0
816004,-66.6666666666667,4,2,0,100,0,0
820645,500,4,2,0,100,1,0
820645,-76.9230769230769,4,2,0,100,0,0
820832,322.58064516129,4,2,0,100,1,0
821294,331.491712707182,4,2,0,100,1,0
839857,327.868852459016,3,2,0,100,1,0
841824,331.491712707182,4,2,0,100,1,0
842516,331.491712707182,4,2,0,100,1,0
842516,-200,4,2,0,100,0,0
842837,-100,4,2,0,100,0,0
865057,-100,4,2,0,100,0,1
882295,-100,4,2,0,100,0,0
885609,331.491712707182,4,2,0,100,1,0
886271,331.491712707182,4,2,0,100,1,0
886602,331.491712707182,4,2,0,100,1,0
886933,331.491712707182,4,2,0,100,1,0
887264,331.491712707182,4,2,0,100,1,0
887595,331.491712707182,4,2,0,100,1,0
887760,331.491712707182,4,2,0,100,1,0
887925,331.491712707182,4,2,0,100,1,0
888090,331.491712707182,4,2,0,100,1,0
888255,331.491712707182,4,2,0,100,1,0
888420,331.491712707182,4,2,0,100,1,0
888585,331.491712707182,4,2,0,100,1,0
888750,331.491712707182,4,2,0,100,1,0
888915,718.562874251497,4,2,0,100,1,0
900068,718.562874251497,4,2,0,100,1,0
900070,-66.6666666666667,4,2,0,100,0,0
900427,718.562874251497,4,2,0,100,1,0
900427,-66.6666666666667,4,2,0,100,0,0
955037,-66.6666666666667,4,2,0,100,0,1
978031,359.281437125748,4,2,0,100,1,0
978034,-133.333333333333,4,2,0,100,0,0
989528,-100,4,2,0,100,0,0
1018270,-133.333333333333,4,2,0,100,0,0
1026893,-100,4,2,0,100,0,0
1031204,-100,4,2,0,100,0,1
1054198,-100,4,2,0,100,0,0
1123180,-100,4,2,0,100,0,1
1132881,-100,4,2,0,100,0,0
1151923,355.029585798817,4,2,0,100,1,0
1154763,352.941176470588,4,2,0,100,1,0
1163233,348.837209302326,4,2,0,100,1,0
1166023,346.820809248555,4,2,0,100,1,0
1174346,342.857142857143,4,2,0,100,1,0
1185317,338.983050847458,4,2,0,100,1,0
1188028,337.078651685393,4,2,0,100,1,1
1196120,333.333333333333,4,2,0,100,1,1
1198786,331.491712707182,4,2,0,100,1,1
1209393,-100,4,2,0,100,0,0
1210719,327.868852459016,4,2,0,100,1,0
1212030,-100,4,2,0,100,0,1
1212056,326.086956521739,4,2,0,100,1,1
1227708,322.58064516129,4,2,0,100,1,1
1230288,319.148936170213,4,2,0,100,1,1
1232841,320.855614973262,4,2,0,100,1,0
1235407,319.148936170213,4,2,0,100,1,0
1243066,315.789473684211,4,2,0,100,1,0
1253141,310.880829015544,4,2,0,100,1,0
1255628,312.5,4,2,0,100,1,0
1263128,306.122448979592,4,2,0,100,1,0
1279032,303.030303030303,4,2,0,100,1,0
1282668,-100,4,2,0,100,0,1
1289941,300,4,2,0,100,1,1
1292335,301.507537688442,4,2,0,100,1,1
1299571,297.029702970297,4,2,0,100,1,1
1301947,295.566502463054,4,2,0,100,1,0
1301947,-200,4,2,0,100,0,0
1309012,-133.333333333333,4,2,0,100,0,0
1310224,-133.333333333333,4,2,0,100,0,0
1311405,-100,4,2,0,100,0,0
1313769,289.855072463768,4,2,0,100,1,0
1316087,291.26213592233,4,2,0,100,1,0
1325407,287.081339712919,4,2,0,100,1,0
1327703,284.36018957346,4,2,0,100,1,0
1329973,288.461538461538,4,2,0,100,1,0
1334588,285.714285714286,4,2,0,100,1,0
1336873,283.018867924528,4,2,0,100,1,0
1339137,281.69014084507,4,2,0,100,1,0
1341390,280.373831775701,4,2,0,100,1,0
1343632,283.018867924528,4,2,0,100,1,0
1345896,280.373831775701,4,2,0,100,1,0
1348138,275.229357798165,4,2,0,100,1,0
1348688,277.777777777778,4,2,0,100,1,1
1357576,273.972602739726,4,2,0,100,1,1
1366342,272.727272727273,4,2,0,100,1,0
1367432,271.493212669683,4,2,0,100,1,0
1368517,270.27027027027,4,2,0,100,1,0
1369598,269.058295964126,4,2,0,100,1,0
1370674,263.157894736842,4,2,0,100,1,0
1372779,257.510729613734,4,2,0,100,1,0
1374839,255.31914893617,4,2,0,100,1,0
1415690,-100,4,2,0,100,0,1
1440200,-100,4,2,0,100,0,0
1441221,-133.333333333333,4,2,0,100,0,0
1443264,-100,4,2,0,100,0,0
1444285,-100,4,2,0,100,0,1
1469817,-100,4,2,0,100,0,0
1470839,510.63829787234,4,2,0,100,1,0
1481051,254.237288135593,4,2,0,100,1,0
1482067,266.666666666667,4,2,0,100,1,1
1492744,265.486725663717,4,2,0,100,1,0
1500177,277.777777777778,4,2,0,100,1,0
1501288,-100,4,2,0,100,0,1
1509065,-100,4,2,0,100,0,0

[Colours]
Combo1 : 236,224,0
Combo2 : 219,255,219
Combo3 : 18,124,255
Combo4 : 255,0,134

[HitObjects]
424,56,1166,6,0,L|216:56,1,200,0|8,0:0|0:0,0:0:0:0:
144,116,1665,1,0,0:0:0:0:
224,176,1832,2,0,L|424:176,1,200,0|8,0:0|0:0,0:0:0:0:
504,236,2332,1,0,0:0:0:0:
424,296,2499,2,0,L|320:296,2,100,0|0|8,0:0|0:0|0:0,0:0:0:0:
236,340,2999,2,0,P|118:299|114:200,1,200
180,172,3499,1,8,0:0:0:0:
28,172,3665,1,0,0:0:0:0:
108,84,3832,6,0,P|198:59|280:120,1,200,0|8,0:0|0:0,0:0:0:0:
268,216,4332,1,0,0:0:0:0:
372,184,4499,2,0,P|462:207|502:301,1,200,0|8,0:0|0:0,0:0:0:0:
392,296,4999,1,0,0:0:0:0:
296,344,5165,1,2,0:0:0:0:
260,344,5249,1,0,0:0:0:0:
225,344,5332,1,0,0:0:0:0:
190,344,5415,1,0,0:0:0:0:
154,344,5499,1,2,0:0:0:0:
119,344,5582,1,0,0:0:0:0:
86,348,5665,1,2,0:0:0:0:
86,348,5999,6,0,P|50:316|46:252,1,100,2|12,0:0|0:0,0:0:0:0:
108,72,6332,1,0,0:0:0:0:
200,152,6499,6,0,P|248:168|300:160,1,100,4|0,0:0|0:0,0:0:0:0:
388,104,6832,1,8,0:0:0:0:
388,104,6999,1,0,0:0:0:0:
408,236,7165,2,0,P|374:273|325:292,1,100,2|2,0:0|0:0,0:0:0:0:
221,288,7499,1,8,0:0:0:0:
221,288,7665,1,0,0:0:0:0:
60,188,7832,5,2,0:0:0:0:
20,292,7999,1,2,0:0:0:0:
128,272,8165,1,8,0:0:0:0:
163,167,8332,2,0,P|107:89|11:90,1,200,0|2,0:0|0:0,0:0:0:0:
60,188,8832,1,8,0:0:0:0:
20,292,8999,1,0,0:0:0:0:
164,356,9165,6,0,P|208:316|220:264,1,100,2|0,0:0|0:0,0:0:0:0:
164,168,9499,1,8,0:0:0:0:
164,168,9665,1,0,0:0:0:0:
268,64,9832,2,0,P|332:64|364:88,1,100,2|2,0:0|0:0,0:0:0:0:
420,188,10165,1,8,0:0:0:0:
420,188,10332,1,0,0:0:0:0:
356,308,10499,5,2,0:0:0:0:
256,164,10665,1,2,0:0:0:0:
192,304,10832,1,8,0:0:0:0:
420,188,10999,2,0,P|440:108|352:48,1,200,4|10,0:0|0:1,0:0:0:0:
256,164,11499,1,2,0:0:0:0:
158,47,11665,1,10,0:1:0:0:
256,164,11832,1,6,0:0:0:0:
120,336,12165,6,0,P|72:328|36:276,1,100,8|0,0:0|0:0,0:0:0:0:
128,152,12499,2,0,P|145:197|118:254,1,100,2|0,0:0|0:0,0:0:0:0:
32,196,12832,1,8,0:0:0:0:
158,47,12999,1,0,0:0:0:0:
128,244,13165,1,2,0:0:0:0:
40,84,13332,2,0,P|120:36|224:104,2,200,0|2|2,0:0|0:0|0:0,0:0:0:0:
32,196,14165,1,8,0:0:0:0:
52,304,14332,1,0,0:0:0:0:
156,340,14499,1,2,0:0:0:0:
424,328,14832,6,0,L|440:204,1,100,8|0,0:0|0:0,0:0:0:0:
360,52,15165,2,0,L|344:176,1,100,2|2,0:0|0:0,0:0:0:0:
336,260,15499,1,8,0:0:0:0:
448,120,15665,1,0,0:0:0:0:
272,160,15832,1,2,0:0:0:0:
448,232,15999,2,0,P|480:180|412:64,1,200,0|2,0:0|0:0,0:0:0:0:
184,36,16665,1,2,0:0:0:0:
52,136,16832,1,8,0:0:0:0:
164,20,16999,1,0,0:0:0:0:
80,152,17165,1,2,0:0:0:0:
192,356,17499,6,0,P|232:320|240:276,1,100,8|0,0:0|0:0,0:0:0:0:
192,176,17832,1,2,0:0:0:0:
288,120,17999,1,2,0:0:0:0:
349,210,18165,2,0,P|391:225|443:209,1,100,8|0,0:0|0:0,0:0:0:0:
392,112,18499,1,2,0:0:0:0:
304,284,18665,2,0,P|248:308|132:236,1,200,0|2,0:0|0:0,0:0:0:0:
108,136,19165,1,0,0:0:0:0:
152,36,19332,6,0,L|248:64,2,100,2|8|0,0:0|0:0|0:0,0:0:0:0:
336,40,19832,1,2,0:0:0:0:
364,144,19999,2,0,L|268:172,2,100,0|8|0,0:0|0:0|0:0,0:0:0:0:
180,148,20499,1,2,0:0:0:0:
152,252,20665,2,0,L|248:280,2,100,0|8|0,0:0|0:0|0:0,0:0:0:0:
336,256,21165,1,2,0:0:0:0:
364,276,21249,1,0,0:0:0:0:
396,284,21332,1,0,0:0:0:0:
436,280,21415,1,0,0:0:0:0:
468,264,21499,1,8,0:0:0:0:
488,236,21582,1,0,0:0:0:0:
496,204,21665,2,0,L|460:100,1,100,2|0,0:0|0:0,0:0:0:0:
372,32,21999,5,10,0:3:0:0:
172,112,22165,1,8,0:0:0:0:
340,112,22332,1,8,0:0:0:0:
140,32,22499,6,0,P|96:60|80:112,1,100,6|0,0:0|0:0,0:0:0:0:
24,196,22832,2,0,L|112:272,1,100,8|0,0:0|0:0,0:0:0:0:
184,332,23165,1,2,0:0:0:0:
256,248,23332,1,2,0:0:0:0:
328,332,23499,1,8,0:0:0:0:
396,248,23665,1,0,0:0:0:0:
464,332,23832,1,2,0:0:0:0:
328,156,23999,2,0,P|308:84|408:24,1,200,0|2,0:0|0:0,0:0:0:0:
428,128,24499,2,0,L|456:224,1,100,8|2,0:3|0:0,0:0:0:0:
224,184,24832,2,0,L|196:88,1,100,10|0,0:1|0:0,0:0:0:0:
32,20,25165,6,0,L|88:224,1,200,10|8,0:3|0:0,0:0:0:0:
112,320,25665,1,0,0:0:0:0:
200,252,25832,2,0,P|260:240|308:272,1,100,2|2,0:0|0:0,0:0:0:0:
480,344,26165,2,0,P|420:356|372:324,1,100,8|0,0:0|0:0,0:0:0:0:
432,240,26499,1,0,0:0:0:0:
248,356,26665,2,0,P|160:360|92:248,1,200,0|2,0:0|0:0,0:0:0:0:
176,160,27165,2,0,P|204:212|196:268,1,100,8|2,0:3|0:0,0:0:0:0:
52,120,27499,2,0,P|83:69|135:48,1,100,10|0,0:1|0:0,0:0:0:0:
256,92,27832,6,0,P|356:116|428:32,1,200,10|8,0:3|0:0,0:0:0:0:
320,12,28332,1,0,0:0:0:0:
421,55,28499,2,0,P|464:100|468:148,1,100,2|2,0:0|0:0,0:0:0:0:
452,244,28832,1,8,0:0:0:0:
348,284,28999,1,0,0:0:0:0:
368,176,29165,1,0,0:0:0:0:
424,344,29332,2,0,P|336:376|252:296,1,200,0|2,0:0|0:0,0:0:0:0:
256,152,29832,1,0,0:3:0:0:
148,236,29999,6,0,L|48:264,2,100,2|8|0,0:0|0:0|0:0,0:0:0:0:
256,236,30499,1,2,0:0:0:0:
364,236,30665,2,0,L|464:264,2,100,0|8|0,0:0|0:0|0:0,0:0:0:0:
256,152,31165,1,2,0:0:0:0:
148,152,31332,2,0,L|48:180,2,100,2|8|0,0:0|0:0|0:0,0:0:0:0:
364,152,31832,5,2,0:0:0:0:
400,152,31915,1,0,0:0:0:0:
436,152,31999,1,0,0:0:0:0:
468,136,32082,1,0,0:0:0:0:
484,104,32165,1,8,0:0:0:0:
468,72,32249,1,0,0:0:0:0:
436,60,32332,1,0,0:0:0:0:
400,60,32415,1,0,0:0:0:0:
364,60,32499,1,8,0:0:0:0:
256,236,32665,1,4,0:0:0:0:
256,236,32999,6,0,P|224:332|104:312,1,200,6|2,0:0|0:0,0:0:0:0:
28,176,33499,1,8,0:0:0:0:
32,288,33665,1,0,0:0:0:0:
128,220,33832,2,0,P|124:112|40:68,1,200,10|8,0:3|0:0,0:0:0:0:
28,176,34332,2,0,L|224:80,1,200,10|10,0:3|0:3,0:0:0:0:
308,40,34832,2,0,P|376:36|448:148,1,200,8|2,0:0|0:0,0:0:0:0:
340,140,35332,1,2,0:0:0:0:
404,232,35499,1,8,0:0:0:0:
240,196,35665,6,0,P|176:244|208:352,1,200,10|2,0:3|0:0,0:0:0:0:
344,308,36165,2,0,P|400:340|412:380,1,100,8|0,0:0|0:0,0:0:0:0:
300,380,36499,1,10,0:3:0:0:
276,252,36665,2,0,P|275:187|304:157,1,100,2|8,0:0|0:0,0:0:0:0:
420,268,36999,1,0,0:3:0:0:
428,168,37165,6,0,P|428:104|320:36,1,200,10|8,0:3|0:0,0:0:0:0:
256,124,37665,1,0,0:0:0:0:
188,35,37832,1,2,0:0:0:0:
256,124,37999,1,2,0:0:0:0:
188,35,38165,1,8,0:0:0:0:
208,228,38332,6,0,P|136:288|24:236,1,200,10|2,0:3|0:0,0:0:0:0:
304,228,38832,2,0,P|376:288|488:236,2,200,10|2|10,0:1|0:0|0:1,0:0:0:0:
400,200,39665,2,0,P|377:295|289:327,1,200,2|10,0:3|0:3,0:0:0:0:
128,232,40165,2,0,P|72:240|24:288,1,100,8|0,0:0|0:0,0:0:0:0:
132,344,40499,1,2,0:0:0:0:
228,288,40665,1,2,0:0:0:0:
228,176,40832,1,8,0:0:0:0:
132,120,40999,1,0,0:3:0:0:
72,44,41165,6,0,P|120:24|184:44,1,100,6|2,0:0|0:0,0:0:0:0:
440,80,41499,2,0,P|392:100|328:80,1,100,8|2,0:0|0:0,0:0:0:0:
72,164,41832,2,0,P|120:144|165:152,1,100,2|2,0:0|0:0,0:0:0:0:
440,200,42165,2,0,P|392:220|346:211,1,100,8|2,0:0|0:0,0:0:0:0:
72,284,42499,2,0,P|120:264|165:272,1,100,2|2,0:0|0:0,0:0:0:0:
440,320,42832,2,0,P|392:340|346:331,1,100,8|2,0:0|0:0,0:0:0:0:
256,232,43165,1,2,0:0:0:0:
364,84,43332,5,8,0:0:0:0:
256,232,43499,1,8,0:0:0:0:
148,84,43665,2,0,P|76:136|88:252,1,200,4|2,0:0|0:0,0:0:0:0:
44,368,44165,6,0,L|160:340,1,100,8|2,0:0|0:0,0:0:0:0:
392,132,44499,2,0,L|276:160,1,100,2|2,0:0|0:0,0:0:0:0:
172,184,44832,1,8,0:0:0:0:
360,240,44999,1,2,0:0:0:0:
228,96,45165,5,2,0:0:0:0:
195,82,45249,1,0,0:0:0:0:
161,80,45332,1,2,0:0:0:0:
127,89,45415,1,0,0:0:0:0:
99,109,45499,1,8,0:0:0:0:
78,138,45582,1,0,0:0:0:0:
68,171,45665,1,2,0:0:0:0:
70,206,45749,1,0,0:0:0:0:
83,238,45832,1,8,0:0:0:0:
106,264,45915,1,0,0:0:0:0:
137,281,45999,1,2,0:0:0:0:
171,287,46082,1,2,0:0:0:0:
208,284,46165,1,8,0:0:0:0:
240,264,46249,1,2,0:0:0:0:
260,236,46332,6,0,P|288:168|416:160,1,200,6|2,0:1|0:0,0:0:0:0:
392,292,46832,2,0,P|456:296|500:252,1,100,10|0,0:1|0:0,0:0:0:0:
260,236,47165,2,0,P|196:232|152:276,1,100,10|2,0:3|0:0,0:0:0:0:
132,356,47499,1,10,0:1:0:0:
48,288,47665,1,0,0:0:0:0:
272,336,47832,6,0,P|328:308|332:172,1,200,10|8,0:3|0:0,0:0:0:0:
256,112,48332,1,0,0:0:0:0:
168,176,48499,2,0,P|112:184|72:152,1,100,10|2,0:3|0:0,0:0:0:0:
344,52,48832,2,0,P|400:44|440:76,1,100,10|0,0:1|0:0,0:0:0:0:
448,268,49165,6,0,P|420:316|284:272,1,200,10|8,0:3|0:0,0:0:0:0:
64,268,49665,2,0,P|92:316|228:272,1,200,10|2,0:3|0:0,0:0:0:0:
144,216,50165,1,10,0:1:0:0:
256,128,50332,1,0,0:0:0:0:
368,216,50499,2,0,P|392:128|324:44,1,200,10|8,0:3|0:0,0:0:0:0:
144,216,50999,2,0,P|120:128|188:44,1,200,10|2,0:3|0:0,0:0:0:0:
256,128,51499,1,8,0:0:0:0:
256,288,51665,5,2,0:0:0:0:
256,288,51749,1,2,0:0:0:0:
256,288,51832,2,0,L|368:288,1,100,6|0,0:1|0:0,0:0:0:0:
192,340,52165,2,0,P|132:344|60:224,1,200,8|10,0:1|0:3,0:0:0:0:
112,144,52665,1,2,0:0:0:0:
216,154,52832,2,0,P|208:196|168:236,1,100,10|0,0:1|0:0,0:0:0:0:
176,64,53165,2,0,P|256:44|324:132,1,200,10|8,0:3|0:0,0:0:0:0:
292,232,53665,1,2,0:0:0:0:
424,104,53832,6,0,L|384:304,2,200,10|8|10,0:3|0:0|0:3,0:0:0:0:
336,40,54665,1,0,0:0:0:0:
228,48,54832,2,0,P|152:48|108:72,1,100,8|0,0:0|0:0,0:0:0:0:
16,184,55165,6,0,P|36:248|172:264,1,200,10|8,0:3|0:0,0:0:0:0:
256,184,55665,1,0,0:0:0:0:
357,275,55832,2,0,P|476:248|496:184,1,200,10|8,0:3|0:0,0:0:0:0:
464,80,56332,1,0,0:0:0:0:
388,160,56499,2,0,P|356:112|356:64,1,100,10|2,0:3|0:0,0:0:0:0:
495,183,56832,1,8,0:0:0:0:
340,276,56999,5,2,0:0:0:0:
340,276,57082,1,2,0:0:0:0:
340,276,57165,2,0,P|304:320|304:368,1,100,6|0,0:1|0:0,0:0:0:0:
172,276,57499,2,0,P|208:320|208:368,1,100,10|0,0:1|0:0,0:0:0:0:
64,284,57832,2,0,P|72:224|204:176,1,200,10|8,0:3|0:0,0:0:0:0:
256,256,58332,1,0,0:0:0:0:
328,172,58499,6,0,L|436:172,1,100,10|0,0:3|0:0,0:0:0:0:
496,344,58832,2,0,L|388:344,1,100,8|0,0:0|0:0,0:0:0:0:
256,256,59165,2,0,P|212:296|204:340,1,100,10|2,0:3|0:0,0:0:0:0:
128,280,59499,2,0,P|109:336|124:378,1,100,10|0,0:1|0:0,0:0:0:0:
176,196,59832,6,0,P|144:144|12:144,1,200,10|8,0:3|0:0,0:0:0:0:
252,108,60332,2,0,P|284:56|416:56,1,200,10|2,0:3|0:0,0:0:0:0:
348,144,60832,2,0,P|344:200|372:240,1,100,10|0,0:1|0:0,0:0:0:0:
444,312,61165,6,0,P|380:348|276:288,1,200,10|8,0:3|0:0,0:0:0:0:
68,196,61665,2,0,P|132:160|236:220,1,200,10|2,0:3|0:0,0:0:0:0:
144,296,62165,1,8,0:0:0:0:
32,252,62332,5,2,0:0:0:0:
32,252,62415,1,2,0:0:0:0:
32,252,62499,2,0,L|16:148,1,100,6|0,0:1|0:0,0:0:0:0:
176,36,62832,2,0,L|176:136,1,100,8|0,0:1|0:0,0:0:0:0:
336,136,63165,2,0,L|336:32,1,100,10|2,0:3|0:0,0:0:0:0:
495,153,63499,2,0,L|480:252,1,100,8|0,0:1|0:0,0:0:0:0:
352,368,63832,2,0,P|300:328|336:212,1,200,10|8,0:3|0:0,0:0:0:0:
420,284,64332,1,0,0:0:0:0:
184,304,64499,6,0,L|80:312,1,100,10|2,0:3|0:0,0:0:0:0:
260,132,64832,2,0,L|364:124,1,100,10|0,0:1|0:0,0:0:0:0:
192,24,65165,2,0,P|132:64|156:196,1,200,6|10,0:1|0:1,0:0:0:0:
240,228,65665,1,0,0:0:0:0:
344,192,65832,6,0,L|444:152,1,100,10|2,0:3|0:0,0:0:0:0:
168,192,66165,2,0,L|68:152,1,100,10|2,0:1|0:0,0:0:0:0:
368,264,66499,2,0,L|468:224,1,100,10|2,0:3|0:0,0:0:0:0:
144,264,66832,2,0,L|44:224,1,100,10|2,0:1|0:0,0:0:0:0:
392,336,67165,2,0,L|492:296,1,100,10|2,0:3|0:0,0:0:0:0:
120,336,67499,2,0,L|20:296,1,100,10|2,0:1|0:0,0:0:0:0:
200,336,67832,5,10,0:3:0:0:
312,336,67999,1,2,0:0:0:0:
144,264,68165,1,10,0:1:0:0:
368,264,68332,1,2,0:0:0:0:
88,192,68499,1,10,0:3:0:0:
220,132,68665,1,2,0:0:0:0:
256,132,68749,1,8,0:0:0:0:
292,132,68832,1,10,0:1:0:0:
424,192,68999,1,2,0:0:0:0:
468,64,69165,5,4,1:0:0:0:
256,360,69499,1,4,1:0:0:0:
44,64,69832,1,4,1:0:0:0:
256,360,70165,1,4,1:0:0:0:
444,244,70499,6,0,P|424:192|376:168,2,100
396,344,70999,1,0,0:0:0:0:
332,256,71165,2,0,L|236:284,1,100
24,240,71499,2,0,L|120:212,1,100
224,176,71832,5,0,0:0:0:0:
480,332,72165,1,0,0:0:0:0:
488,32,72499,1,0,0:0:0:0:
224,176,72832,1,0,0:0:0:0:
444,180,73165,6,0,L|332:180,1,100
288,84,73499,2,0,P|240:60|192:68,1,100
160,268,73832,2,0,P|208:292|256:284,1,100
224,176,74165,1,0,0:0:0:0:
224,176,74332,1,0,0:0:0:0:
116,196,74499,5,0,0:0:0:0:
88,217,74582,1,0,0:0:0:0:
73,248,74665,1,0,0:0:0:0:
72,283,74749,1,0,0:0:0:0:
86,315,74832,1,0,0:0:0:0:
112,338,74915,1,0,0:0:0:0:
147,338,74999,1,0,0:0:0:0:
181,338,75082,1,0,0:0:0:0:
215,338,75165,1,0,0:0:0:0:
250,338,75249,1,0,0:0:0:0:
284,338,75332,1,0,0:0:0:0:
318,338,75415,1,0,0:0:0:0:
353,338,75499,1,0,0:0:0:0:
488,256,75665,6,0,P|472:180|368:112,1,200
460,40,76165,1,0,0:0:0:0:
460,40,76332,2,0,P|386:15|275:71,1,200
212,152,76832,2,0,P|138:176|27:120,1,200
132,72,77332,2,0,L|104:288,1,200
180,352,77832,2,0,L|196:240,1,100
360,192,78165,2,0,L|344:304,1,100
268,160,78499,6,0,P|308:112|444:136,1,200
512,256,78999,2,0,P|472:304|336:280,1,200
192,196,79499,2,0,P|124:236|112:360,1,200
212,308,79999,2,0,L|44:200,1,200
68,56,80499,5,0,0:0:0:0:
104,52,80582,1,0,0:0:0:0:
136,60,80665,1,0,0:0:0:0:
160,88,80749,1,0,0:0:0:0:
168,124,80832,1,0,0:0:0:0:
132,252,80999,2,0,P|224:248|280:140,1,200
256,56,81499,5,0,0:0:0:0:
392,192,82165,1,0,0:0:0:0:
256,328,82832,1,0,0:0:0:0:
164,244,83165,2,0,P|88:244|16:352,1,200
132,336,83665,6,0,L|208:124,1,200
272,64,84165,2,0,P|332:80|352:124,1,100
456,72,84499,6,0,P|480:136|432:260,1,200
348,320,84999,1,0,0:0:0:0:
264,248,85165,2,0,L|48:288,1,200
8,380,85665,1,0,0:0:0:0:
67,284,85832,2,0,P|88:180|48:100,1,200
140,36,86332,5,0,0:0:0:0:
140,36,86499,2,0,L|352:48,1,200
448,52,86999,1,0,0:0:0:0:
476,160,87165,2,0,P|484:232|464:288,1,100
400,336,87499,2,0,P|320:360|212:320,1,200
208,212,87999,1,0,0:0:0:0:
112,264,88165,6,0,P|88:304|104:372,1,100
120,160,88499,1,0,0:0:0:0:
32,92,88665,1,0,0:0:0:0:
120,160,88832,1,0,0:0:0:0:
208,92,88999,2,0,P|276:56|400:92,1,200
484,24,89499,2,0,L|468:252,1,200
256,344,90165,5,0,0:0:0:0:
256,344,90332,2,0,P|160:340|72:264,1,200
200,120,90832,2,0,P|260:128|296:172,1,100
240,260,91165,2,0,P|180:252|144:208,1,100
184,36,91499,2,0,P|240:32|300:48,1,100
380,92,91832,6,0,P|424:56|484:48,2,100
436,188,92328,1,0,0:0:0:0:
380,292,92494,2,0,L|456:360,2,100
288,228,92991,1,0,0:0:0:0:
204,300,93157,2,0,P|160:332|88:324,2,100
124,224,93654,1,0,0:0:0:0:
80,124,93820,2,0,P|116:80|168:56,1,100
256,120,94151,1,0,0:0:0:0:
358,59,94317,1,0,0:0:0:0:
444,184,94483,6,0,P|440:252|408:288,2,100
336,204,94977,1,0,0:0:0:0:
324,312,95142,2,0,P|336:339|393:376,2,100
220,344,95636,1,0,0:0:0:0:
140,272,95801,2,0,L|32:272,2,100
212,188,96296,1,0,0:0:0:0:
132,112,96461,2,0,P|68:104|20:140,1,100
236,88,96790,2,0,P|300:96|348:60,1,100
468,48,97120,6,0,P|496:96|492:144,2,100
392,124,97611,1,0,0:0:0:0:
428,228,97775,2,0,L|404:332,2,100
392,124,98267,1,0,0:0:0:0:
316,204,98431,2,0,P|264:224|208:208,2,100
260,108,98923,1,0,0:0:0:0:
148,108,99087,2,0,P|100:160|108:228,1,100
116,316,99415,1,0,0:0:0:0:
224,244,99579,1,0,0:0:0:0:
320,332,99742,6,0,P|380:324|432:208,1,200
388,108,100231,1,0,0:0:0:0:
388,108,100394,2,0,P|328:128|208:64,1,200
316,16,100883,2,0,L|276:228,1,200
244,348,101372,1,0,0:0:0:0:
108,324,101535,1,0,0:0:0:0:
40,204,101697,1,0,0:0:0:0:
38,169,101780,1,0,0:0:0:0:
44,134,101861,1,0,0:0:0:0:
59,103,101943,1,0,0:0:0:0:
82,76,102024,1,0,0:0:0:0:
110,56,102106,1,0,0:0:0:0:
143,43,102187,1,0,0:0:0:0:
177,39,102269,1,0,0:0:0:0:
212,43,102350,6,0,L|416:56,1,200
488,136,102836,1,0,0:0:0:0:
392,188,102998,2,0,P|344:256|368:376,1,200
440,308,103485,2,0,P|342:254|261:276,1,200
192,360,103971,1,0,0:0:0:0:
104,296,104133,1,0,0:0:0:0:
184,220,104295,2,0,P|192:144|164:104,1,100
92,60,104620,1,0,0:0:0:0:
100,168,104782,5,0,0:0:0:0:
92,60,104944,1,0,0:0:0:0:
196,100,105105,2,0,P|272:104|352:16,2,200
92,60,105911,1,0,0:0:0:0:
20,144,106073,1,0,0:0:0:0:
60,248,106234,6,0,P|88:300|144:328,1,100
256,216,106556,2,0,P|196:214|144:248,1,100
324,292,106879,2,0,P|355:241|351:179,1,100
232,316,107202,2,0,P|268:360|408:336,1,200
484,156,107844,5,0,0:0:0:0:
404,232,108005,1,0,0:0:0:0:
484,156,108165,2,0,P|472:64|380:8,1,200
288,76,108647,2,0,P|220:100|88:48,1,200
32,148,109129,2,0,P|80:180|124:192,1,100
232,192,109450,1,0,0:0:0:0:
340,168,109610,2,0,P|388:188|468:308,1,200
364,344,110091,6,0,P|312:332|272:296,1,100
196,376,110410,2,0,P|163:333|156:280,1,100
46,292,110729,2,0,P|48:238|77:193,1,100
176,168,111048,1,0,0:0:0:0:
195,138,111128,1,0,0:0:0:0:
215,109,111208,1,0,0:0:0:0:
234,81,111287,1,0,0:0:0:0:
253,52,111367,5,0,0:0:0:0:
416,44,111527,1,0,0:0:0:0:
340,188,111686,1,0,0:0:0:0:
340,188,112005,5,0,0:0:0:0:
318,214,112084,1,0,0:0:0:0:
287,231,112164,1,0,0:0:0:0:
252,235,112244,1,0,0:0:0:0:
219,225,112324,1,0,0:0:0:0:
192,204,112403,1,0,0:0:0:0:
175,173,112483,1,0,0:0:0:0:
171,139,112563,1,0,0:0:0:0:
180,105,112643,1,0,0:0:0:0:
268,40,112802,5,0,0:0:0:0:
260,144,112962,2,0,P|188:236|96:224,1,200
32,160,113441,1,0,0:0:0:0:
12,268,113600,1,0,0:0:0:0:
92,344,113760,2,0,P|192:356|288:304,1,200
332,220,114238,2,0,P|420:184|524:204,1,200
332,220,114717,6,0,L|312:108,2,100
356,352,115196,1,0,0:0:0:0:
372,220,115355,1,0,0:0:0:0:
320,352,115515,1,0,0:0:0:0:
408,220,115675,1,0,0:0:0:0:
284,352,115834,2,0,P|200:360|128:272,1,200
40,72,116313,6,0,P|132:56|200:144,1,200
308,128,116792,2,0,P|373:55|465:71,1,200
496,240,117270,6,0,P|502:293|488:352,2,100
376,280,117749,1,0,0:0:0:0:
256,240,117909,1,0,0:0:0:0:
136,280,118068,1,0,0:0:0:0:
16,240,118228,1,0,0:0:0:0:
108,164,118387,6,0,P|196:176|256:288,1,200
48,248,118866,2,0,P|14:165|81:57,1,200
164,36,119345,1,0,0:0:0:0:
240,116,119504,1,0,0:0:0:0:
452,52,119824,5,0,0:0:0:0:
368,124,119983,2,0,P|340:176|340:240,1,100
144,124,120302,2,0,P|172:176|172:240,1,100
68,312,120621,2,0,P|108:344|172:348,1,100
356,351,120941,2,0,P|436:320|456:196,1,200
432,112,121419,1,0,0:0:0:0:
348,232,121579,6,0,P|284:204|260:168,1,100
256,44,121898,2,0,L|152:44,1,100
32,192,122217,2,0,L|136:192,1,100
256,340,122536,1,0,0:0:0:0:
224,332,122616,1,0,0:0:0:0:
192,324,122696,1,0,0:0:0:0:
160,316,122776,1,0,0:0:0:0:
128,308,122855,6,0,P|84:260|80:192,1,100
104,120,123175,1,0,0:0:0:0:
188,192,123334,1,0,0:0:0:0:
212,84,123494,2,0,P|152:16|44:24,1,200
188,192,123972,2,0,P|248:260|356:252,1,200
292,164,124451,2,0,L|216:356,1,200
400,344,124930,6,0,P|444:296|448:252,2,100
288,348,125409,2,0,L|80:352,1,200
24,264,125887,1,0,0:0:0:0:
108,196,126047,2,0,P|152:140|120:8,1,200
56,100,126526,2,0,P|122:125|239:56,1,200,0|0,0:0|0:0,0:0:0:0:
416,160,127004,2,0,P|349:134|232:203,1,200,0|0,0:0|0:0,0:0:0:0:
428,256,127483,6,0,L|400:40,1,200
336,236,127962,2,0,L|348:340,1,100
176,236,128281,2,0,L|164:340,1,100
84,256,128600,2,0,L|112:40,1,200
256,4,129079,2,0,L|256:212,1,200
256,316,129558,1,0,0:0:0:0:
436,192,129877,5,0,0:0:0:0:
468,56,130036,1,0,0:0:0:0:
436,192,130196,1,0,0:0:0:0:
468,56,130355,1,0,0:0:0:0:
356,60,130515,6,0,L|292:144,1,100
156,324,130834,2,0,L|220:240,1,100
124,92,131153,2,0,L|208:156,1,100
388,292,131472,2,0,L|304:228,1,100
256,192,131712,12,0,133068,0:0:0:0:
76,320,136898,5,0,0:0:0:0:
256,56,137217,1,0,0:0:0:0:
332,136,137377,1,0,0:0:0:0:
360,116,137457,1,0,0:0:0:0:
372,84,137536,1,0,0:0:0:0:
256,56,137696,1,0,0:0:0:0:
224,160,137855,2,0,P|260:216|312:228,1,100
472,128,138160,5,0,0:0:0:0:
416,220,138319,1,0,0:0:0:0:
476,312,138479,1,0,0:0:0:0:
352,132,138638,2,0,P|268:128|212:244,1,200
284,300,139117,1,0,0:0:0:0:
128,300,139277,2,0,P|76:240|96:112,1,200
12,44,139755,1,0,0:0:0:0:
168,44,139915,2,0,L|372:44,1,200
460,108,140394,1,0,0:0:0:0:
388,192,140553,1,0,0:0:0:0:
460,276,140713,6,0,P|360:296|288:232,1,200
52,276,141191,2,0,P|152:296|224:232,1,200
332,64,141670,1,0,0:0:0:0:
180,64,141830,2,0,L|84:112,1,100
332,64,142149,2,0,L|428:112,1,100
432,220,142468,1,0,0:0:0:0:
364,308,142628,1,0,0:0:0:0:
256,332,142787,1,0,0:0:0:0:
148,308,142947,2,0,P|104:268|92:224,1,100
16,48,143266,5,0,0:0:0:0:
88,132,143425,1,0,0:0:0:0:
160,48,143585,1,0,0:0:0:0:
232,132,143745,2,0,P|288:128|344:0,1,200
240,28,144223,1,0,0:0:0:0:
232,132,144383,2,0,L|216:336,1,200
112,360,144862,1,0,0:0:0:0:
136,252,145021,2,0,P|212:212|312:280,1,200
388,336,145500,2,0,P|436:300|448:244,1,100
448,152,145819,6,0,L|288:20,1,200
64,152,146298,2,0,L|224:20,1,200
256,128,146777,1,0,0:0:0:0:
164,264,146936,6,0,P|108:288|60:276,1,100
348,264,147255,2,0,P|404:288|452:276,1,100
384,128,147574,1,0,0:0:0:0:
320,332,147734,1,0,0:0:0:0:
292,352,147814,1,0,0:0:0:0:
256,356,147894,1,0,0:0:0:0:
220,352,147973,1,0,0:0:0:0:
192,332,148053,1,0,0:0:0:0:
128,128,148213,1,0,0:0:0:0:
208,52,148372,6,0,P|256:40|304:52,1,100
384,128,148691,2,0,P|396:175|384:224,1,100,0|0,0:0|0:0,0:0:0:0:
308,304,149011,2,0,P|260:316|212:304,1,100,0|0,0:0|0:0,0:0:0:0:
132,228,149330,2,0,P|120:180|132:132,2,100
108,336,149808,1,0,0:0:0:0:
228,212,149968,2,0,P|296:200|392:304,1,200
328,376,150447,1,0,0:0:0:0:
436,364,150606,2,0,P|476:312|480:272,1,100
476,60,150925,6,0,L|424:148,1,100
332,88,151245,2,0,L|330:190,1,100,0|0,0:0|0:0,0:0:0:0:
221,184,151564,2,0,L|271:273,1,100,0|0,0:0|0:0,0:0:0:0:
171,322,151883,2,0,L|259:374,2,100
68,364,152362,1,0,0:0:0:0:
140,216,152521,2,0,P|136:144|32:76,1,200
36,188,153000,1,0,0:0:0:0:
200,92,153160,2,0,L|296:44,1,100
456,104,153479,6,0,P|468:156|452:216,1,100
324,336,153798,2,0,P|312:284|328:224,1,100,0|0,0:0|0:0,0:0:0:0:
188,104,154117,2,0,P|200:156|184:216,1,100
56,336,154436,2,0,P|44:284|60:224,2,100
152,280,154915,1,0,0:0:0:0:
92,132,155074,2,0,P|104:60|216:12,1,200
256,112,155553,1,0,0:0:0:0:
300,12,155713,2,0,P|352:16|412:72,1,100
448,136,156032,6,0,L|448:248,1,100
340,212,156351,2,0,L|340:324,1,100
172,212,156670,2,0,L|172:324,1,100
64,136,156989,2,0,L|64:248,1,100
172,128,157308,2,0,P|256:80|340:128,1,200
340,272,157787,1,0,0:0:0:0:
256,200,157947,1,0,0:0:0:0:
256,340,158106,1,0,0:0:0:0:
172,272,158266,2,0,L|64:272,1,100
72,272,158505,1,0,0:0:0:0:
72,272,158585,6,0,P|52:220|64:168,1,100
216,156,158904,2,0,P|180:199|129:214,1,100,0|0,0:0|0:0,0:0:0:0:
43,89,159223,2,0,P|98:97|137:134,1,100,0|0,0:0|0:0,0:0:0:0:
256,268,159542,1,0,0:0:0:0:
344,192,159702,2,0,P|475:181|511:225,1,200,0|0,0:0|0:0,0:0:0:0:
352,292,160181,2,0,L|336:88,1,200
236,48,160660,1,0,0:0:0:0:
76,32,160819,1,0,0:0:0:0:
236,24,160979,1,0,0:0:0:0:
76,56,161138,6,0,P|88:132|192:180,1,200
301,180,161617,1,0,0:0:0:0:
301,69,161777,2,0,P|405:117|417:193,1,200,0|0,0:0|0:0,0:0:0:0:
352,280,162255,2,0,B|296:316|256:280|216:244|160:280,1,200
80,352,162734,2,0,P|52:284|112:180,1,200
256,116,163213,1,0,0:0:0:0:
110,180,163372,1,0,0:0:0:0:
128,20,163532,1,0,0:0:0:0:
256,116,163691,6,0,P|336:132|420:48,2,200
312,20,164489,1,0,0:0:0:0:
417,57,164649,1,0,0:0:0:0:
484,144,164808,2,0,L|484:268,1,100
452,348,165128,1,0,0:0:0:0:
372,276,165287,2,0,P|304:272|228:368,2,200
336,380,166085,1,0,0:0:0:0:
136,304,166245,6,0,L|40:260,1,100
176,168,166564,2,0,L|144:64,1,100
336,168,166883,2,0,L|365:72,1,100
376,304,167202,2,0,L|466:262,1,100
256,236,167521,6,0,B|236:268|276:300|256:332,2,100
404,72,168160,1,0,0:0:0:0:
312,132,168319,1,0,0:0:0:0:
312,132,168399,1,0,0:0:0:0:
312,132,168479,1,0,0:0:0:0:
202,132,168638,1,0,0:0:0:0:
108,72,168798,6,0,P|52:144|64:256,1,200
108,348,169277,1,0,0:0:0:0:
144,180,169436,2,0,P|178:264|281:310,1,200
383,317,169915,1,0,0:0:0:0:
255,202,170074,2,0,P|345:214|436:148,1,200
493,64,170553,1,0,0:0:0:0:
384,60,170713,2,0,P|348:104|288:124,1,100
128,60,171032,2,0,P|164:104|224:124,1,100
256,24,171351,6,0,L|256:232,1,200
256,336,171830,1,0,0:0:0:0:
336,260,171989,2,0,P|392:200|396:80,1,200
113,86,172628,6,0,P|120:200|176:260,1,200
276,220,173106,1,0,0:0:0:0:
380,260,173266,2,0,P|428:308|432:352,1,100
324,348,173585,1,0,0:0:0:0:
496,232,173745,1,0,0:0:0:0:
372,68,173904,6,0,L|164:96,1,200
64,108,174383,1,0,0:0:0:0:
360,152,174542,2,0,L|152:180,1,200
52,192,175021,1,0,0:0:0:0:
348,236,175181,2,0,L|140:264,1,200
40,276,175660,1,0,0:0:0:0:
96,364,175819,2,0,L|212:352,1,100
416,364,176138,2,0,L|300:352,1,100
172,264,176457,6,0,P|256:216|340:264,1,200,0|0,0:0|0:0,0:0:0:0:
256,336,176936,1,0,0:0:0:0:
256,108,177096,2,0,L|256:8,1,100
164,128,177415,2,0,L|88:48,1,100
348,128,177734,2,0,L|424:48,2,100
48,276,178372,1,0,0:0:0:0:
132,348,178532,1,0,0:0:0:0:
184,252,178691,2,0,P|264:244|304:284,1,100
384,348,179011,6,0,P|440:288|420:144,1,200
380,84,179489,1,0,0:0:0:0:
340,236,179649,2,0,P|256:284|172:236,1,200,0|0,0:0|0:0,0:0:0:0:
256,164,180128,1,0,0:0:0:0:
71,175,180287,2,0,P|72:288|128:348,1,200
256,360,180766,1,0,0:0:0:0:
340,236,180925,2,0,P|364:156|344:116,1,100
172,100,181245,2,0,P|148:180|168:220,1,100
292,80,181564,6,0,P|356:48|452:132,1,200
368,192,182042,1,0,0:0:0:0:
449,266,182202,2,0,P|356:336|292:304,1,200
72,352,182840,6,0,P|48:288|124:192,1,200
232,192,183319,2,0,P|306:96|282:32,1,200,0|0,0:0|0:0,0:0:0:0:
172,80,183798,1,0,0:0:0:0:
64,192,183957,1,0,0:0:0:0:
172,304,184117,6,0,P|224:308|272:288,1,100
144,108,184436,2,0,P|140:160|160:208,1,100
340,80,184755,2,0,P|288:76|240:96,1,100
368,276,185074,2,0,P|372:224|352:176,1,100
144,108,185394,6,0,L|104:212,1,100
368,276,185713,2,0,L|408:172,1,100
172,304,186032,2,0,L|276:344,1,100
340,80,186351,2,0,L|236:39,1,100
88,156,186670,6,0,P|60:240|148:328,1,200
388,321,187149,2,0,P|452:240|424:156,1,200
340,80,187628,1,0,0:0:0:0:
256,156,187787,1,0,0:0:0:0:
172,80,187947,6,0,L|56:80,1,100
256,156,188266,2,0,L|372:156,1,100
256,292,188585,1,0,0:0:0:0:
221,288,188664,1,0,0:0:0:0:
188,276,188744,1,0,0:0:0:0:
160,255,188824,1,0,0:0:0:0:
137,229,188904,1,0,0:0:0:0:
122,197,188983,1,0,0:0:0:0:
115,163,189063,1,0,0:0:0:0:
256,32,189223,6,0,P|316:36|384:160,1,200
480,56,189702,2,0,L|456:288,1,200
380,356,190181,1,0,0:0:0:0:
256,316,190340,1,0,0:0:0:0:
132,356,190500,6,0,P|76:296|92:176,1,200
224,236,190979,2,0,P|280:176|264:56,1,200
136,8,191457,1,0,0:0:0:0:
120,40,191537,1,0,0:0:0:0:
120,76,191617,1,0,0:0:0:0:
136,108,191697,1,0,0:0:0:0:
176,136,191777,5,0,0:0:0:0:
283,72,191936,1,0,0:0:0:0:
176,136,192096,1,0,0:0:0:0:
296,172,192255,1,0,0:0:0:0:
176,136,192415,1,0,0:0:0:0:
220,252,192574,1,0,0:0:0:0:
176,136,192734,1,0,0:0:0:0:
108,240,192894,1,0,0:0:0:0:
176,136,193053,5,0,0:0:0:0:
52,140,193213,2,0,P|92:52|196:20,1,200
272,72,193691,1,0,0:0:0:0:
368,20,193851,1,0,0:0:0:0:
468,68,194011,2,0,P|496:112|496:180,1,100
416,328,194330,6,0,P|392:272|400:216,1,100
96,328,194649,2,0,P|120:272|112:216,1,100
312,240,194968,2,0,P|324:188|376:144,1,100
200,240,195287,2,0,P|188:188|136:144,1,100
157,154,195527,1,0,0:0:0:0:
157,154,195606,6,0,L|232:64,1,100
108,216,195925,2,0,L|33:306,1,100
24,172,196245,2,0,L|156:16,1,200
256,60,196723,1,0,0:0:0:0:
360,20,196883,6,0,P|414:79|375:201,1,200
168,290,197362,1,0,0:0:0:0:
168,290,197522,2,0,P|192:213|317:185,1,200
498,319,198000,1,0,0:0:0:0:
498,319,198159,2,0,P|419:336|332:241,1,200
420,192,198638,1,0,0:0:0:0:
468,92,198798,5,0,0:0:0:0:
444,68,198878,1,0,0:0:0:0:
412,56,198957,1,0,0:0:0:0:
376,52,199037,1,0,0:0:0:0:
340,56,199117,1,0,0:0:0:0:
308,72,199197,1,0,0:0:0:0:
280,96,199277,1,0,0:0:0:0:
264,128,199356,1,0,0:0:0:0:
260,164,199436,6,0,P|208:220|92:188,1,200
4,80,199915,2,0,P|114:54|166:110,1,200
0,232,200394,2,0,P|36:288|80:308,1,100
212,332,200713,1,0,0:0:0:0:
360,320,200872,1,0,0:0:0:0:
464,212,201032,1,0,0:0:0:0:
468,64,201191,6,0,P|388:80|324:176,1,200
256,288,201670,1,0,0:0:0:0:
220,288,201750,1,0,0:0:0:0:
188,276,201830,1,0,0:0:0:0:
164,252,201910,1,0,0:0:0:0:
164,236,201989,5,0,0:0:0:0:
225,126,202149,1,0,0:0:0:0:
164,236,202308,1,0,0:0:0:0:
100,126,202468,1,0,0:0:0:0:
164,236,202628,1,0,0:0:0:0:
225,126,202788,1,0,0:0:0:0:
164,236,202947,1,0,0:0:0:0:
100,126,203107,1,0,0:0:0:0:
164,236,203266,5,0,0:0:0:0:
225,126,203425,2,0,P|312:92|404:160,2,200
304,204,204223,1,0,0:0:0:0:
288,236,204303,1,0,0:0:0:0:
272,268,204383,1,0,0:0:0:0:
256,300,204463,1,0,0:0:0:0:
240,332,204542,6,0,L|160:264,1,100
96,92,204862,2,0,L|192:128,1,100
416,92,205181,2,0,L|320:128,1,100
348,267,205500,2,0,L|272:332,1,100,0|0,0:0|0:0,0:0:0:0:
112,344,205819,6,0,P|64:288|104:172,1,200
208,176,206298,1,0,0:0:0:0:
256,276,206457,2,0,P|312:220|288:100,1,200
192,72,206936,1,0,0:0:0:0:
156,216,207096,6,0,L|120:328,1,100
280,292,207415,2,0,L|392:328,1,100
356,168,207734,2,0,L|392:55,1,100
232,92,208053,2,0,L|120:56,1,100
40,196,208372,6,0,P|80:232|136:232,1,100
304,128,208691,2,0,P|256:116|208:128,1,100
387,235,209011,2,0,P|432:232|472:196,1,100
256,240,209330,2,0,L|256:356,1,100
388,236,209649,6,0,P|440:156|408:48,1,200
324,120,210128,1,0,0:0:0:0:
256,36,210287,1,0,0:0:0:0:
188,120,210447,1,0,0:0:0:0:
188,120,210527,1,0,0:0:0:0:
188,120,210606,1,0,0:0:0:0:
94,59,210766,1,0,0:0:0:0:
94,59,210846,1,0,0:0:0:0:
94,59,210925,1,0,0:0:0:0:
32,192,211564,5,0,0:0:0:0:
32,192,211723,1,0,0:0:0:0:
32,192,211883,2,0,L|56:300,1,100
152,244,212202,5,0,0:0:0:0:
256,236,212362,1,0,0:0:0:0:
352,284,212521,1,0,0:0:0:0:
408,376,212681,2,0,P|452:316|416:200,1,200
304,100,213160,1,0,0:0:0:0:
304,100,213319,2,0,P|260:160|296:276,1,200
404,112,213798,1,0,0:0:0:0:
404,112,213957,2,0,L|204:80,1,200
60,16,214436,2,0,P|24:56|24:108,1,100
72,280,214755,6,0,P|140:268|164:148,1,200
344,153,215234,2,0,P|372:268|440:280,1,200
440,168,215713,1,0,0:0:0:0:
256,136,215872,1,0,0:0:0:0:
256,144,216191,1,0,0:0:0:0:
256,156,216511,1,0,0:0:0:0:
256,264,216670,2,0,P|208:300|164:300,1,100
28,216,216989,2,0,P|76:180|120:180,1,100
256,264,217308,5,0,0:0:0:0:
364,236,217468,1,0,0:0:0:0:
364,124,217628,1,0,0:0:0:0:
284,48,217787,2,0,P|204:40|128:128,1,200
236,152,218266,1,0,0:0:0:0:
364,124,218425,2,0,P|448:164|472:264,1,200
364,236,218904,1,0,0:0:0:0:
255,210,219064,2,0,P|280:308|364:348,1,200
364,236,219542,2,0,L|288:140,1,100
176,28,219862,6,0,P|80:80|80:160,1,200
336,28,220340,2,0,P|432:80|432:160,1,200
324,132,220819,1,0,0:0:0:0:
256,268,220979,1,0,0:0:0:0:
248,268,221298,1,0,0:0:0:0:
240,268,221617,1,0,0:0:0:0:
132,208,221777,1,0,0:0:0:0:
180,96,221936,5,0,0:0:0:0:
196,64,222016,1,0,0:0:0:0:
224,44,222096,1,0,0:0:0:0:
256,36,222175,1,0,0:0:0:0:
288,44,222255,1,0,0:0:0:0:
316,64,222335,1,0,0:0:0:0:
332,96,222415,1,0,0:0:0:0:
256,192,223691,5,0,0:0:0:0:
256,192,224010,1,0,0:0:0:0:
256,192,224329,1,0,0:0:0:0:
148,192,224489,2,0,B|116:172|84:212|51:192,1,100
256,192,224968,6,0,P|320:148|320:104,1,100
252,48,225287,1,0,0:0:0:0:
148,16,225446,1,0,0:0:0:0:
52,68,225606,2,0,P|40:132|56:168,1,100
92,264,225925,1,0,0:0:0:0:
192,308,226085,1,0,0:0:0:0:
292,256,226244,6,0,L|392:296,1,100
476,232,226563,1,0,0:0:0:0:
480,124,226723,1,0,0:0:0:0:
404,44,226882,2,0,P|360:68|328:120,1,100
256,188,227202,1,0,0:0:0:0:
179,108,227361,1,0,0:0:0:0:
179,108,227441,1,0,0:0:0:0:
179,108,227521,6,0,P|152:68|108:44,1,100
40,132,227840,1,0,0:0:0:0:
132,192,227999,1,0,0:0:0:0:
40,252,228159,1,0,0:0:0:0:
132,312,228319,1,0,0:0:0:0:
224,252,228478,1,0,0:0:0:0:
316,312,228638,1,0,0:0:0:0:
316,312,228718,1,0,0:0:0:0:
316,312,228797,6,0,P|384:316|424:280,1,100
460,204,229116,1,0,0:0:0:0:
460,94,229276,1,0,0:0:0:0:
364,152,229436,1,0,0:0:0:0:
364,42,229595,1,0,0:0:0:0:
268,204,229755,1,0,0:0:0:0:
268,94,229914,1,0,0:0:0:0:
172,152,230074,6,0,P|88:172|64:284,1,200
140,348,230553,1,0,0:0:0:0:
249,348,230712,2,0,L|461:348,1,200
484,244,231191,2,0,L|376:244,1,100
348,244,231430,1,0,0:0:0:0:
312,244,231510,1,0,0:0:0:0:
276,244,231590,1,0,0:0:0:0:
240,244,231670,6,0,P|184:232|156:200,1,100
152,92,231989,1,0,0:0:0:0:
252,140,232148,1,0,0:0:0:0:
286,140,232228,1,0,0:0:0:0:
321,140,232309,1,0,0:0:0:0:
356,140,232388,1,0,0:0:0:0:
391,140,232468,1,0,0:0:0:0:
426,140,232547,1,0,0:0:0:0:
460,140,232627,2,0,P|508:224|464:312,1,200
208,228,233106,6,0,L|416:228,1,200
280,308,233585,2,0,L|152:308,1,100
45,310,233904,2,0,P|4:224|52:140,1,200
200,20,234382,6,0,P|260:56|260:180,1,200
168,124,234861,1,0,0:0:0:0:
356,40,235021,1,0,0:0:0:0:
388,168,235180,2,0,P|364:232|232:276,1,200
200,20,235659,6,0,P|260:56|260:180,1,200
168,124,236138,1,0,0:0:0:0:
356,40,236297,1,0,0:0:0:0:
388,168,236457,2,0,P|364:232|232:276,1,200
48,192,236936,6,0,P|24:284|120:356,1,200
176,280,237414,1,0,0:0:0:0:
256,356,237574,1,0,0:0:0:0:
336,280,237733,2,0,P|440:276|496:364,1,200
336,280,238212,2,0,P|280:191|328:99,1,200
396,188,238691,1,0,0:0:0:0:
440,88,238851,1,0,0:0:0:0:
356,16,239010,6,0,L|252:16,1,100
88,104,239329,2,0,L|192:104,1,100,0|0,0:0|0:0,0:0:0:0:
356,192,239649,2,0,L|252:192,1,100,0|0,0:0|0:0,0:0:0:0:
88,280,239968,2,0,L|192:280,1,100
356,368,240288,2,0,L|252:368,1,100,0|0,0:0|0:0,0:0:0:0:
88,280,240606,1,0,0:0:0:0:
256,192,240766,1,0,0:0:0:0:
88,104,240925,1,0,0:0:0:0:
256,16,241085,2,0,L|140:200,1,200
88,280,241563,1,0,0:0:0:0:
260,256,241723,5,0,0:0:0:0:
296,252,241803,1,0,0:0:0:0:
332,248,241883,1,0,0:0:0:0:
456,316,242042,2,0,P|488:268|488:220,1,100
452,80,242361,1,0,0:0:0:0:
416,84,242441,1,0,0:0:0:0:
380,88,242521,1,0,0:0:0:0:
344,92,242601,1,0,0:0:0:0:
308,96,242680,1,0,0:0:0:0:
272,100,242760,1,0,0:0:0:0:
236,104,242840,2,0,P|156:124|104:224,1,200
260,256,243319,6,0,L|468:236,1,200
308,176,243797,2,0,L|180:188,1,100
156,300,244116,2,0,P|208:360|324:344,1,200
471,223,244595,6,0,P|419:163|308:176,1,200
224,248,245073,1,0,0:0:0:0:
136,180,245233,1,0,0:0:0:0:
52,107,245392,2,0,P|156:68|224:112,1,200
136,180,245871,1,0,0:0:0:0:
52,244,246031,2,0,P|120:288|236:228,1,200
256,144,246510,1,0,0:0:0:0:
372,92,246670,6,0,P|412:60|468:56,1,100
504,192,246989,2,0,L|400:192,1,100
372,292,247308,2,0,P|412:324|468:328,1,100
308,212,247627,6,0,P|232:264|248:368,2,200
408,164,248425,2,0,P|356:104|216:128,1,200
136,80,248904,1,0,0:0:0:0:
72,168,249063,1,0,0:0:0:0:
48,276,249223,6,0,P|100:316|152:316,1,100
240,348,249542,2,0,P|300:324|328:296,1,100
452,280,249861,2,0,P|460:192|452:168,1,100
424,36,250180,2,0,P|364:4|332:4,1,100
44,192,250499,6,0,L|144:192,1,100
256,192,250819,1,0,0:0:0:0:
468,192,250978,2,0,L|368:192,1,100
256,192,251297,1,0,0:0:0:0:
256,368,251457,2,0,L|256:268,1,100
256,16,251776,2,0,L|256:116,1,100
256,368,252095,5,0,0:0:0:0:
40,192,252414,1,0,0:0:0:0:
80,88,252574,1,0,0:0:0:0:
108,68,252654,1,0,0:0:0:0:
144,60,252734,1,0,0:0:0:0:
180,64,252813,1,0,0:0:0:0:
208,84,252893,1,0,0:0:0:0:
224,116,252973,1,0,0:0:0:0:
232,148,253053,6,0,L|400:24,1,200
236,268,253531,2,0,L|404:144,1,200
464,60,254010,1,0,0:0:0:0:
512,168,254170,1,0,0:0:0:0:
480,304,254329,6,0,P|396:348|304:308,1,200
208,240,254808,2,0,P|124:196|32:236,1,200
60,340,255287,1,0,0:0:0:0:
168,340,255446,1,0,0:0:0:0:
296,224,255606,6,0,P|308:152|216:48,1,200
228,164,256084,2,0,P|296:138|340:6,1,200
236,12,256563,1,0,0:0:0:0:
128,32,256723,1,0,0:0:0:0:
84,132,256882,2,0,L|40:240,1,100
108,352,257201,2,0,L|145:259,1,100
256,192,257521,6,0,P|320:224|328:276,1,100
388,340,257840,1,0,0:0:0:0:
416,320,257920,1,0,0:0:0:0:
436,292,257999,1,0,0:0:0:0:
448,260,258079,1,0,0:0:0:0:
448,224,258159,6,0,P|432:168|440:120,1,100
496,32,258478,1,0,0:0:0:0:
392,64,258638,1,0,0:0:0:0:
284,76,258797,2,0,P|224:76|172:56,1,100
80,28,259116,1,0,0:0:0:0:
24,124,259276,1,0,0:0:0:0:
80,216,259435,2,0,P|88:272|64:316,1,100
124,128,259755,2,0,P|177:149|201:184,1,100
256,348,260074,6,0,P|312:336|344:200,1,200
256,156,260553,1,0,0:0:0:0:
256,156,260632,1,0,0:0:0:0:
256,156,260712,2,0,L|256:32,1,100
136,132,261031,2,0,L|136:240,1,100
376,132,261350,2,0,L|376:240,1,100
256,356,261670,2,0,L|256:256,1,100
136,132,261989,5,0,0:0:0:0:
256,24,262149,1,0,0:0:0:0:
376,132,262308,2,0,P|392:188|380:240,1,100
312,352,262627,1,0,0:0:0:0:
168,348,262787,1,0,0:0:0:0:
168,348,262866,1,0,0:0:0:0:
168,348,262946,1,0,0:0:0:0:
68,248,263106,1,0,0:0:0:0:
128,120,263265,6,0,P|200:56|304:88,1,200
344,288,263744,2,0,P|252:257|228:151,1,200,0|0,0:0|0:0,0:0:0:0:
332,180,264223,1,0,0:0:0:0:
380,80,264382,1,0,0:0:0:0:
216,56,264542,6,0,L|0:104,1,200
288,124,265021,2,0,L|72:172,1,200,0|0,0:0|0:0,0:0:0:0:
28,256,265499,1,0,0:0:0:0:
104,336,265659,1,0,0:0:0:0:
311,362,265818,6,0,L|435:358,1,100
412,239,266138,2,0,L|470:129,1,100
356,92,266457,2,0,L|290:-13,1,100
199,66,266776,2,0,L|75:70,1,100
99,188,267095,2,0,P|66:248|148:360,1,200
196,268,267574,1,0,0:0:0:0:
268,352,267733,6,0,P|300:312|304:264,1,100
244,32,268053,2,0,P|212:72|208:120,1,100
456,192,268372,2,0,B|400:156|360:192|320:228|264:192,1,200
316,96,268850,1,0,0:0:0:0:
412,288,269010,1,0,0:0:0:0:
296,352,269170,1,0,0:0:0:0:
264,364,269249,1,0,0:0:0:0:
228,368,269329,1,0,0:0:0:0:
192,364,269409,1,0,0:0:0:0:
160,352,269489,1,0,0:0:0:0:
132,332,269568,1,0,0:0:0:0:
112,304,269648,6,0,P|112:224|203:159,1,200
231,11,270127,2,0,P|300:51|301:176,1,200
424,260,270606,2,0,P|355:300|246:239,1,200
256,64,278584,5,0,0:0:0:0:
200,160,278744,1,0,0:0:0:0:
200,160,278824,1,0,0:0:0:0:
200,160,278904,1,0,0:0:0:0:
309,160,279063,1,0,0:0:0:0:
256,256,279223,1,0,0:0:0:0:
224,270,279302,1,0,0:0:0:0:
189,273,279382,1,0,0:0:0:0:
156,263,279462,1,0,0:0:0:0:
128,242,279542,1,0,0:0:0:0:
124,56,279701,5,0,0:0:0:0:
156,72,279781,1,0,0:0:0:0:
188,88,279861,1,0,0:0:0:0:
324,88,280020,1,0,0:0:0:0:
356,72,280100,1,0,0:0:0:0:
388,56,280180,1,0,0:0:0:0:
348,192,280340,1,0,0:0:0:0:
324,220,280419,1,0,0:0:0:0:
292,232,280499,1,0,0:0:0:0:
256,240,280579,1,0,0:0:0:0:
220,232,280659,1,0,0:0:0:0:
188,220,280739,1,0,0:0:0:0:
164,192,280818,2,0,L|112:232,4,50
436,132,281616,5,0,0:0:0:0:
436,132,281696,1,0,0:0:0:0:
436,132,281776,2,0,P|472:176|472:232,1,100
440,320,282095,1,0,0:0:0:0:
340,272,282255,1,0,0:0:0:0:
308,280,282334,1,0,0:0:0:0:
276,288,282414,1,0,0:0:0:0:
28,160,282893,5,0,0:0:0:0:
28,160,282973,1,0,0:0:0:0:
28,160,283053,2,0,L|28:260,1,100
112,332,283372,1,0,0:0:0:0:
176,244,283531,1,0,0:0:0:0:
184,212,283611,1,0,0:0:0:0:
176,176,283691,1,0,0:0:0:0:
256,32,284170,5,0,0:0:0:0:
256,32,284329,2,0,P|316:40|344:80,1,100
472,24,284648,2,0,P|495:79|474:124,1,100
376,188,284967,1,0,0:0:0:0:
308,312,285127,1,0,0:0:0:0:
268,148,285287,1,0,0:0:0:0:
192,332,285446,1,0,0:0:0:0:
148,112,285606,1,0,0:0:0:0:
44,244,285765,6,0,P|68:296|116:316,1,100,0|0,0:0|0:0,0:0:0:0:
192,332,286256,6,0,P|248:304|292:312,1,100
384,352,286575,2,0,P|428:312|424:256,1,100
332,224,286894,1,0,0:0:0:0:
408,144,287053,1,0,0:0:0:0:
304,108,287213,1,0,0:0:0:0:
380,28,287373,1,0,0:0:0:0:
220,32,287532,6,0,L|120:32,1,100
28,96,287851,2,0,P|40:152|80:188,1,100
180,192,288170,1,0,0:0:0:0:
68,181,288330,1,0,0:0:0:0:
116,280,288490,1,0,0:0:0:0:
68,181,288649,1,0,0:0:0:0:
184,84,288809,6,0,P|244:108|264:140,1,100
262,248,289128,2,0,P|244:276|184:300,1,100,0|0,0:0|0:0,0:0:0:0:
180,192,289447,1,0,0:0:0:0:
332,192,289607,1,0,0:0:0:0:
152,156,289766,1,0,0:0:0:0:
360,228,289926,1,0,0:0:0:0:
200,148,290085,6,0,L|200:44,1,100
312,236,290404,2,0,L|312:340,1,100
432,148,290724,1,0,0:0:0:0:
312,48,290883,1,0,0:0:0:0:
432,148,291043,1,0,0:0:0:0:
452,176,291123,1,0,0:0:0:0:
460,208,291202,1,0,0:0:0:0:
456,244,291282,1,0,0:0:0:0:
440,276,291362,6,0,L|376:356,1,100
304,272,291681,2,0,L|240:352,1,100
132,348,292000,1,0,0:0:0:0:
192,256,292160,1,0,0:0:0:0:
84,240,292319,1,0,0:0:0:0:
148,152,292479,1,0,0:0:0:0:
256,152,292638,6,0,P|247:99|215:67,1,100,0|0,0:0|0:0,0:0:0:0:
43,155,292964,2,0,P|52:208|84:240,1,100,0|0,0:0|0:0,0:0:0:0:
256,244,293290,2,0,P|332:208|336:96,1,200
200,44,293779,5,0,0:0:0:0:
200,44,293860,1,0,0:0:0:0:
200,44,293942,2,0,L|96:36,2,100
308,20,294431,2,0,P|368:20|436:132,1,200
432,236,294920,1,0,0:0:0:0:
372,328,295083,1,0,0:0:0:0:
264,336,295246,6,0,P|208:332|164:296,1,100
127,126,295572,2,0,P|158:80|211:60,1,100
376,113,295898,2,0,P|401:163|392:219,1,100,0|0,0:0|0:0,0:0:0:0:
256,192,296224,1,0,0:0:0:0:
256,192,296306,1,0,0:0:0:0:
256,192,296388,1,0,0:0:0:0:
256,192,296469,1,0,0:0:0:0:
256,192,296551,6,0,L|152:220,2,100
352,248,297040,1,0,0:0:0:0:
420,160,297203,1,0,0:0:0:0:
348,76,297366,2,0,P|268:56|168:112,1,200
64,84,297855,2,0,L|88:196,2,100
180,148,298344,2,0,L|204:260,1,100
332,148,298670,2,0,L|308:260,1,100
427,181,298996,2,0,L|448:84,1,100
340,60,299322,5,0,0:0:0:0:
256,132,299485,1,0,0:0:0:0:
172,60,299648,1,0,0:0:0:0:
88,128,299811,1,0,0:0:0:0:
88,128,299974,2,0,P|52:192|116:296,1,200
176,204,300464,6,0,L|288:204,2,100
256,88,300953,2,0,L|380:88,1,100
440,160,301279,2,0,P|464:204|444:264,1,100
344,348,301605,2,0,P|320:304|340:244,1,100
208,332,301931,6,0,P|152:348|108:328,1,100
52,244,302257,2,0,P|108:228|152:248,1,100
255,242,302583,1,0,0:0:0:0:
236,132,302746,5,0,0:0:0:0:
248,99,302827,1,0,0:0:0:0:
269,71,302909,1,0,0:0:0:0:
296,50,302990,1,0,0:0:0:0:
329,38,303072,1,0,0:0:0:0:
364,36,303153,1,0,0:0:0:0:
398,43,303235,1,0,0:0:0:0:
428,60,303316,1,0,0:0:0:0:
453,85,303398,1,0,0:0:0:0:
469,116,303479,1,0,0:0:0:0:
476,151,303561,1,0,0:0:0:0:
472,185,303642,1,0,0:0:0:0:
460,218,303724,1,0,0:0:0:0:
356,156,303895,5,0,0:0:0:0:
356,156,304066,1,0,0:0:0:0:
356,236,304409,6,0,P|340:288|304:312,1,100
208,256,304742,1,0,0:0:0:0:
148,348,304909,1,0,0:0:0:0:
148,348,304992,1,0,0:0:0:0:
148,348,305075,2,0,L|48:296,2,100
258,348,305575,1,0,0:0:0:0:
356,296,305742,5,0,0:0:0:0:
456,344,305909,1,0,0:0:0:0:
356,296,306075,1,0,0:0:0:0:
456,344,306242,1,0,0:0:0:0:
496,240,306409,1,0,0:0:0:0:
496,204,306492,1,0,0:0:0:0:
496,168,306575,1,0,0:0:0:0:
400,72,306742,2,0,L|400:176,1,100
304,224,307075,6,0,P|244:232|196:204,1,100
320,68,307409,2,0,P|296:123|248:151,1,100,0|0,0:0|0:0,0:0:0:0:
156,128,307742,1,0,0:0:0:0:
156,128,307825,1,0,0:0:0:0:
156,128,307909,2,0,P|80:160|56:200,1,100
28,272,308242,1,0,0:0:0:0:
104,352,308409,5,0,0:0:0:0:
168,320,308742,1,0,0:0:0:0:
232,352,309075,5,0,0:0:0:0:
296,320,309242,1,0,0:0:0:0:
360,352,309409,1,0,0:0:0:0:
424,320,309742,6,0,P|456:256|448:216,1,100
364,164,310075,1,0,0:0:0:0:
452,100,310242,1,0,0:0:0:0:
360,40,310409,1,0,0:0:0:0:
360,40,310492,1,0,0:0:0:0:
360,40,310575,2,0,P|288:60|264:104,1,100
256,188,310909,1,0,0:0:0:0:
180,108,311075,5,0,0:0:0:0:
72,92,311242,1,0,0:0:0:0:
16,188,311409,1,0,0:0:0:0:
92,268,311575,1,0,0:0:0:0:
192,220,311742,1,0,0:0:0:0:
192,220,311825,1,0,0:0:0:0:
192,220,311909,2,0,P|232:264|228:312,2,100
92,268,312409,6,0,L|12:360,1,100
16,188,312742,2,0,L|96:96,1,100
180,60,313075,1,0,0:0:0:0:
216,64,313159,1,0,0:0:0:0:
252,68,313242,1,0,0:0:0:0:
356,36,313409,1,0,0:0:0:0:
448,96,313575,6,0,P|472:152|396:260,1,200
136,192,314075,1,0,0:0:0:0:
324,260,314242,1,0,0:0:0:0:
324,260,314325,1,0,0:0:0:0:
324,260,314409,1,0,0:0:0:0:
188,260,314575,1,0,0:0:0:0:
376,192,314742,1,0,0:0:0:0:
388,160,314825,1,0,0:0:0:0:
388,124,314909,1,0,0:0:0:0:
376,92,314992,1,0,0:0:0:0:
348,72,315075,6,0,P|240:40|152:80,1,200
56,40,315575,1,0,0:0:0:0:
68,148,315742,2,0,L|96:356,1,200
172,268,316242,2,0,P|264:252|328:348,1,200
220,356,316742,1,0,0:0:0:0:
312,184,316909,1,0,0:0:0:0:
424,344,317075,2,0,P|472:304|448:164,1,200
480,68,317575,5,0,0:0:0:0:
372,48,317742,2,0,P|328:72|304:116,1,100
140,192,318075,2,0,P|184:216|208:260,1,100
100,292,318409,1,0,0:0:0:0:
208,92,318575,1,0,0:0:0:0:
208,292,318742,1,0,0:0:0:0:
100,92,318909,6,0,P|32:136|56:256,1,200
120,324,319409,1,0,0:0:0:0:
204,252,319575,1,0,0:0:0:0:
240,244,319659,1,0,0:0:0:0:
276,248,319742,1,0,0:0:0:0:
360,316,319909,1,0,0:0:0:0:
456,260,320075,1,0,0:0:0:0:
460,148,320242,1,0,0:0:0:0:
336,28,320409,6,0,L|376:240,1,200
428,320,320909,1,0,0:0:0:0:
320,348,321075,2,0,P|232:328|216:224,1,200
212,120,321575,2,0,P|124:140|108:244,1,200
136,344,322075,1,0,0:0:0:0:
220,276,322242,1,0,0:0:0:0:
324,308,322409,1,0,0:0:0:0:
400,228,322575,1,0,0:0:0:0:
504,264,322742,1,0,0:0:0:0:
504,300,322825,1,0,0:0:0:0:
488,332,322909,1,0,0:0:0:0:
456,348,322992,1,0,0:0:0:0:
420,352,323075,1,0,0:0:0:0:
132,192,323575,5,0,0:0:0:0:
132,192,323659,1,0,0:0:0:0:
132,192,323742,2,0,L|108:84,1,100
16,36,324075,1,0,0:0:0:0:
196,36,324242,1,0,0:0:0:0:
232,36,324325,1,0,0:0:0:0:
268,36,324409,1,0,0:0:0:0:
444,168,324909,5,0,0:0:0:0:
444,168,324992,1,0,0:0:0:0:
444,168,325075,2,0,P|448:228|420:272,1,100
324,296,325409,1,0,0:0:0:0:
240,224,325575,1,0,0:0:0:0:
240,188,325659,1,0,0:0:0:0:
252,156,325742,1,0,0:0:0:0:
60,48,326242,5,0,0:0:0:0:
60,48,326409,2,0,P|20:80|12:132,1,100
10,258,326742,2,0,P|20:304|60:336,1,100
152,264,327075,5,0,0:0:0:0:
360,264,327242,1,0,0:0:0:0:
152,332,327409,1,0,0:0:0:0:
360,332,327575,1,0,0:0:0:0:
256,152,327742,1,0,0:0:0:0:
256,264,327909,6,0,L|256:364,1,100
192,204,328409,6,0,P|148:176|88:184,1,100
56,352,328742,2,0,P|102:327|125:271,1,100,0|0,0:0|0:0,3:0:0:0:
20,252,329075,1,0,0:0:0:0:
101,177,329242,1,0,0:0:0:0:
16,108,329409,1,0,0:0:0:0:
104,44,329575,1,0,0:0:0:0:
276,104,329742,6,0,P|328:104|372:76,1,100
208,40,330075,2,0,P|181:85|184:137,1,100
264,208,330409,1,0,0:0:0:0:
172,268,330575,1,0,0:0:0:0:
264,208,330742,1,0,0:0:0:0:
276,316,330909,1,0,0:0:0:0:
344,160,331075,6,0,P|400:132|448:144,1,100
464,244,331409,2,0,P|408:272|360:260,1,100
260,128,331742,1,0,0:0:0:0:
304,288,331909,1,0,0:0:0:0:
320,108,332075,1,0,0:0:0:0:
244,308,332242,1,0,0:0:0:0:
176,152,332409,6,0,P|116:120|60:120,1,100
336,232,332742,2,0,P|396:264|452:264,1,100
456,112,333075,1,0,0:0:0:0:
426,267,333242,1,0,0:0:0:0:
456,112,333408,1,0,0:0:0:0:
436,80,333492,1,0,0:0:0:0:
408,60,333575,1,0,0:0:0:0:
376,52,333658,1,0,0:0:0:0:
340,56,333742,6,0,L|272:156,1,100
144,108,334075,2,0,L|212:208,1,100
296,328,334408,1,0,0:0:0:0:
332,204,334575,1,0,0:0:0:0:
296,328,334742,1,0,0:0:0:0:
332,204,334908,1,0,0:0:0:0:
188,320,335075,6,0,P|128:320|92:288,1,100
64,120,335408,2,0,L|76:228,1,100
192,240,335742,2,0,P|244:204|212:76,1,200
100,32,336242,5,0,0:0:0:0:
100,32,336325,1,0,0:0:0:0:
100,32,336408,2,0,P|40:24|-4:52,2,100
164,156,336908,2,0,P|260:176|316:88,1,200
216,56,337408,1,0,0:0:0:0:
216,56,337575,1,0,0:0:0:0:
164,156,337742,6,0,L|120:252,1,100
348,156,338075,2,0,L|392:252,1,100
256,368,338408,2,0,L|256:256,1,100
256,52,338742,1,0,0:0:0:0:
256,52,338825,1,0,0:0:0:0:
256,52,338908,1,0,0:0:0:0:
256,52,338992,1,0,0:0:0:0:
256,52,339075,6,0,P|312:40|364:52,2,100
252,164,339575,1,0,0:0:0:0:
152,116,339742,1,0,0:0:0:0:
68,188,339908,2,0,P|60:264|176:324,1,200
244,268,340408,1,0,0:0:0:0:
344,316,340575,6,0,L|460:316,1,100
360,192,340908,2,0,L|244:192,1,100
344,68,341242,2,0,L|460:68,1,100
488,192,341575,1,0,0:0:0:0:
280,128,341742,6,0,P|256:84|272:20,1,100
360,192,342075,1,0,0:0:0:0:
292,280,342242,1,0,0:0:0:0:
208,208,342408,1,0,0:0:0:0:
208,208,342575,2,0,P|188:128|72:96,1,200
32,232,343075,5,0,0:0:0:0:
32,232,343242,2,0,L|40:336,1,100
92,160,343575,2,0,P|128:200|132:252,1,100
172,348,343908,2,0,P|244:316|256:272,1,100
256,192,344242,1,0,0:0:0:0:
328,72,344408,5,0,0:0:0:0:
328,72,344575,2,0,P|388:72|424:100,1,100
476,188,344908,1,0,0:0:0:0:
348,176,345075,5,0,0:0:0:0:
348,176,345242,2,0,P|377:227|371:273,1,100,0|0,0:0|0:0,0:0:0:0:
321,362,345575,1,0,0:0:0:0:
267,245,345742,5,0,0:0:0:0:
267,245,345908,2,0,P|236:296|194:314,1,100,0|0,0:0|0:0,0:0:0:0:
93,314,346242,1,0,0:0:0:0:
48,192,346408,6,0,P|32:144|40:96,1,100
252,32,346742,2,0,P|268:80|260:128,1,100
148,112,347075,6,0,L|184:324,1,200
256,228,347575,1,0,0:0:0:0:
336,304,347742,1,0,0:0:0:0:
368,292,347825,1,0,0:0:0:0:
400,284,347908,1,0,0:0:0:0:
464,192,348075,1,0,0:0:0:0:
400,100,348242,2,0,P|352:56|220:84,1,200
176,228,348742,6,0,P|116:224|76:172,1,100
76,164,348992,1,0,0:0:0:0:
68,132,349075,1,0,0:0:0:0:
44,24,349242,1,0,0:0:0:0:
168,48,349408,2,0,L|196:148,1,100
256,288,349742,2,0,P|312:280|360:152,2,200
220,288,350492,1,0,0:0:0:0:
184,288,350575,1,0,0:0:0:0:
88,236,350742,1,0,0:0:0:0:
64,128,350908,1,0,0:0:0:0:
40,20,351075,6,0,P|84:96|188:88,1,200
276,28,351575,1,0,0:0:0:0:
364,96,351742,1,0,0:0:0:0:
388,120,351825,1,0,0:0:0:0:
404,152,351908,1,0,0:0:0:0:
408,188,351992,1,0,0:0:0:0:
404,232,352075,1,0,0:0:0:0:
388,264,352158,1,0,0:0:0:0:
364,288,352241,1,0,0:0:0:0:
256,356,352408,6,0,P|192:360|88:248,1,200
180,204,352908,1,0,0:0:0:0:
120,112,353075,1,0,0:0:0:0:
208,48,353242,1,0,0:0:0:0:
208,48,353325,1,0,0:0:0:0:
208,48,353408,2,0,P|256:76|328:68,1,100
432,32,353742,6,0,P|472:68|456:208,1,200
340,328,354242,2,0,P|205:338|169:298,1,200
200,132,354742,2,0,L|290:88,1,100
388,40,355075,1,0,0:0:0:0:
100,180,355408,2,0,P|64:224|56:268,1,100
168,264,355742,5,0,0:0:0:0:
168,264,355825,1,0,0:0:0:0:
168,264,355909,2,0,P|212:296|276:292,1,100
356,344,356242,1,0,0:0:0:0:
404,248,356408,6,0,L|420:196,3,50
336,152,356742,2,0,L|323:98,3,50
229,102,357075,2,0,L|191:62,3,50
110,112,357408,2,0,L|58:96,3,50,0|0|0|0,0:0|0:0|0:0|0:0,3:0:0:0:
32,192,357742,6,0,P|32:245|168:284,1,200
361,295,358242,1,0,0:0:0:0:
361,295,358325,1,0,0:0:0:0:
361,295,358408,2,0,P|480:245|480:192,1,200
436,92,358908,1,0,0:0:0:0:
228,164,359075,1,0,0:0:0:0:
332,128,359242,6,0,P|296:72|156:84,1,200
72,116,359742,1,0,0:0:0:0:
76,152,359825,1,0,0:0:0:0:
80,188,359908,1,0,0:0:0:0:
84,224,359992,1,0,0:0:0:0:
88,260,360075,1,0,0:0:0:0:
160,344,360242,1,0,0:0:0:0:
256,288,360408,6,0,P|304:272|424:360,1,200
232,348,360908,1,0,0:0:0:0:
232,348,360992,1,0,0:0:0:0:
232,348,361075,2,0,L|212:248,2,100
292,200,361575,6,0,P|216:152|120:224,1,200
60,288,362075,1,0,0:0:0:0:
44,180,362242,2,0,L|28:80,1,100
128,32,362575,1,0,0:0:0:0:
128,32,362658,1,0,0:0:0:0:
128,32,362742,2,0,L|144:132,1,100
244,348,363075,6,0,L|332:152,1,200
425,66,363575,1,0,0:0:0:0:
425,66,363658,1,0,0:0:0:0:
425,66,363742,2,0,P|312:28|252:68,1,200
208,168,364242,1,0,0:0:0:0:
68,96,364408,1,0,0:0:0:0:
48,208,364575,6,0,P|68:280|188:320,1,200
280,364,365075,1,0,0:0:0:0:
308,344,365158,1,0,0:0:0:0:
328,316,365242,1,0,0:0:0:0:
340,284,365325,1,0,0:0:0:0:
340,248,365408,1,0,0:0:0:0:
256,176,365575,1,0,0:0:0:0:
332,96,365742,6,0,L|444:96,1,100
256,248,366075,2,0,L|144:248,1,100,0|0,0:0|0:0,0:0:0:0:
341,77,366408,6,0,L|479:77,1,100
246,266,366741,2,0,L|108:266,1,100,0|0,0:0|0:0,0:0:0:0:
349,57,367075,6,0,L|487:57,1,100
236,284,367408,2,0,L|97:284,1,100,0|0,0:0|0:0,0:0:0:0:
356,36,367742,6,0,L|494:36,1,100
225,301,368075,2,0,L|86:301,1,100,0|0,0:0|0:0,0:0:0:0:
48,100,368408,6,0,P|84:68|136:52,1,100
304,292,368742,2,0,P|268:324|216:340,1,100,0|0,0:0|0:0,0:0:0:0:
88,62,369075,6,0,P|132:44|187:46,1,100
263,329,369409,2,0,P|218:346|163:344,1,100,0|0,0:0|0:0,3:0:0:0:
24,184,369742,6,0,L|80:160,3,50
164,208,370075,2,0,L|220:232,3,50
304,184,370408,2,0,L|360:160,3,50
444,208,370742,2,0,L|500:232,3,50
504,312,371075,6,0,L|304:352,1,200
204,316,371575,1,0,0:0:0:0:
204,316,371658,1,0,0:0:0:0:
204,316,371742,2,0,L|84:300,1,100
32,192,372075,6,0,P|72:120|188:116,1,200
256,192,372575,2,0,P|312:196|368:160,1,100
288,96,372908,1,0,0:0:0:0:
288,96,372992,1,0,0:0:0:0:
288,96,373075,2,0,L|320:304,1,200
416,344,373575,5,0,0:0:0:0:
180,168,373908,1,0,0:0:0:0:
64,180,374075,1,0,0:0:0:0:
132,268,374242,1,0,0:0:0:0:
132,268,374325,1,0,0:0:0:0:
132,268,374408,1,0,0:0:0:0:
180,168,374575,1,0,0:0:0:0:
252,252,374742,1,0,0:0:0:0:
304,156,374908,6,0,P|296:100|248:72,1,100
64,180,375408,1,0,0:0:0:0:
132,268,375575,2,0,L|116:372,1,100
252,252,375908,1,0,0:0:0:0:
180,168,376075,2,0,L|196:64,1,100
392,36,376408,6,0,P|472:60|492:176,1,200
400,224,376908,1,0,0:0:0:0:
400,224,376992,1,0,0:0:0:0:
400,224,377075,2,0,L|464:308,1,100
312,252,377408,2,0,P|308:192|436:132,1,200
348,40,377908,2,0,P|284:64|248:112,1,100
224,188,378242,5,0,0:0:0:0:
200,212,378325,1,0,0:0:0:0:
168,228,378408,2,0,P|108:228|76:204,1,100
148,120,378742,1,0,0:0:0:0:
148,120,378908,2,0,P|204:88|320:176,1,200
412,96,379408,2,0,L|400:212,1,100
401,195,379658,1,0,0:0:0:0:
401,195,379742,1,0,0:0:0:0:
376,300,379908,1,0,0:0:0:0:
272,336,380075,1,0,0:0:0:0:
172,288,380242,1,0,0:0:0:0:
164,180,380408,6,0,P|212:124|268:116,1,100
344,140,380742,1,0,0:0:0:0:
164,180,380908,6,0,L|64:140,1,100
240,200,381242,1,0,0:0:0:0:
240,200,381408,2,0,P|312:212|388:124,1,200
336,28,381908,1,0,0:0:0:0:
256,104,382075,1,0,0:0:0:0:
176,28,382242,2,0,P|120:68|132:200,1,200
389,189,382742,6,0,P|392:68|336:28,1,200
256,104,383242,1,0,0:0:0:0:
256,212,383408,1,0,0:0:0:0:
256,324,383575,2,0,L|372:324,2,100
144,324,384075,6,0,P|76:288|80:176,1,200
172,112,384575,1,0,0:0:0:0:
180,224,384742,1,0,0:0:0:0:
268,160,384908,5,0,0:0:0:0:
268,160,384992,1,0,0:0:0:0:
268,160,385075,2,0,P|308:120|312:64,1,100
216,28,385408,1,0,0:0:0:0:
416,96,385575,1,0,0:0:0:0:
492,200,385742,6,0,L|492:252,1,50
424,280,385908,2,0,L|424:228,1,50
356,200,386075,2,0,L|356:252,1,50
288,280,386242,2,0,L|288:228,1,50
220,200,386409,2,0,L|220:252,1,50
152,280,386575,2,0,L|152:228,1,50
84,200,386742,2,0,L|84:252,1,50
16,280,386909,2,0,L|16:228,1,50
16,140,387075,6,0,P|52:76|176:64,1,200
256,128,387575,1,0,0:0:0:0:
256,128,387658,1,0,0:0:0:0:
256,128,387742,2,0,P|312:104|332:56,1,100
436,44,388075,2,0,L|416:264,1,200
400,352,388575,1,0,0:0:0:0:
316,280,388742,1,0,0:0:0:0:
244,360,388908,2,0,P|176:336|168:208,1,200
240,144,389408,1,0,0:0:0:0:
384,192,389575,6,0,P|424:144|352:32,1,200
264,76,390075,1,0,0:0:0:0:
156,52,390242,1,0,0:0:0:0:
136,80,390325,1,0,0:0:0:0:
116,108,390408,1,0,0:0:0:0:
184,192,390575,1,0,0:0:0:0:
116,276,390742,1,0,0:0:0:0:
184,360,390908,1,0,0:0:0:0:
252,276,391075,6,0,P|300:256|424:336,1,200
252,276,391575,2,0,L|272:172,1,100
280,144,391825,1,0,0:0:0:0:
300,116,391908,1,0,0:0:0:0:
332,100,391992,1,0,0:0:0:0:
368,96,392075,1,0,0:0:0:0:
404,104,392158,1,0,0:0:0:0:
432,124,392242,1,0,0:0:0:0:
360,204,392408,6,0,L|188:84,1,200
104,32,392908,1,0,0:0:0:0:
104,32,392992,1,0,0:0:0:0:
104,32,393075,2,0,P|40:68|28:124,1,100
112,160,393408,2,0,P|152:208|112:332,1,200
44,244,393908,1,0,0:0:0:0:
256,248,394075,2,0,L|364:248,1,100
436,324,394408,2,0,P|464:260|392:148,1,200
225,77,394908,6,0,P|197:141|256:248,1,200
300,148,395408,1,0,0:0:0:0:
372,232,395575,1,0,0:0:0:0:
328,332,395742,1,0,0:0:0:0:
220,344,395908,1,0,0:0:0:0:
148,260,396075,1,0,0:0:0:0:
192,160,396242,1,0,0:0:0:0:
260,248,396408,6,0,P|252:304|208:356,1,100
116,348,396742,1,0,0:0:0:0:
88,328,396825,1,0,0:0:0:0:
60,308,396908,1,0,0:0:0:0:
12,208,397075,5,0,0:0:0:0:
12,172,397158,1,0,0:0:0:0:
24,140,397242,1,0,0:0:0:0:
48,116,397325,1,0,0:0:0:0:
80,104,397408,1,0,0:0:0:0:
116,104,397492,1,0,0:0:0:0:
148,116,397575,1,0,0:0:0:0:
256,192,397742,6,0,P|328:192|400:92,1,200
288,92,398242,2,0,L|408:260,1,200
380,360,398742,1,0,0:0:0:0:
100,336,399075,6,0,P|48:296|72:168,1,200
152,244,399575,2,0,P|204:224|212:88,1,200
124,36,400075,1,0,0:0:0:0:
218,95,400242,1,0,0:0:0:0:
308,32,400408,6,0,L|408:72,1,100
424,192,400742,2,0,L|324:152,1,100
331,154,400992,1,0,0:0:0:0:
331,154,401075,1,0,0:0:0:0:
256,236,401242,1,0,0:0:0:0:
180,154,401408,1,0,0:0:0:0:
104,236,401575,1,0,0:0:0:0:
160,328,401742,6,0,L|208:348,3,50
312,316,402075,2,0,L|360:296,3,50,0|0|0|0,0:0|0:0|0:0|0:0,0:0:0:0:
436,216,402408,1,0,0:0:0:0:
440,180,402492,1,0,0:0:0:0:
436,144,402575,1,0,0:0:0:0:
424,112,402658,1,0,0:0:0:0:
400,88,402742,1,0,0:0:0:0:
372,68,402825,1,0,0:0:0:0:
336,64,402908,1,0,0:0:0:0:
300,68,402992,1,0,0:0:0:0:
268,80,403075,6,0,P|192:108|92:32,1,200
152,184,403575,1,0,0:0:0:0:
152,184,403742,2,0,P|76:152|8:28,1,200
196,12,404242,1,0,0:0:0:0:
240,172,404408,2,0,L|272:292,1,100
304,372,404742,5,0,0:0:0:0:
460,192,405075,1,0,0:0:0:0:
460,192,405242,1,0,0:0:0:0:
420,292,405408,1,0,0:0:0:0:
348,208,405575,1,0,0:0:0:0:
384,104,405742,6,0,P|324:96|240:200,1,200
184,80,406242,1,0,0:0:0:0:
184,80,406408,2,0,P|156:136|172:280,1,200
232,356,406908,1,0,0:0:0:0:
328,264,407075,2,0,P|392:256|456:288,1,100
364,356,407408,5,0,0:0:0:0:
156,280,407742,1,0,0:0:0:0:
156,280,407908,1,0,0:0:0:0:
236,204,408075,1,0,0:0:0:0:
156,280,408242,1,0,0:0:0:0:
136,172,408408,6,0,P|132:104|244:44,2,200
156,280,409242,1,0,0:0:0:0:
264,292,409408,2,0,P|312:264|332:208,1,100
284,124,409742,5,0,0:0:0:0:
284,124,409908,2,0,P|364:120|440:204,1,200
424,312,410408,2,0,P|388:356|340:368,1,100
256,308,410742,1,0,0:0:0:0:
160,360,410908,5,0,0:0:0:0:
160,360,411075,1,0,0:0:0:0:
80,232,411242,1,0,0:0:0:0:
80,232,411409,1,0,0:0:0:0:
188,256,411575,5,0,0:0:0:0:
188,256,411742,1,0,0:0:0:0:
268,128,411909,1,0,0:0:0:0:
268,128,412076,1,0,0:0:0:0:
160,152,412242,5,0,0:0:0:0:
352,232,412408,2,0,P|404:236|448:204,1,100
160,152,412742,2,0,P|108:148|64:180,1,100
44,280,413075,6,0,L|24:348,3,50
140,240,413408,2,0,L|160:308,3,50
252,320,413742,6,0,P|311:371|427:331,1,200,0|0,0:0|0:0,3:0:0:0:
444,232,414242,1,0,0:0:0:0:
444,122,414408,2,0,P|370:148|346:268,2,200
444,232,415242,2,0,L|276:116,1,200
180,68,415742,2,0,P|120:72|76:112,1,100
36,192,416075,1,0,0:0:0:0:
56,300,416242,5,0,0:0:0:0:
256,148,416575,1,0,0:0:0:0:
332,228,416742,2,0,L|348:328,1,100
376,132,417075,1,0,0:0:0:0:
452,212,417242,2,0,L|468:312,1,100
332,228,417575,6,0,P|232:248|156:192,1,200
200,92,418075,2,0,P|148:72|96:84,1,100
105,304,418408,2,0,P|148:312|200:292,1,100
124,192,418742,2,0,L|20:192,1,100
232,192,419075,6,0,P|296:132|264:16,1,200
136,12,419575,1,0,0:0:0:0:
200,92,419742,2,0,L|404:152,2,200
92,108,420575,2,0,P|52:184|128:288,1,200
152,376,421075,2,0,L|264:356,1,100
432,284,421408,6,0,L|320:264,1,100
216,60,421908,1,0,0:0:0:0:
304,128,422075,2,0,P|360:132|404:108,1,100
200,164,422408,1,0,0:0:0:0:
112,232,422575,2,0,P|56:236|12:212,1,100
80,128,422908,1,0,0:0:0:0:
112,232,423075,6,0,L|136:352,1,100
400,332,423408,2,0,L|376:212,1,100,0|0,0:0|0:0,0:0:0:0:
112,192,423742,2,0,L|136:312,1,100
400,292,424075,2,0,L|376:172,1,100,0|0,0:0|0:0,0:0:0:0:
336,76,424408,6,0,P|255:25|176:76,2,200
256,156,425242,1,0,0:0:0:0:
256,156,425325,1,0,0:0:0:0:
256,156,425408,2,0,L|256:264,1,100
336,332,425742,1,0,0:0:0:0:
176,332,425908,2,0,P|104:320|60:204,1,200
112,120,426408,1,0,0:0:0:0:
224,120,426575,1,0,0:0:0:0:
168,216,426742,1,0,0:0:0:0:
72,52,426908,5,0,0:0:0:0:
304,144,427242,1,0,0:0:0:0:
412,132,427408,2,0,P|456:72|456:32,1,100
368,228,427742,1,0,0:0:0:0:
456,296,427908,2,0,P|400:336|340:332,1,100
288,268,428242,1,0,0:0:0:0:
176,352,428408,6,0,L|68:328,1,100
58,222,428742,2,0,L|155:243,1,100,0|0,0:0|0:0,0:0:0:0:
136,136,429075,2,0,L|28:112,1,100,0|0,0:0|0:0,0:0:0:0:
18,6,429408,2,0,L|115:27,1,100,0|0,0:0|0:0,0:0:0:0:
280,72,429742,6,0,P|336:80|416:28,1,150
412,33,430075,2,0,P|464:72|464:144,1,100
468,140,430325,1,0,0:0:0:0:
460,176,430408,2,0,P|396:216|384:296,1,150
428,336,430742,2,0,P|396:376|344:388,1,100
205,372,431075,5,0,0:0:0:0:
80,272,431242,1,0,0:0:0:0:
80,112,431408,1,0,0:0:0:0:
205,12,431575,1,0,0:0:0:0:
340,56,431742,6,0,L|312:160,1,100
314,152,431992,1,0,0:0:0:0:
314,152,432075,2,0,P|256:148|216:172,1,100
64,348,432408,6,0,L|124:268,1,100
448,348,432742,2,0,L|388:268,1,100
256,360,433075,1,0,0:0:0:0:
256,248,433242,2,0,L|256:136,1,100
172,76,433575,1,0,0:0:0:0:
340,76,433742,6,0,L|364:124,3,50
456,192,434075,2,0,L|432:240,3,50,0|0|0|0,0:0|0:0|0:0|0:0,0:0:0:0:
344,308,434408,1,0,0:0:0:0:
324,276,434492,1,0,0:0:0:0:
292,260,434575,1,0,0:0:0:0:
256,252,434658,1,0,0:0:0:0:
220,260,434742,1,0,0:0:0:0:
188,276,434825,1,0,0:0:0:0:
168,308,434909,1,0,0:0:0:0:
256,376,435075,5,0,0:0:0:0:
256,376,435242,1,0,0:0:0:0:
88,96,443075,6,0,B|52:152|88:192|124:232|88:288,2,200
180,36,443908,1,0,0:0:0:0:
180,36,443992,1,0,0:0:0:0:
180,36,444075,2,0,P|220:72|264:76,1,100
372,48,444408,6,0,B|392:80|352:112|372:144,1,100
484,144,444742,2,0,B|504:176|464:208|484:240,1,100,0|0,0:0|0:0,0:0:0:0:
416,328,445075,1,0,0:0:0:0:
380,332,445158,1,0,0:0:0:0:
344,336,445242,1,0,0:0:0:0:
308,340,445325,1,0,0:0:0:0:
272,344,445408,5,0,0:0:0:0:
232,344,445492,1,0,0:0:0:0:
192,336,445575,1,0,0:0:0:0:
160,312,445658,1,0,0:0:0:0:
144,276,445742,6,0,P|136:204|244:128,1,200
328,168,446242,1,0,0:0:0:0:
240,232,446408,2,0,B|173:235|156:184|140:132|73:136,1,200
4,52,446908,1,0,0:0:0:0:
112,32,447075,2,0,P|172:52|200:80,1,100
256,172,447408,1,0,0:0:0:0:
314,76,447575,6,0,P|340:52|400:32,1,100
456,168,447908,2,0,P|430:192|370:212,1,100
196,192,448242,5,0,0:0:0:0:
196,192,448325,1,0,0:0:0:0:
196,192,448408,2,0,B|129:188|112:240|96:291|29:287,1,200,0|0,0:0|0:0,0:0:0:0:
28,176,448908,1,0,0:0:0:0:
116,112,449075,2,0,P|192:88|304:180,1,200
280,256,449575,1,0,0:0:0:0:
372,316,449742,2,0,P|432:292|456:256,1,100
480,160,450075,1,0,0:0:0:0:
412,76,450242,6,0,B|380:55|348:95|316:75,1,100,0|0,0:0|0:0,3:0:0:0:
100,76,450575,2,0,B|132:55|164:95|196:75,1,100,0|0,0:0|0:0,3:0:0:0:
256,168,450908,5,0,0:0:0:0:
256,168,450992,1,0,0:0:0:0:
256,168,451075,2,0,P|252:244|148:296,1,200
56,244,451575,1,0,0:0:0:0:
152,192,451742,2,0,L|320:324,1,200
416,344,452242,1,0,0:0:0:0:
480,256,452408,2,0,P|488:196|472:152,1,100
388,92,452742,1,0,0:0:0:0:
368,200,452908,6,0,L|264:200,1,100
32,200,453242,2,0,L|136:200,1,100
228,312,453575,5,0,0:0:0:0:
193,312,453658,1,0,0:0:0:0:
157,312,453742,1,0,0:0:0:0:
60,264,453908,1,0,0:0:0:0:
156,212,454075,1,0,0:0:0:0:
60,156,454242,1,0,0:0:0:0:
156,100,454408,5,0,0:0:0:0:
84,16,454575,1,0,0:0:0:0:
156,100,454742,1,0,0:0:0:0:
228,16,454908,1,0,0:0:0:0:
300,100,455075,5,0,0:0:0:0:
372,16,455242,2,0,P|404:56|360:192,1,200
268,236,455742,2,0,B|276:272|327:267|335:304,1,100,0|0,0:0|0:0,3:0:0:0:
236,356,456075,1,0,0:0:0:0:
204,340,456158,1,0,0:0:0:0:
180,316,456242,1,0,0:0:0:0:
164,284,456325,1,0,0:0:0:0:
160,248,456408,6,0,L|160:140,1,100
48,144,456742,2,0,L|48:32,1,100
272,144,457075,2,0,L|272:32,1,100
384,248,457408,2,0,L|384:140,1,100
272,308,457742,6,0,L|164:308,1,100
64,192,458075,2,0,L|172:192,1,100
276,192,458408,1,0,0:0:0:0:
336,100,458575,1,0,0:0:0:0:
244,40,458742,1,0,0:0:0:0:
180,128,458908,1,0,0:0:0:0:
180,128,458992,1,0,0:0:0:0:
180,128,459075,6,0,B|142:120|148:69|111:60,1,100,0|0,0:0|0:0,0:0:0:0:
320,116,459408,2,0,B|327:78|378:84|387:47,1,100,0|0,0:0|0:0,0:0:0:0:
332,256,459742,2,8,B|369:263|363:314|400:323,1,100,0|0,0:0|0:0,0:0:0:0:
192,268,460075,2,8,B|184:305|133:299|124:336,1,100,0|0,0:0|0:0,0:0:0:0:
32,276,460408,5,0,0:0:0:0:
100,192,460575,1,0,0:0:0:0:
32,108,460742,1,0,0:0:0:0:
168,104,460908,2,0,P|208:191|168:280,1,200
244,360,461408,2,0,P|284:320|304:272,1,100
301,103,461742,6,0,P|284:64|244:24,1,100
32,192,462075,2,0,P|49:231|89:271,1,100
278,59,462408,2,0,P|248:28|197:5,1,100,0|0,0:0|0:0,3:0:0:0:
55,235,462741,2,0,P|85:266|136:289,1,100,0|0,0:0|0:0,3:0:0:0:
320,296,463075,6,0,B|352:275|384:315|416:295,1,100,0|0,0:0|0:0,0:0:0:0:
240,204,463408,2,0,B|272:183|304:223|336:203,1,100,0|0,0:0|0:0,0:0:0:0:
160,112,463742,2,0,B|192:91|224:131|256:111,1,100,0|0,0:0|0:0,0:0:0:0:
384,24,464075,1,0,0:0:0:0:
412,40,464158,1,0,0:0:0:0:
444,60,464242,1,0,0:0:0:0:
472,80,464325,1,0,0:0:0:0:
500,100,464408,6,0,P|496:164|456:200,1,100
372,268,464742,1,0,0:0:0:0:
356,148,464908,1,0,0:0:0:0:
472,280,465075,2,0,P|444:344|400:368,1,100
388,368,465325,1,0,0:0:0:0:
352,368,465408,1,0,0:0:0:0:
320,360,465492,1,0,0:0:0:0:
292,340,465575,1,0,0:0:0:0:
276,312,465658,1,0,0:0:0:0:
268,276,465742,1,0,0:0:0:0:
256,56,466408,6,0,B|277:88|237:120|257:152,2,100
152,96,466908,5,0,0:0:0:0:
152,96,466992,1,0,0:0:0:0:
152,96,467075,2,0,P|60:132|48:224,1,200
120,308,467575,1,0,0:0:0:0:
144,200,467742,2,0,B|200:164|240:200|280:236|336:200,1,200
380,100,468242,1,0,0:0:0:0:
292,156,468408,2,0,L|284:260,1,100
276,368,468742,1,0,0:0:0:0:
372,316,468908,6,0,P|420:300|476:308,1,100
192,296,469242,2,0,P|144:280|95:285,1,100
36,192,469575,5,0,0:0:0:0:
36,192,469658,1,0,0:0:0:0:
36,192,469742,2,0,P|32:140|64:92,1,100
152,156,470075,1,0,0:0:0:0:
212,64,470242,1,0,0:0:0:0:
308,120,470408,2,0,P|376:140|480:64,1,200
372,40,470908,1,0,0:0:0:0:
248,196,471075,2,0,P|264:244|312:268,1,100
396,208,471408,1,0,0:0:0:0:
480,280,471575,6,0,B|471:316|420:311|412:348,1,100,0|0,0:0|0:0,0:0:0:0:
224,280,471908,2,0,B|232:316|283:311|291:348,1,100,0|0,0:0|0:0,0:0:0:0:
360,240,472242,5,0,0:0:0:0:
360,240,472325,1,0,0:0:0:0:
360,240,472408,2,0,P|372:164|288:72,1,200
224,156,472908,1,0,0:0:0:0:
172,60,473075,2,0,B|106:74|104:127|101:181|36:195,1,200,0|0,0:0|0:0,0:0:0:0:
16,304,473575,1,0,0:0:0:0:
104,368,473742,1,0,0:0:0:0:
148,268,473908,1,0,0:0:0:0:
236,336,474075,1,0,0:0:0:0:
256,228,474242,6,0,P|316:224|368:252,1,100
492,340,474575,2,0,P|458:290|456:231,1,100,0|0,0:0|0:0,0:0:0:0:
472,68,474908,5,0,0:0:0:0:
436,60,474992,1,0,0:0:0:0:
400,52,475075,1,0,0:0:0:0:
292,32,475242,2,0,P|272:88|288:128,1,100
184,168,475575,2,0,P|222:213|265:219,1,100
368,188,475908,1,0,0:0:0:0:
284,300,476075,6,0,P|204:296|104:196,2,200
376,360,476908,2,0,B|413:352|407:301|444:292,1,100,0|0,0:0|0:0,3:0:0:0:
488,192,477242,1,0,0:0:0:0:
453,192,477325,1,0,0:0:0:0:
418,192,477408,1,0,0:0:0:0:
382,192,477492,1,0,0:0:0:0:
347,192,477575,1,0,0:0:0:0:
312,192,477658,1,0,0:0:0:0:
276,192,477742,6,0,B|244:213|212:173|180:193,1,100
72,348,478075,2,0,P|140:336|176:292,1,100
161,67,478408,2,0,P|140:48|72:36,1,100
16,192,478742,2,0,L|128:192,1,100
256,280,479075,6,0,L|256:384,1,100
256,104,479408,2,0,L|256:0,1,100
348,280,479742,2,0,P|400:272|440:240,1,100
164,280,480075,2,0,P|112:288|72:320,1,100,0|0,0:0|0:0,0:0:0:0:
75,316,480325,1,0,0:0:0:0:
75,316,480408,6,0,L|44:204,1,100
168,172,480742,2,0,L|156:64,1,100
344,172,481075,2,0,L|356:64,1,100
437,316,481408,2,0,L|468:204,2,100
336,360,481908,1,0,0:0:0:0:
164,272,482075,1,0,0:0:0:0:
256,320,482242,2,0,P|156:368|72:320,1,200
256,320,482742,2,0,L|256:216,1,100
256,184,482992,1,0,0:0:0:0:
256,148,483075,6,0,P|280:100|328:88,1,100
435,210,483408,2,8,P|381:213|347:177,1,100,0|0,0:0|0:0,3:0:0:0:
400,24,483742,2,0,P|429:68|415:116,1,100,0|0,0:0|0:0,3:0:0:0:
364,272,484075,1,0,0:0:0:0:
256,148,484242,1,0,0:0:0:0:
100,192,484408,6,0,B|79:224|119:256|99:288,1,100,0|0,0:0|0:0,0:0:0:0:
256,352,484742,2,0,B|277:320|237:288|257:256,1,100,0|0,0:0|0:0,0:0:0:0:
412,192,485075,2,0,B|433:224|393:256|413:288,1,100,0|0,0:0|0:0,0:0:0:0:
208,188,485408,2,0,P|256:176|304:188,1,100
256,352,485742,6,0,P|208:364|160:352,1,100
68,292,486075,1,0,0:0:0:0:
160,232,486242,1,0,0:0:0:0:
68,176,486408,1,0,0:0:0:0:
160,116,486575,1,0,0:0:0:0:
68,176,486742,1,0,0:0:0:0:
160,232,486908,1,0,0:0:0:0:
68,292,487075,5,0,0:0:0:0:
68,176,487242,1,0,0:0:0:0:
160,232,487408,1,0,0:0:0:0:
160,116,487575,1,0,0:0:0:0:
256,172,487742,1,0,0:0:0:0:
288,180,487825,1,0,0:0:0:0:
324,180,487908,1,0,0:0:0:0:
356,168,487992,1,0,0:0:0:0:
384,148,488075,1,0,0:0:0:0:
404,120,488158,1,0,0:0:0:0:
412,84,488242,1,0,0:0:0:0:
408,48,488325,1,0,0:0:0:0:
392,16,488408,6,0,B|336:52|296:16|256:-20|200:16,1,200
100,60,488908,1,0,0:0:0:0:
52,160,489075,2,0,B|117:174|119:227|122:281|187:295,1,200,0|0,0:0|0:0,0:0:0:0:
326,295,489575,2,0,B|389:281|392:227|394:174|460:160,1,200,0|0,0:0|0:0,0:0:0:0:
456,284,490075,2,0,P|424:336|376:364,1,100
256,356,490408,1,0,0:0:0:0:
256,356,490492,1,0,0:0:0:0:
256,356,490575,1,0,0:0:0:0:
256,236,490742,1,0,0:0:0:0:
152,296,490908,1,0,0:0:0:0:
256,356,491075,6,0,P|336:324|368:212,1,200
340,116,491575,1,0,0:0:0:0:
256,44,491742,2,0,P|200:96|72:84,1,200
256,44,492242,2,0,P|312:96|440:84,1,200
392,196,492742,2,0,P|328:192|284:176,1,100
120,196,493075,1,0,0:0:0:0:
120,196,493158,1,0,0:0:0:0:
120,196,493242,2,0,P|184:192|228:176,1,100
256,284,493575,1,0,0:0:0:0:
164,348,493742,6,0,B|100:334|98:280|95:226|30:212,2,200
256,284,494575,1,0,0:0:0:0:
348,348,494742,2,0,B|411:334|413:280|416:226|481:212,1,200
480,320,495242,1,0,0:0:0:0:
480,320,495408,2,0,P|384:276|380:176,1,200
468,136,495908,1,0,0:0:0:0:
400,44,496075,2,0,P|328:48|288:80,1,100
108,56,496408,6,0,L|196:120,1,100
268,192,496742,2,0,P|280:244|248:296,1,100
96,344,497075,2,0,P|84:292|116:240,2,100
40,192,497575,1,0,0:0:0:0:
80,88,497742,6,0,P|144:56|208:76,1,100
269,105,498075,2,0,P|295:107|359:75,1,100,0|0,0:0|0:0,0:0:0:0:
460,32,498408,1,0,0:0:0:0:
468,68,498492,1,0,0:0:0:0:
476,104,498575,1,0,0:0:0:0:
412,192,498742,1,0,0:0:0:0:
404,228,498826,1,0,0:0:0:0:
396,264,498909,1,0,0:0:0:0:
256,352,499075,6,0,P|180:356|112:248,1,200
220,248,499575,1,0,0:0:0:0:
316,192,499742,2,0,P|348:124|284:20,1,200
196,192,500242,2,0,P|164:124|228:20,1,200
428,143,500742,2,0,P|420:184|388:232,1,100
284,272,501075,1,0,0:0:0:0:
284,272,501158,1,0,0:0:0:0:
284,272,501242,1,0,0:0:0:0:
176,264,501408,1,0,0:0:0:0:
104,180,501575,1,0,0:0:0:0:
104,68,501742,6,0,L|56:264,1,200
128,344,502242,1,0,0:0:0:0:
236,356,502408,1,0,0:0:0:0:
336,308,502575,1,0,0:0:0:0:
396,216,502742,1,0,0:0:0:0:
388,108,502908,1,0,0:0:0:0:
312,28,503075,6,0,P|240:40|176:164,1,200
220,240,503575,1,0,0:0:0:0:
292,152,503742,1,0,0:0:0:0:
327,152,503825,1,0,0:0:0:0:
363,152,503909,1,0,0:0:0:0:
220,240,504076,1,0,0:0:0:0:
185,240,504159,1,0,0:0:0:0:
149,240,504243,1,0,0:0:0:0:
256,348,504408,6,0,B|312:384|352:348|392:312|448:348,2,200
148,320,505242,1,0,0:0:0:0:
56,380,505408,2,0,P|32:320|40:268,1,100
96,192,505742,1,0,0:0:0:0:
36,40,505908,2,0,P|112:96|208:72,1,200
312,16,506408,1,0,0:0:0:0:
428,36,506575,5,0,0:0:0:0:
456,56,506658,1,0,0:0:0:0:
468,88,506742,1,0,0:0:0:0:
472,124,506825,1,0,0:0:0:0:
472,160,506908,1,0,0:0:0:0:
472,196,506992,1,0,0:0:0:0:
472,232,507075,6,0,L|472:344,1,100
388,232,507408,2,0,L|388:344,1,100,0|0,0:0|0:0,0:0:0:0:
304,232,507742,2,0,L|304:344,1,100,0|0,0:0|0:0,0:0:0:0:
220,232,508075,2,0,L|220:344,1,100,0|0,0:0|0:0,0:0:0:0:
109,332,508408,1,0,0:0:0:0:
109,332,508575,2,0,B|32:292|32:292|32:172,2,200
109,221,509408,1,0,0:0:0:0:
109,110,509575,1,0,0:0:0:0:
184,28,509742,6,0,L|284:28,1,100
224,120,510075,2,0,L|336:120,1,100
184,212,510408,2,0,L|284:212,1,100
224,304,510742,2,0,L|336:304,1,100
404,228,511075,1,0,0:0:0:0:
404,228,511242,2,0,L|404:20,2,200
404,338,512075,1,0,0:0:0:0:
296,360,512242,1,0,0:0:0:0:
188,380,512408,6,0,B|128:380|128:380|96:356,1,100
28,268,512742,2,0,B|88:268|88:268|120:244,1,100,0|0,0:0|0:0,0:0:0:0:
188,156,513075,2,0,B|128:156|128:156|96:132,1,100,0|0,0:0|0:0,0:0:0:0:
28,44,513408,2,0,B|88:44|88:44|120:20,1,100,0|0,0:0|0:0,0:0:0:0:
256,16,513742,1,0,0:0:0:0:
256,16,513908,2,0,B|296:56|296:56|440:56,2,200
164,76,514742,1,0,0:0:0:0:
236,160,514908,1,0,0:0:0:0:
312,236,515075,6,0,B|416:236,1,100
200,236,515408,2,0,B|96:236,1,100
352,312,515742,2,0,B|456:312,1,100
160,312,516075,2,0,B|56:312,1,100
256,368,516408,1,0,0:0:0:0:
256,368,516575,2,0,L|256:164,2,200
144,364,517408,5,0,0:0:0:0:
116,344,517492,1,0,0:0:0:0:
88,324,517575,1,0,0:0:0:0:
60,304,517658,1,0,0:0:0:0:
32,284,517742,6,0,L|32:184,1,100
32,73,518075,2,0,P|84:77|120:137,1,100
112,220,518408,1,0,0:0:0:0:
204,284,518575,1,0,0:0:0:0:
296,220,518742,1,0,0:0:0:0:
388,284,518908,1,0,0:0:0:0:
480,220,519075,5,0,0:0:0:0:
480,220,519158,1,0,0:0:0:0:
480,220,519242,2,0,L|480:112,1,100
436,20,519575,2,0,B|372:20|372:20|324:72|324:72|256:72,1,200
180,149,520075,1,0,0:0:0:0:
69,149,520242,1,0,0:0:0:0:
36,252,520408,6,0,P|52:308|96:332,1,100
160,248,520742,1,0,0:0:0:0:
232,328,520908,1,0,0:0:0:0:
304,248,521075,2,0,L|404:248,1,100
496,188,521408,2,0,B|496:160|496:160|468:128|468:128|468:96,1,100
376,36,521742,5,0,0:0:0:0:
376,36,521908,2,0,P|320:56|304:104,1,100
364,192,522242,1,0,0:0:0:0:
148,192,522575,1,0,0:0:0:0:
240,256,522742,1,0,0:0:0:0:
148,316,522908,1,0,0:0:0:0:
240,376,523075,6,0,L|344:376,1,100
450,376,523408,2,0,P|488:348|492:288,1,100
416,224,523742,1,0,0:0:0:0:
492,144,523908,1,0,0:0:0:0:
412,68,524075,2,0,B|352:68|352:68|320:96,1,100
256,192,524408,1,0,0:0:0:0:
256,192,524575,2,0,P|200:200|132:88,1,200
220,28,525075,5,0,0:0:0:0:
300,104,525242,1,0,0:0:0:0:
380,28,525408,2,0,L|488:28,1,100
480,138,525742,5,0,0:0:0:0:
480,247,525908,1,0,0:0:0:0:
402,324,526075,2,0,L|300:324,1,100
191,324,526408,1,0,0:0:0:0:
80,324,526575,1,0,0:0:0:0:
136,228,526742,2,0,P|156:168|136:120,1,100
56,68,527075,1,0,0:0:0:0:
160,32,527242,6,0,B|180:44|180:44|204:32|204:32|228:44|228:44|248:32,1,100
384,104,527575,2,0,B|364:116|364:116|340:104|340:104|316:116|316:116|296:104,1,100
160,176,527908,2,0,B|180:188|180:188|204:176|204:176|228:188|228:188|248:176,1,100
283,176,528158,1,0,0:0:0:0:
304,204,528242,1,0,0:0:0:0:
324,232,528325,1,0,0:0:0:0:
344,260,528408,6,0,B|376:300|376:300|436:300,1,100
496,212,528742,2,0,B|464:172|464:172|404:172,1,100
264,260,529075,2,0,B|200:260|200:260|152:208|152:208|84:208,1,200
0,208,529575,1,0,0:0:0:0:
0,96,529742,1,0,0:0:0:0:
0,208,529908,2,0,L|0:316,1,100
96,360,530242,2,0,B|308:360,1,200
396,312,530742,1,0,0:0:0:0:
298,260,530908,5,0,0:0:0:0:
262,260,530992,1,0,0:0:0:0:
227,260,531075,1,0,0:0:0:0:
116,260,531242,1,0,0:0:0:0:
38,182,531408,1,0,0:0:0:0:
115,104,531575,1,0,0:0:0:0:
192,181,531742,2,0,P|256:156|248:28,1,200
369,38,532242,1,0,0:0:0:0:
452,108,532408,5,0,0:0:0:0:
452,108,532575,2,0,B|476:156|476:156|456:200,1,100
392,288,532908,1,0,0:0:0:0:
120,288,533242,1,0,0:0:0:0:
197,210,533408,1,0,0:0:0:0:
119,132,533575,1,0,0:0:0:0:
196,54,533742,6,0,B|228:54|228:54|256:78|256:78|288:78,1,100
404,144,534075,2,0,B|372:144|372:144|344:168|344:168|312:168,1,100,0|0,0:0|0:0,0:0:0:0:
202,168,534408,1,0,0:0:0:0:
91,168,534575,1,0,0:0:0:0:
44,268,534742,2,0,L|160:268,1,100
256,268,535075,5,0,0:0:0:0:
368,268,535242,2,0,L|492:268,1,100
416,364,535575,2,0,L|292:364,1,100
204,364,535908,1,0,0:0:0:0:
92,364,536075,1,0,0:0:0:0:
24,280,536242,1,0,0:0:0:0:
24,172,536408,6,0,L|24:60,1,100
139,23,536742,2,0,L|139:135,1,100
254,172,537075,2,0,L|254:60,1,100
369,23,537408,2,0,L|369:135,1,100
447,201,537742,6,0,L|511:201,2,50
369,278,538075,2,0,L|369:338,2,50
291,200,538408,1,0,0:0:0:0:
255,200,538492,1,0,0:0:0:0:
220,200,538575,1,0,0:0:0:0:
185,200,538658,1,0,0:0:0:0:
149,200,538742,1,0,0:0:0:0:
114,200,538825,1,0,0:0:0:0:
79,200,538908,1,0,0:0:0:0:
12,124,539075,5,0,0:0:0:0:
135,40,539242,1,0,0:0:0:0:
256,124,539408,1,0,0:0:0:0:
377,40,539575,1,0,0:0:0:0:
500,124,539742,1,0,0:0:0:0:
500,344,540075,5,0,0:0:0:0:
377,260,540242,1,0,0:0:0:0:
256,344,540408,1,0,0:0:0:0:
135,260,540575,1,0,0:0:0:0:
12,344,540742,1,0,0:0:0:0:
180,80,541075,5,0,0:0:0:0:
330,80,541242,1,0,0:0:0:0:
124,172,541408,1,0,0:0:0:0:
388,172,541575,1,0,0:0:0:0:
176,268,541742,6,0,L|176:368,1,100
336,268,542075,2,0,L|336:368,1,100
176,188,542408,2,0,L|48:188,1,100
336,188,542742,2,0,L|464:188,1,100
256,116,543075,1,0,0:0:0:0:
256,116,543242,2,0,L|256:328,2,200
178,38,544075,1,0,0:0:0:0:
100,115,544242,1,0,0:0:0:0:
22,192,544408,5,0,0:0:0:0:
108,316,544575,1,0,0:0:0:0:
256,348,544742,1,0,0:0:0:0:
404,316,544908,1,0,0:0:0:0:
490,192,545075,1,0,0:0:0:0:
490,192,545408,5,0,0:0:0:0:
404,68,545575,1,0,0:0:0:0:
256,36,545742,1,0,0:0:0:0:
108,68,545908,1,0,0:0:0:0:
22,192,546075,1,0,0:0:0:0:
204,268,546408,5,0,0:0:0:0:
204,118,546575,1,0,0:0:0:0:
296,324,546741,1,0,0:0:0:0:
296,60,546908,1,0,0:0:0:0:
372,192,547075,6,0,B|428:192|428:192|464:166,1,100
257,192,547408,2,8,B|201:192|201:192|164:217,1,100,0|0,0:0|0:0,0:0:0:0:
338,340,547742,2,8,B|313:304|313:304|313:248,1,100,0|0,0:0|0:0,3:0:0:0:
289,42,548075,2,8,B|315:79|315:79|315:135,1,100,0|0,0:0|0:0,0:0:0:0:
256,268,548408,5,0,0:0:0:0:
140,328,548575,2,0,L|28:328,1,100
8,192,548908,2,0,L|120:192,1,100
160,60,549242,1,0,0:0:0:0:
194,60,549325,1,0,0:0:0:0:
228,60,549408,1,0,0:0:0:0:
263,60,549492,1,0,0:0:0:0:
297,60,549575,1,0,0:0:0:0:
331,60,549658,1,0,0:0:0:0:
366,60,549742,6,0,P|464:108|456:216,1,200
364,168,550242,2,0,B|364:232|364:232|416:280|416:280|416:348,1,200,0|0,0:0|0:0,0:0:0:0:
305,345,550742,1,0,0:0:0:0:
248,252,550908,2,0,P|148:272|120:360,1,200
229,356,551408,1,0,0:0:0:0:
229,356,551575,2,0,L|268:136,1,200
356,100,552075,1,0,0:0:0:0:
204,63,552242,1,0,0:0:0:0:
176,55,552325,1,0,0:0:0:0:
146,48,552408,6,0,B|104:96|104:96|104:244,1,200
256,336,552908,2,0,B|214:288|214:288|214:140,1,200,0|0,0:0|0:0,0:0:0:0:
324,151,553408,1,0,0:0:0:0:
380,248,553575,6,0,L|348:348,1,100
480,252,553908,2,0,L|448:352,1,100
432,176,554242,2,0,P|384:100|468:4,1,200
432,176,554742,1,0,0:0:0:0:
508,96,554908,1,0,0:0:0:0:
508,96,554992,1,0,0:0:0:0:
508,96,555075,6,0,L|308:96,1,200
56,176,555575,2,0,L|256:176,1,200
333,253,556075,1,0,0:0:0:0:
256,332,556242,2,0,B|208:348|208:348|160:336,1,100
28,260,556575,2,0,B|76:244|76:244|124:256,1,100
256,332,556908,2,0,P|344:356|432:288,1,200
427,186,557408,2,0,L|427:74,1,100
328,40,557742,5,0,0:0:0:0:
184,149,557908,1,0,0:0:0:0:
184,40,558075,1,0,0:0:0:0:
328,149,558241,1,0,0:0:0:0:
108,92,558408,1,0,0:0:0:0:
108,92,558492,1,0,0:0:0:0:
108,92,558575,2,0,P|44:140|40:196,1,100
120,356,558908,2,0,B|188:356|188:356|248:332|248:332|316:332,1,200
425,332,559408,1,0,0:0:0:0:
368,236,559575,1,0,0:0:0:0:
257,236,559742,5,0,0:0:0:0:
243,202,559825,1,0,0:0:0:0:
231,170,559909,1,0,0:0:0:0:
219,138,559992,1,0,0:0:0:0:
207,106,560075,1,0,0:0:0:0:
171,106,560159,1,0,0:0:0:0:
136,106,560242,1,0,0:0:0:0:
101,106,560325,1,0,0:0:0:0:
66,106,560408,6,0,P|24:144|32:208,1,100
48,292,560742,1,0,0:0:0:0:
140,348,560908,2,0,B|264:348|264:348|328:300,1,200
324,192,561408,1,0,0:0:0:0:
324,81,561575,2,0,B|200:81|200:81|136:129,1,200
139,236,562075,1,0,0:0:0:0:
140,348,562242,2,0,L|344:348,1,200
416,268,562742,1,0,0:0:0:0:
488,192,562908,1,0,0:0:0:0:
488,192,562992,1,0,0:0:0:0:
488,192,563075,5,0,0:0:0:0:
436,96,563242,1,0,0:0:0:0:
496,208,563408,1,0,0:0:0:0:
428,80,563575,2,0,B|364:80|364:80|308:40|308:40|240:40,1,200
92,164,564075,1,0,0:0:0:0:
92,164,564242,2,0,B|156:164|156:164|212:124|212:124|280:124,1,200
428,248,564742,1,0,0:0:0:0:
428,248,564909,2,0,B|364:248|364:248|308:208|308:208|240:208,1,200
132,248,565408,5,0,0:0:0:0:
112,352,565575,1,0,0:0:0:0:
142,351,565658,1,0,0:0:0:0:
172,348,565742,2,0,P|240:300|220:192,1,200
128,136,566242,1,0,0:0:0:0:
205,58,566408,1,0,0:0:0:0:
205,58,566492,1,0,0:0:0:0:
205,58,566575,2,0,L|272:136,1,100
352,208,566908,6,0,P|420:196|440:64,1,200
344,112,567408,1,0,0:0:0:0:
288,284,567575,2,0,P|200:344|120:304,1,200
48,232,568075,1,0,0:0:0:0:
152,200,568242,1,0,0:0:0:0:
256,168,568408,5,0,0:0:0:0:
124,32,568575,1,0,0:0:0:0:
124,32,568742,2,0,B|184:48|184:48|208:80,1,100
388,32,569075,1,0,0:0:0:0:
388,32,569242,2,0,B|328:48|328:48|304:80,1,100
176,208,569575,6,0,P|258:259|336:208,1,200
335,98,570075,1,0,0:0:0:0:
428,156,570242,2,0,B|428:272|428:272|340:352,1,200
255,328,570742,1,0,0:0:0:0:
220,328,570825,1,0,0:0:0:0:
185,328,570908,1,0,0:0:0:0:
149,328,570992,1,0,0:0:0:0:
114,328,571075,1,0,0:0:0:0:
256,192,571160,12,0,573802,0:0:0:0:
212,192,576188,6,0,P|256:212|300:192,1,100
256,32,576529,6,0,L|256:136,1,100
356,240,576870,1,0,0:0:0:0:
356,240,577040,1,0,0:0:0:0:
96,192,577211,6,0,L|200:192,1,100
304,92,577552,1,0,0:0:0:0:
304,92,577722,1,0,0:0:0:0:
256,352,577893,6,0,L|256:248,1,100,0|0,0:0|0:0,0:0:0:0:
156,144,578234,1,0,0:0:0:0:
156,144,578404,1,0,0:0:0:0:
416,192,578575,6,0,L|312:192,1,100,0|0,0:0|0:0,0:0:0:0:
208,292,578916,1,0,0:0:0:0:
208,292,579086,1,0,0:0:0:0:
68,192,579256,6,0,B|68:144|68:144|104:104,1,100
188,192,579597,1,0,0:0:0:0:
188,192,579768,1,0,0:0:0:0:
256,8,579938,6,0,L|256:120,1,100
324,192,580279,1,0,0:0:0:0:
324,192,580450,1,0,0:0:0:0:
409,105,580620,6,0,B|444:144|444:144|444:192,1,100
404,304,580961,2,0,L|196:344,1,200
172,341,581387,1,0,0:0:0:0:
147,316,581472,1,0,0:0:0:0:
122,291,581557,1,0,0:0:0:0:
97,266,581643,1,0,0:0:0:0:
97,231,581728,1,0,0:0:0:0:
97,196,581813,1,0,0:0:0:0:
97,161,581898,1,0,0:0:0:0:
97,125,581984,6,0,B|112:52|196:52|196:52|256:205|256:205|316:52|316:52|400:52|415:125,1,600
420,160,583092,1,0,0:0:0:0:
424,196,583177,1,0,0:0:0:0:
340,344,583347,1,0,0:0:0:0:
340,344,583432,1,0,0:0:0:0:
340,344,583518,1,0,0:0:0:0:
256,196,583688,1,0,0:0:0:0:
256,196,583773,1,0,0:0:0:0:
256,196,583859,1,0,0:0:0:0:
172,344,584029,1,0,0:0:0:0:
172,344,584114,1,0,0:0:0:0:
172,344,584200,5,0,0:0:0:0:
140,336,584285,1,0,0:0:0:0:
112,312,584370,1,0,0:0:0:0:
100,280,584455,1,0,0:0:0:0:
96,244,584540,1,0,0:0:0:0:
104,208,584626,1,0,0:0:0:0:
124,180,584711,6,0,L|112:120,3,50
104,96,585052,1,0,0:0:0:0:
200,44,585222,2,0,P|248:56|296:44,1,100
408,44,585563,1,0,0:0:0:0:
424,76,585648,1,0,0:0:0:0:
440,108,585734,1,0,0:0:0:0:
456,140,585819,1,0,0:0:0:0:
472,172,585904,1,0,0:0:0:0:
488,204,585989,1,0,0:0:0:0:
472,236,586075,6,0,L|432:288,3,50
360,272,586415,2,0,L|299:297,3,50,0|0|0|0,0:0|0:0|0:0|0:0,0:0:0:0:
240,248,586756,1,0,0:0:0:0:
204,252,586842,1,0,0:0:0:0:
172,268,586927,1,0,0:0:0:0:
152,296,587012,1,0,0:0:0:0:
144,328,587097,1,0,0:0:0:0:
304,376,587268,1,0,0:0:0:0:
392,236,587438,6,0,B|392:172|392:172|440:112|440:112|440:48,1,200
329,52,587950,1,0,0:0:0:0:
264,140,588120,2,0,P|200:152|156:132,1,100
84,68,588461,1,0,0:0:0:0:
48,196,588631,2,0,P|104:296|188:300,1,200
256,220,589143,1,0,0:0:0:0:
332,300,589313,2,0,B|440:300|440:300|508:228,1,200
503,233,589739,1,0,0:0:0:0:
503,233,589825,1,0,0:0:0:0:
476,64,589995,6,0,P|416:88|404:136,1,100
404,152,590251,1,0,0:0:0:0:
404,188,590336,1,0,0:0:0:0:
404,320,590506,6,0,P|344:296|332:248,1,100
332,232,590762,1,0,0:0:0:0:
332,196,590847,1,0,0:0:0:0:
316,56,591018,6,0,P|264:28|144:84,1,200
240,140,591529,2,0,P|189:171|178:302,1,200
274,247,592040,2,0,P|275:306|384:381,1,200
464,308,592552,1,0,0:0:0:0:
472,200,592722,1,0,0:0:0:0:
432,96,592893,5,0,0:0:0:0:
432,96,592978,1,0,0:0:0:0:
432,96,593063,2,0,L|376:96,1,50
328,152,593234,5,0,0:0:0:0:
328,152,593319,1,0,0:0:0:0:
328,152,593404,2,0,L|272:152,1,50
224,96,593575,5,0,0:0:0:0:
224,96,593660,1,0,0:0:0:0:
224,96,593745,2,0,L|168:96,1,50
120,152,593915,5,0,0:0:0:0:
120,152,594000,1,0,0:0:0:0:
120,152,594085,2,0,L|64:152,1,50
32,228,594256,5,0,0:0:0:0:
32,228,594342,1,0,0:0:0:0:
32,228,594427,2,0,L|32:300,1,50
120,316,594597,5,0,0:0:0:0:
120,316,594683,1,0,0:0:0:0:
120,316,594768,2,0,L|120:244,1,50
208,228,594938,5,0,0:0:0:0:
208,228,595024,1,0,0:0:0:0:
208,228,595109,2,0,L|208:300,1,50
296,316,595279,5,0,0:0:0:0:
296,316,595365,1,0,0:0:0:0:
296,316,595450,2,0,L|296:244,1,50
296,181,595620,5,0,0:0:0:0:
404,204,595790,2,0,P|404:140|240:84,1,250
192,112,596302,6,0,L|92:112,1,100
16,192,596643,1,0,0:0:0:0:
16,192,596728,1,0,0:0:0:0:
16,192,596813,2,0,L|16:248,1,50
16,324,596984,5,0,0:0:0:0:
16,116,597154,1,0,0:0:0:0:
136,196,597325,1,0,0:0:0:0:
170,196,597410,1,0,0:0:0:0:
204,196,597495,1,0,0:0:0:0:
238,196,597580,1,0,0:0:0:0:
272,196,597665,1,0,0:0:0:0:
307,196,597751,1,0,0:0:0:0:
341,196,597836,1,0,0:0:0:0:
408,284,598006,5,0,0:0:0:0:
468,192,598177,1,0,0:0:0:0:
468,192,598262,1,0,0:0:0:0:
468,192,598347,2,0,L|468:84,1,100
340,20,598688,2,0,L|340:128,1,100
212,192,599029,2,0,L|212:84,1,100
84,20,599370,2,0,L|84:128,1,100
84,364,599711,6,0,B|126:340|126:340|128:288,1,100
168,116,600052,2,0,B|210:139|210:139|211:190,1,100,0|0,0:0|0:0,0:0:0:0:
252,364,600393,2,0,B|294:340|294:340|295:289,1,100,0|0,0:0|0:0,0:0:0:0:
336,116,600734,2,0,B|378:139|378:139|379:190,1,100,0|0,0:0|0:0,0:0:0:0:
464,348,601075,6,0,L|360:348,1,100
208,248,601415,2,0,L|308:248,1,100
152,148,601756,2,0,L|52:148,1,100
180,52,602097,1,0,0:0:0:0:
252,136,602268,2,0,P|312:148|400:48,1,200
252,136,602779,2,0,L|244:244,1,100
368,212,603120,2,0,L|360:320,1,100
480,152,603461,1,0,0:0:0:0:
480,320,603631,5,0,0:0:0:0:
480,320,603717,1,0,0:0:0:0:
480,320,603802,2,0,B|424:344|424:344|384:324,1,100
200,248,604143,2,0,B|256:272|256:272|296:252,1,100
480,176,604484,2,0,B|424:200|424:200|384:180,1,100
200,104,604825,2,0,B|256:128|256:128|296:108,1,100
136,24,605165,6,0,P|104:60|96:112,1,100
95,310,605506,2,0,L|95:210,1,100
176,368,605847,2,0,L|176:268,1,100
255,310,606188,2,0,L|255:210,1,100
256,96,606529,5,0,0:0:0:0:
339,240,606700,1,0,0:0:0:0:
172,239,606870,1,0,0:0:0:0:
311,102,607040,5,0,0:0:0:0:
305,285,607211,1,0,0:0:0:0:
150,188,607381,1,0,0:0:0:0:
360,141,607552,5,0,0:0:0:0:
247,307,607723,1,0,0:0:0:0:
159,127,607893,1,0,0:0:0:0:
383,205,608063,5,0,0:0:0:0:
180,295,608234,1,0,0:0:0:0:
204,75,608404,1,0,0:0:0:0:
256,192,608575,5,0,0:0:0:0:
256,192,608660,1,0,0:0:0:0:
256,192,608745,1,0,0:0:0:0:
256,192,608830,1,0,0:0:0:0:
256,192,608915,1,0,0:0:0:0:
256,192,609001,1,0,0:0:0:0:
256,192,609086,1,0,0:0:0:0:
256,192,609171,1,0,0:0:0:0:
256,340,609938,6,0,B|320:340|320:340|376:292|376:292|440:292,1,200
256,340,610449,2,0,B|192:340|192:340|136:292|136:292|72:292,1,200
4,376,610960,1,0,0:0:0:0:
124,204,611131,6,0,P|156:128|84:44,1,200
40,144,611642,1,0,0:0:0:0:
40,144,611813,2,0,L|244:92,1,200
373,133,612324,1,0,0:0:0:0:
388,284,612494,1,0,0:0:0:0:
388,284,612580,1,0,0:0:0:0:
388,284,612665,6,0,P|336:348|224:328,1,200
40,204,613176,2,0,P|92:268|204:248,1,200,0|0,0:0|0:0,0:0:0:0:
256,156,613688,1,0,0:0:0:0:
188,72,613858,2,0,L|88:72,1,100
324,72,614199,2,0,L|424:72,1,100
500,192,614540,2,0,B|360:192|360:192|304:232,1,200
228,312,615051,1,0,0:0:0:0:
115,320,615222,1,0,0:0:0:0:
115,320,615307,1,0,0:0:0:0:
115,320,615392,6,0,L|115:120,1,200
256,32,615903,2,0,L|256:232,1,200
344,300,616415,1,0,0:0:0:0:
432,232,616585,2,0,P|460:196|456:144,1,100
356,48,616926,2,0,P|328:84|332:136,1,100
432,232,617267,2,0,P|364:280|260:248,1,200
176,176,617778,2,0,B|132:156|132:156|84:176,1,100
100,344,618119,5,0,0:0:0:0:
192,344,618290,1,0,0:0:0:0:
32,268,618460,1,0,0:0:0:0:
260,268,618631,1,0,0:0:0:0:
96,192,618801,1,0,0:0:0:0:
96,192,618886,1,0,0:0:0:0:
96,192,618972,2,0,L|60:84,1,100
228,96,619313,2,0,L|196:190,1,100
156,292,619653,1,0,0:0:0:0:
232,372,619824,1,0,0:0:0:0:
336,344,619994,1,0,0:0:0:0:
400,252,620165,5,0,0:0:0:0:
400,217,620250,1,0,0:0:0:0:
400,182,620335,1,0,0:0:0:0:
400,147,620420,1,0,0:0:0:0:
400,112,620506,1,0,0:0:0:0:
372,92,620591,1,0,0:0:0:0:
340,76,620676,1,0,0:0:0:0:
308,60,620761,1,0,0:0:0:0:
276,44,620847,6,0,P|216:76|208:120,1,100
256,204,621188,1,0,0:0:0:0:
220,308,621358,2,0,B|72:308|72:308|40:264,1,200
124,192,621869,1,0,0:0:0:0:
41,118,622040,2,0,B|72:76|72:76|220:76,1,200
330,76,622551,1,0,0:0:0:0:
440,76,622722,2,0,B|440:138|440:138|392:194|392:194|392:258,1,200
392,368,623233,1,0,0:0:0:0:
252,308,623403,1,0,0:0:0:0:
220,292,623489,1,0,0:0:0:0:
188,276,623574,6,0,L|128:360,2,100
116,192,624085,2,0,L|8:192,1,100
188,108,624426,2,0,L|128:24,1,100
324,108,624767,2,0,L|384:24,1,100
396,192,625108,2,0,L|504:192,1,100
324,276,625449,2,0,B|384:360|384:360|492:360,1,200
324,276,625960,1,0,0:0:0:0:
256,364,626131,1,0,0:0:0:0:
188,276,626301,6,0,B|128:360|128:360|20:360,2,200
260,192,627153,1,0,0:0:0:0:
188,108,627324,1,0,0:0:0:0:
60,192,627494,2,0,L|260:192,1,200
370,192,628006,1,0,0:0:0:0:
436,312,628176,6,0,P|380:336|324:320,1,100
76,312,628517,2,0,P|132:336|188:320,1,100
256,264,628858,1,0,0:0:0:0:
256,156,629028,5,0,0:0:0:0:
144,64,629199,1,0,0:0:0:0:
144,64,629369,2,0,B|173:101|173:101|173:153,1,100
368,64,629710,1,0,0:0:0:0:
368,64,629880,2,0,B|338:101|338:101|338:153,1,100
460,128,630222,6,0,L|460:328,1,200
344,360,630733,1,0,0:0:0:0:
260,276,630903,2,0,B|112:276|112:276|56:240,1,200
68,247,631330,1,0,0:0:0:0:
68,247,631415,1,0,0:0:0:0:
75,144,631585,1,0,0:0:0:0:
116,40,631756,6,0,L|220:40,1,100
396,40,632097,2,0,L|292:40,1,100
116,116,632438,2,0,L|220:116,1,100
396,116,632779,2,0,L|292:116,1,100
116,268,633119,6,0,L|220:268,1,100
396,268,633460,2,0,L|292:268,1,100
116,344,633801,2,0,L|220:344,1,100
396,344,634142,2,0,L|292:344,1,100
168,204,634483,6,0,B|136:204|136:204|112:180|112:180|76:180,1,100
344,180,634824,2,0,B|376:180|376:180|400:204|400:204|436:204,1,100
244,104,635165,2,0,B|244:72|244:72|268:48|268:48|268:12,1,100
268,280,635506,2,0,B|268:312|268:312|244:336|244:336|244:372,1,100
168,204,635847,6,0,L|136:100,1,100
344,180,636188,2,0,L|376:284,1,100
244,104,636528,2,0,L|348:72,1,100
268,280,636869,2,0,L|164:312,1,100
44,204,637210,6,0,B|44:140|44:140|76:104,1,100
178,113,637551,1,0,0:0:0:0:
256,191,637722,1,0,0:0:0:0:
333,113,637892,2,0,L|448:112,1,100
511,190,638233,1,0,0:0:0:0:
433,267,638403,1,0,0:0:0:0:
322,267,638574,6,0,L|256:344,1,100
88,340,638915,2,0,L|154:263,1,100
253,191,639256,1,0,0:0:0:0:
253,156,639341,1,0,0:0:0:0:
253,120,639426,1,0,0:0:0:0:
253,84,639511,1,0,0:0:0:0:
256,48,639597,1,0,0:0:0:0:
256,84,639682,1,0,0:0:0:0:
256,120,639767,1,0,0:0:0:0:
256,156,639852,1,0,0:0:0:0:
256,191,639938,1,0,0:0:0:0:
256,192,639954,12,0,641317,0:0:0:0:
256,324,649498,5,0,0:0:0:0:
256,324,649669,1,0,0:0:0:0:
376,212,650010,1,0,0:0:0:0:
376,212,650096,1,0,0:0:0:0:
376,212,650181,1,0,0:0:0:0:
300,244,650351,1,0,0:0:0:0:
252,176,650522,1,0,0:0:0:0:
212,244,650692,1,0,0:0:0:0:
136,212,650863,6,0,P|100:168|128:80,1,150.000005722046
205,84,651374,1,0,0:0:0:0:
287,84,651544,2,0,B|359:84|359:124|431:124,1,150.000005722046
400,40,652056,1,0,0:0:0:0:
400,40,652226,2,0,P|348:88|364:180,1,150.000005722046
412,220,652737,1,0,0:0:0:0:
412,220,652908,2,0,P|415:294|360:344,1,150.000005722046
292,300,653419,1,0,0:0:0:0:
220,340,653589,6,0,P|192:360|136:360,1,75.0000028610231
92,308,653931,2,0,P|120:288|176:288,1,75.0000028610231
92,308,654272,2,0,P|48:244|52:172,1,150.000005722046
104,108,654782,1,0,0:0:0:0:
172,156,654953,6,0,P|208:140|236:112,1,75.0000028610231
260,36,655294,1,0,0:0:0:0:
260,36,655464,1,0,0:0:0:0:
319,172,655635,2,0,P|323:132|312:94,1,75.0000028610231
260,36,655976,1,0,0:0:0:0:
260,36,656146,1,0,0:0:0:0:
364,36,656317,6,0,L|456:36,1,75.0000028610231
484,120,656658,2,0,L|392:120,1,75.0000028610231
364,204,656999,2,0,L|456:204,1,75.0000028610231
484,288,657340,6,0,L|496:344,2,50.0000019073487
412,320,657681,2,0,L|394:374,2,50.0000019073487
333,311,658022,2,0,L|290:349,2,50.0000019073487
268,264,658363,2,0,P|204:280|128:248,1,150.000005722046
68,192,658874,1,0,0:0:0:0:
72,108,659044,6,0,P|104:72|144:68,1,75.0000028610231
192,120,659385,2,0,P|216:114|248:78,1,75.0000028610231,0|0,0:0|0:0,0:0:0:0:
316,32,659726,2,0,P|404:48|448:120,1,150.000005722046
408,168,660238,1,0,0:0:0:0:
468,224,660408,6,0,L|468:300,1,75.0000028610231
420,368,660749,1,0,0:0:0:0:
420,368,660919,1,0,0:0:0:0:
384,224,661090,2,0,L|384:300,1,75.0000028610231
336,368,661431,1,0,0:0:0:0:
336,368,661601,1,0,0:0:0:0:
260,332,661772,6,0,P|204:316|124:360,2,150.000005722046
336,368,662624,2,0,L|352:280,1,75.0000028610231
408,236,662965,1,0,0:0:0:0:
408,236,663135,2,0,P|360:164|280:152,1,150.000005722046
228,188,663647,1,0,0:0:0:0:
228,188,663817,2,0,P|276:136|264:52,1,150.000005722046
200,108,664328,1,0,0:0:0:0:
148,172,664499,6,0,P|116:200|64:208,1,75.0000028610231
44,280,664840,2,0,P|76:308|128:316,1,75.0000028610231
106,316,665095,1,0,0:0:0:0:
106,316,665181,2,0,L|44:368,1,75.0000028610231
168,272,665522,1,0,0:0:0:0:
168,272,665692,2,0,P|232:252|304:292,1,150.000005722046
228,324,666203,2,0,P|240:232|304:204,2,150.000005722046
296,372,667056,1,0,0:0:0:0:
376,360,667215,6,0,P|408:336|421:302,1,75.0000028610231
500,332,667552,2,0,P|509:293|496:259,1,75.0000028610231
424,220,667889,2,0,P|380:140|412:78,1,150.000005722046
464,144,668394,1,0,0:0:0:0:
464,144,668563,2,0,L|300:176,2,150.000005722046
500,68,669406,1,0,0:0:0:0:
500,68,669574,2,0,P|456:40|411:48,1,75.0000028610231
360,76,669911,6,0,P|288:120|220:108,1,150.000005722046
168,52,670416,1,0,0:0:0:0:
144,132,670585,2,0,L|104:276,1,150.000005722046
52,344,671090,1,0,0:0:0:0:
52,344,671259,2,0,P|120:304|212:332,1,150.000005722046
256,364,671764,1,0,0:0:0:0:
324,320,671933,1,0,0:0:0:0:
392,364,672102,1,0,0:0:0:0:
460,316,672270,1,0,0:0:0:0:
472,292,672354,1,0,0:0:0:0:
476,264,672439,1,0,0:0:0:0:
472,240,672523,1,0,0:0:0:0:
464,220,672607,6,0,P|424:176|424:84,2,150.000005722046
392,256,673450,2,0,L|320:296,1,75.0000028610231
252,332,673788,1,0,0:0:0:0:
176,364,673955,2,0,P|96:368|44:316,1,150.000005722046
128,296,674462,1,0,0:0:0:0:
128,296,674629,2,0,P|199:259|218:188,1,150.000005722046
152,148,675135,1,0,0:0:0:0:
176,68,675304,6,0,P|208:44|264:40,1,75.0000028610231
300,176,675641,2,0,P|263:160|231:113,1,75.0000028610231
332,84,675979,2,0,P|392:144|392:208,1,150.000005722046
468,236,676483,2,0,P|380:240|340:292,1,150.000005722046
364,364,676989,1,0,0:0:0:0:
256,240,677326,1,0,0:0:0:0:
148,364,677663,1,0,0:0:0:0:
68,336,677831,1,0,0:0:0:0:
132,284,678000,6,0,P|160:204|124:148,1,150.000005722046
88,220,678507,1,0,0:0:0:0:
88,220,678674,2,0,P|176:216|208:164,2,150.000005722046
28,164,679517,1,0,0:0:0:0:
100,124,679686,2,0,P|128:92|128:52,1,75.0000028610231
100,124,680023,2,0,P|176:168|236:152,1,150.000005722046
296,100,680528,1,0,0:0:0:0:
356,44,680698,6,0,P|420:88|432:164,1,150.000005722046
380,216,681202,1,0,0:0:0:0:
380,216,681371,2,0,P|393:283|457:327,1,150.000005722046,0|0,0:0|0:0,0:0:0:0:
465,335,681876,1,0,0:0:0:0:
465,335,682045,2,0,L|304:364,1,150.000005722046
228,364,682552,1,0,0:0:0:0:
144,360,682719,1,0,0:0:0:0:
72,320,682889,1,0,0:0:0:0:
32,248,683056,1,0,0:0:0:0:
24,224,683140,1,0,0:0:0:0:
20,196,683226,1,0,0:0:0:0:
24,168,683309,1,0,0:0:0:0:
32,144,683393,6,0,L|72:80,1,75.0000028610231
144,140,683726,2,0,L|184:76,1,75.0000028610231
256,136,684059,2,0,L|296:72,1,75.0000028610231
368,132,684393,2,0,L|408:68,1,75.0000028610231
480,128,684726,2,0,P|460:208|396:240,1,150.000005722046
324,216,685226,1,0,0:0:0:0:
324,216,685393,2,0,P|276:260|272:344,1,150.000005722046
188,340,685893,1,0,0:0:0:0:
104,336,686059,6,0,P|60:328|28:296,1,75.0000028610231
104,260,686393,2,0,P|148:252|180:220,1,75.0000028610231
104,184,686726,2,0,P|60:176|28:144,1,75.0000028610231
104,108,687059,2,0,P|148:100|180:68,1,75.0000028610231
256,36,687393,6,0,P|308:44|336:80,1,75.0000028610231
372,124,687726,1,0,0:0:0:0:
312,184,687893,1,0,0:0:0:0:
312,184,687976,1,0,0:0:0:0:
312,184,688059,2,0,L|312:276,1,75.0000028610231
376,312,688393,2,0,P|352:348|312:360,1,75.0000028610231
392,232,688726,6,0,P|416:196|456:184,1,75.0000028610231
314,258,689057,2,0,P|270:255|240:226,1,75.0000028610231,0|0,0:0|0:0,0:0:0:0:
376,312,689388,2,0,P|395:350|385:391,1,75.0000028610231,0|0,0:0|0:0,0:0:0:0:
296,336,689720,2,0,L|136:368,1,150.000005722046
36,244,690383,6,0,L|36:160,1,75.0000028610231
88,104,690714,2,0,P|168:92|232:140,1,150.000005722046
256,204,691212,1,0,0:0:0:0:
304,140,691377,6,0,P|340:124|392:128,1,75.0000028610231
440,224,691709,2,0,P|404:208|352:212,1,75.0000028610231
312,296,692040,2,0,P|388:296|448:348,1,150.000005722046
443,340,692538,1,0,0:0:0:0:
272,372,692703,6,0,P|236:336|228:296,1,75.0000028610231
208,180,693035,2,0,P|172:216|164:256,1,75.0000028610231
140,372,693366,2,0,P|76:320|64:252,1,150.000005722046
72,232,693781,1,0,0:0:0:0:
76,208,693864,1,0,0:0:0:0:
76,184,693946,1,0,0:0:0:0:
72,160,694029,6,0,P|60:128|28:100,1,75.0000028610231
144,96,694361,2,0,P|156:64|188:36,1,75.0000028610231
280,168,694692,2,0,P|268:136|236:108,1,75.0000028610231
352,232,695024,2,0,P|364:200|396:172,1,75.0000028610231
393,173,695272,1,0,0:0:0:0:
393,173,695355,2,0,L|364:100,1,75.0000028610231
476,164,695687,2,0,P|496:212|436:304,1,150.000005722046
256,352,696350,6,0,P|176:352|116:304,2,150.000005722046
308,288,697179,1,0,0:0:0:0:
228,268,697344,2,0,P|188:260|164:236,1,75.0000028610231
284,116,697676,2,0,P|324:124|348:148,1,75.0000028610231
196,144,698007,2,0,P|200:68|268:28,1,150.000005722046
336,48,698505,5,0,0:0:0:0:
336,48,698587,1,0,0:0:0:0:
336,48,698670,2,0,P|400:68|492:32,2,150.000005722046
128,24,699665,1,0,0:0:0:0:
56,64,699830,1,0,0:0:0:0:
32,144,699996,2,0,P|52:220|116:256,1,150.000005722046
180,212,700493,1,0,0:0:0:0:
236,272,700659,6,0,P|264:296|312:300,1,75.0000028610231
412,192,700991,2,0,P|384:216|347:222,1,75.0000028610231,0|0,0:0|0:0,0:0:0:0:
236,112,701322,2,0,P|264:136|312:140,1,75.0000028610231
411,32,701654,2,0,P|383:56|335:60,1,75.0000028610231
256,32,701985,5,0,0:0:0:0:
256,32,702317,1,0,0:0:0:0:
256,352,703311,5,0,0:0:0:0:
256,352,703643,1,0,0:0:0:0:
180,336,703974,5,0,0:0:0:0:
108,316,704306,5,0,0:0:0:0:
40,228,704637,6,0,P|28:176|40:128,1,75.0000028610231
112,172,704969,2,0,P|127:120|162:85,1,75.0000028610231
184,220,705300,2,0,P|268:240|332:200,1,150.000005722046
248,168,705797,2,0,L|260:320,1,150.000005722046
188,360,706295,1,0,0:0:0:0:
259,317,706460,2,0,P|344:308|400:344,1,150.000005722046
480,348,706958,2,0,P|472:300|436:264,1,75.0000028610231
388,232,707289,6,0,L|444:172,1,75.0000028610231
384,64,707621,2,0,L|328:124,1,75.0000028610231
256,192,707952,2,0,P|176:196|128:140,1,150.000005722046
168,76,708449,2,0,L|51:170,1,150.000005722046
96,240,708946,1,0,0:0:0:0:
44,304,709112,2,0,P|104:360|168:352,1,150.000005722046
216,288,709609,1,0,0:0:0:0:
288,328,709775,1,0,0:0:0:0:
344,268,709941,6,0,P|408:232|492:256,1,150.000005722046
424,312,710438,1,0,0:0:0:0:
424,312,710604,2,0,L|396:152,1,150.000005722046
428,88,711101,1,0,0:0:0:0:
352,52,711267,2,0,P|304:40|256:48,1,75.0000028610231
212,128,711598,2,0,P|260:116|308:124,1,75.0000028610231
376,188,711930,6,0,L|224:256,1,150.000005722046
164,284,712427,1,0,0:0:0:0:
84,256,712593,2,0,P|60:232|48:180,1,75.0000028610231
128,184,712924,2,0,P|125:150|149:102,1,75.0000028610231
192,48,713256,6,0,P|256:96|328:92,1,150.000005722046
392,52,713753,1,0,0:0:0:0:
460,96,713919,2,0,L|460:176,1,75.0000028610231
392,292,714250,2,0,L|392:212,1,75.0000028610231
324,96,714582,2,0,L|324:176,1,75.0000028610231
256,280,714913,1,0,0:0:0:0:
236,296,714996,1,0,0:0:0:0:
212,304,715079,1,0,0:0:0:0:
184,304,715162,1,0,0:0:0:0:
160,296,715245,6,0,P|112:264|92:232,1,75.0000028610231
68,176,715576,1,0,0:0:0:0:
72,92,715742,1,0,0:0:0:0:
144,136,715908,2,0,P|228:136|268:88,1,150.000005722046
228,16,716405,2,0,L|352:120,1,150.000005722046
408,160,716902,1,0,0:0:0:0:
368,232,717068,1,0,0:0:0:0:
368,232,717151,1,0,0:0:0:0:
368,232,717234,2,0,L|400:304,1,75.0000028610231
344,364,717565,6,0,P|292:364|264:344,1,75.0000028610231
216,292,717897,1,0,0:0:0:0:
144,332,718063,1,0,0:0:0:0:
84,276,718228,2,0,P|64:228|68:192,1,75.0000028610231
12,144,718560,2,0,P|72:100|164:112,1,150.000005722046
212,148,719057,1,0,0:0:0:0:
212,148,719223,2,0,P|284:150|344:106,1,150.000005722046
384,32,719720,2,0,L|500:140,1,150.000005722046
408,172,720217,2,0,L|468:224,1,75.0000028610231
448,304,720549,6,0,P|372:344|292:320,1,150.000005722046
256,272,721046,1,0,0:0:0:0:
256,192,721212,12,0,723201,0:0:0:0:
146,259,724503,5,0,0:0:0:0:
146,109,724668,1,0,0:0:0:0:
276,184,724834,1,0,0:0:0:0:
103,184,725000,5,0,0:0:0:0:
103,184,725083,1,0,0:0:0:0:
103,184,725165,1,0,0:0:0:0:
233,259,725331,1,0,0:0:0:0:
233,109,725497,1,0,0:0:0:0:
229,74,725579,1,0,0:0:0:0:
211,44,725662,1,0,0:0:0:0:
182,26,725746,1,0,0:0:0:0:
147,21,725828,6,0,L|39:21,2,100
256,108,726326,1,0,0:0:0:0:
365,108,726491,2,0,L|465:108,2,100
256,193,726989,1,0,0:0:0:0:
146,193,727154,2,0,L|46:193,2,100
256,276,727652,1,0,0:0:0:0:
365,276,727817,2,0,L|465:276,2,100
256,356,728315,5,0,0:0:0:0:
148,352,728480,2,0,P|88:344|56:312,2,100
256,276,728978,1,0,0:0:0:0:
364,352,729143,2,0,P|424:344|456:312,2,100
176,272,729641,1,0,0:0:0:0:
180,164,729806,2,0,P|216:108|264:96,1,100
332,220,730138,2,0,P|296:276|248:288,1,100
336,112,730469,2,0,P|420:136|448:244,1,200
396,332,730967,1,0,0:0:0:0:
256,356,731132,6,0,P|192:360|128:336,1,100
16,260,731464,2,0,P|80:264|144:240,1,100
256,164,731795,2,0,P|192:168|128:144,1,100
16,68,732127,2,0,P|80:72|144:48,1,100
256,24,732458,6,0,P|316:28|352:56,1,100
180,224,732790,2,0,P|153:170|159:124,1,100
332,160,733121,2,0,P|358:213|352:259,1,100
256,360,733453,2,0,P|196:356|160:328,1,100
32,152,733784,6,0,L|140:152,1,100
480,152,734116,2,0,L|372:152,1,100
96,60,734447,2,0,L|208:60,1,100
416,60,734779,2,0,L|304:60,1,100
212,152,735110,1,0,0:0:0:0:
320,192,735276,1,0,0:0:0:0:
172,232,735442,1,0,0:0:0:0:
360,272,735607,1,0,0:0:0:0:
132,312,735773,2,0,P|216:360|300:312,1,200
408,192,736270,5,0,0:0:0:0:
408,192,736353,1,0,0:0:0:0:
408,192,736436,2,0,P|424:136|400:88,1,100
320,36,736768,1,0,0:0:0:0:
256,124,736933,1,0,0:0:0:0:
192,36,737099,2,0,P|120:32|80:68,1,100
36,200,737431,2,0,P|108:204|148:168,1,100
256,124,737762,6,0,P|316:144|328:280,1,200
252,336,738259,1,0,0:0:0:0:
140,336,738425,2,0,L|48:288,1,100
48,168,738757,2,0,L|140:216,1,100
256,284,739088,6,0,P|348:288|404:192,1,200
356,108,739585,1,0,0:0:0:0:
256,284,739751,2,0,P|164:288|108:192,1,200
156,108,740248,1,0,0:0:0:0:
320,200,740414,6,0,P|376:204|428:172,1,100
192,16,740746,2,0,P|136:12|84:44,1,100
72,52,740994,1,0,0:0:0:0:
56,84,741077,2,0,L|56:188,1,100
192,352,741409,2,0,L|192:248,1,100
188,84,741740,5,0,0:0:0:0:
256,244,741906,1,0,0:0:0:0:
324,84,742072,2,0,P|380:92|412:140,1,100
336,276,742403,2,0,P|314:223|340:171,1,100
328,184,742652,1,0,0:0:0:0:
328,184,742735,2,0,L|232:212,1,100
32,172,743066,6,0,L|128:144,1,100
184,348,743398,2,0,P|132:368|72:352,1,100
241,289,743729,2,0,P|293:269|336:276,1,100,0|0,0:0|0:0,0:0:0:0:
452,356,744061,2,0,P|488:296|416:192,1,200
328,244,744558,1,0,0:0:0:0:
256,160,744723,2,0,P|200:168|172:216,1,100
328,244,745055,6,0,P|368:160|320:68,2,200
256,328,745884,1,0,0:0:0:0:
184,244,746049,2,0,L|72:244,1,100
60,220,746298,1,0,0:0:0:0:
44,188,746381,2,0,P|36:136|56:88,1,100
184,244,746712,2,0,P|192:296|172:344,1,100
176,152,747044,6,0,L|284:152,1,100
376,244,747375,2,0,L|268:244,1,100,0|0,0:0|0:0,0:0:0:0:
376,152,747707,2,0,L|476:152,1,100
376,332,748038,2,0,L|176:332,1,200
68,372,748536,1,0,0:0:0:0:
36,264,748701,2,0,P|32:208|72:148,1,100
68,60,749033,2,0,P|144:84|156:208,1,200
120,292,749530,1,0,0:0:0:0:
256,216,749696,6,0,P|264:136|216:28,1,200
80,152,750193,1,0,0:0:0:0:
256,215,750359,2,0,P|335:201|425:125,1,200
468,24,750856,1,0,0:0:0:0:
468,204,751022,6,0,L|468:304,1,100
324,360,751353,2,0,L|324:260,1,100
324,260,751602,1,0,0:0:0:0:
324,260,751685,2,0,P|268:296|216:288,1,100
88,208,752016,2,0,P|144:172|196:180,1,100
324,260,752348,6,0,L|391:334,1,100
256,172,752679,1,0,0:0:0:0:
324,84,752845,1,0,0:0:0:0:
228,28,753011,2,0,P|160:48|128:76,1,100
160,172,753342,2,0,P|120:231|114:273,1,100,0|0,0:0|0:0,0:0:0:0:
216,344,753674,6,0,P|296:360|384:284,1,200
332,192,754171,1,0,0:0:0:0:
382,94,754337,2,0,P|296:24|216:40,1,200
256,144,754834,1,0,0:0:0:0:
148,132,755000,2,0,P|112:88|104:36,1,100
188,228,755331,2,0,P|167:281|126:314,1,100
268,292,755663,2,0,P|368:280|448:368,1,200
336,376,756160,1,0,0:0:0:0:
268,292,756326,6,0,L|276:192,1,100
276,156,756574,1,0,0:0:0:0:
268,124,756657,1,0,0:0:0:0:
216,52,756823,1,0,0:0:0:0:
108,36,756989,1,0,0:0:0:0:
4,112,757154,1,0,0:0:0:0:
8,264,757320,1,0,0:0:0:0:
140,372,757486,1,0,0:0:0:0:
332,368,757652,6,0,P|428:328|416:240,1,200
256,192,758149,1,0,0:0:0:0:
91,138,758315,2,0,P|84:56|180:16,1,200
256,192,758812,1,0,0:0:0:0:
180,368,758978,2,0,P|84:328|91:245,1,200
256,192,759475,1,0,0:0:0:0:
420,138,759641,2,0,P|428:56|332:16,1,200
256,96,760138,1,0,0:0:0:0:
344,188,760304,6,0,L|496:328,1,200
396,376,760801,1,0,0:0:0:0:
312,304,760967,2,0,P|252:316|224:352,1,100
117,343,761298,2,0,P|92:315|32:303,1,100
32,303,761547,1,0,0:0:0:0:
32,303,761630,2,0,L|80:200,1,100
74,212,761878,1,0,0:0:0:0:
74,212,761961,2,0,L|48:104,1,100
16,16,762293,5,0,0:0:0:0:
136,12,762458,1,0,0:0:0:0:
244,72,762624,1,0,0:0:0:0:
256,192,762790,1,0,0:0:0:0:
204,300,762956,6,0,P|124:352|40:292,1,200
256,192,763453,1,0,0:0:0:0:
308,300,763619,2,0,P|388:352|472:292,1,200
256,192,764116,1,0,0:0:0:0:
120,168,764282,2,0,P|44:128|48:24,1,200
256,192,764779,1,0,0:0:0:0:
392,168,764944,2,0,P|468:128|464:24,1,200
360,72,765442,1,0,0:0:0:0:
256,120,765607,6,0,P|192:120|120:8,1,200
232,24,766105,1,0,0:0:0:0:
232,24,766270,2,0,L|112:188,1,200
40,268,766768,1,0,0:0:0:0:
60,296,766851,1,0,0:0:0:0:
88,328,766933,2,0,P|136:344|180:328,1,100
180,327,767182,1,0,0:0:0:0:
180,328,767265,2,0,P|228:312|272:328,1,100
368,360,767596,6,0,L|456:296,1,100
352,192,767928,2,0,L|378:86,1,100,0|0,0:0|0:0,0:0:0:0:
204,72,768259,6,0,L|-12:72,1,200
256,192,768757,1,0,0:0:0:0:
308,72,768922,2,0,L|524:72,1,200
256,260,769420,1,0,0:0:0:0:
204,140,769585,2,0,L|-12:140,1,200
256,260,770083,1,0,0:0:0:0:
308,140,770248,2,0,L|524:140,1,200
508,250,770746,1,0,0:0:0:0:
436,332,770911,6,0,P|360:340|328:312,1,100
256,260,771243,2,0,P|239:249|163:257,1,100,0|0,0:0|0:0,0:0:0:0:
112,356,771574,2,0,P|56:276|88:176,1,200
160,108,772072,1,0,0:0:0:0:
256,164,772237,6,0,P|296:120|296:72,1,100
156,208,772569,2,0,P|174:264|215:288,1,100
308,324,772900,1,0,0:0:0:0:
412,292,773066,1,0,0:0:0:0:
456,192,773232,1,0,0:0:0:0:
412,92,773398,1,0,0:0:0:0:
308,60,773563,6,0,L|208:60,1,100
204,324,773895,2,0,L|304:324,1,100
124,140,774226,2,0,L|124:240,1,100
388,244,774558,2,0,L|388:144,1,100
144,60,774889,6,0,P|88:64|48:108,1,100
124,304,775221,2,0,P|128:360|172:400,1,100
368,324,775552,2,0,P|424:320|464:276,1,100
388,80,775884,2,0,P|384:24|340:-16,1,100
256,56,776215,5,0,0:0:0:0:
192,144,776381,1,0,0:0:0:0:
320,144,776547,1,0,0:0:0:0:
128,232,776712,1,0,0:0:0:0:
128,232,776795,1,0,0:0:0:0:
128,232,776878,1,0,0:0:0:0:
384,232,777044,1,0,0:0:0:0:
68,324,777210,1,0,0:0:0:0:
444,324,777375,1,0,0:0:0:0:
256,236,777541,6,0,B|277:268|237:300|257:332,1,100,0|0,0:0|0:0,0:0:0:0:
257,332,778204,1,0,0:0:0:0:
340,196,778370,1,0,0:0:0:0:
321,166,778453,1,0,0:0:0:0:
291,147,778536,1,0,0:0:0:0:
256,141,778619,1,0,0:0:0:0:
221,147,778701,1,0,0:0:0:0:
191,166,778784,1,0,0:0:0:0:
172,196,778867,6,0,P|136:256|0:248,1,200
56,128,779364,1,0,0:0:0:0:
156,28,779530,2,0,L|368:28,1,200
448,132,780027,1,0,0:0:0:0:
312,172,780193,2,0,P|264:244|316:332,1,200
312,172,780690,2,0,P|225:166|175:255,1,200
212,360,781188,1,0,0:0:0:0:
104,348,781353,1,0,0:0:0:0:
40,260,781519,6,0,P|24:176|40:136,1,100
176,40,781851,2,0,P|160:124|176:164,1,100,0|0,0:0|0:0,0:0:0:0:
312,260,782182,2,0,P|296:176|312:136,1,100,0|0,0:0|0:0,0:0:0:0:
448,40,782514,2,0,P|432:124|448:164,1,100,0|0,0:0|0:0,0:0:0:0:
404,300,782845,6,0,P|368:348|316:356,1,100
190,357,783177,2,0,L|78:357,1,100
34,229,783508,2,0,L|138:229,1,100
169,229,783757,1,0,0:0:0:0:
204,229,783840,2,0,P|260:196|272:148,1,100
271,130,784088,1,0,0:0:0:0:
271,94,784171,6,0,P|348:44|432:96,1,200
476,228,784668,1,0,0:0:0:0:
372,320,784834,2,0,L|168:352,1,200
64,268,785331,1,0,0:0:0:0:
172,180,785497,2,0,P|212:112|152:16,1,200
172,180,785994,2,0,P|250:180|304:80,1,200
172,40,786491,1,0,0:0:0:0:
172,180,786657,1,0,0:0:0:0:
312,268,786823,5,0,0:0:0:0:
256,96,786989,1,0,0:0:0:0:
200,268,787154,1,0,0:0:0:0:
347,162,787320,1,0,0:0:0:0:
165,162,787486,5,0,0:0:0:0:
323,284,787652,1,0,0:0:0:0:
256,77,787818,1,0,0:0:0:0:
188,284,787983,1,0,0:0:0:0:
364,156,788149,5,0,0:0:0:0:
148,156,788315,1,0,0:0:0:0:
336,302,788480,1,0,0:0:0:0:
256,54,788646,1,0,0:0:0:0:
176,302,788811,5,0,0:0:0:0:
387,149,788977,1,0,0:0:0:0:
125,149,789143,1,0,0:0:0:0:
336,302,789309,1,0,0:0:0:0:
336,302,789392,1,0,0:0:0:0:
336,302,789475,6,0,P|428:280|456:184,1,200
396,60,789972,1,0,0:0:0:0:
276,132,790138,2,0,P|192:152|112:72,1,200
28,192,790635,1,0,0:0:0:0:
114,303,790801,2,0,P|192:232|276:252,1,200
256,360,791298,2,0,P|340:380|417:308,1,200
340,192,791795,1,0,0:0:0:0:
417,75,791961,1,0,0:0:0:0:
496,192,792127,6,0,L|272:192,1,200
200,88,792624,2,0,P|148:76|92:92,1,100
103,297,792956,2,0,P|148:308|200:296,1,100
296,192,793287,2,0,L|88:192,1,200
200,296,793784,2,0,L|288:360,1,100
480,192,794116,6,0,L|392:128,1,100
288,216,794447,2,0,L|376:280,1,100
452,56,794779,2,0,P|360:44|304:123,1,200
256,256,795276,1,0,0:0:0:0:
207,123,795442,2,0,P|183:65|152:44,1,100
120,36,795690,1,0,0:0:0:0:
84,44,795773,1,0,0:0:0:0:
0,120,795939,1,0,0:0:0:0:
20,228,796105,5,0,0:0:0:0:
208,124,796270,1,0,0:0:0:0:
360,268,797441,6,0,P|415:192|360:116,3,200
280,192,799761,1,0,0:0:0:0:
232,292,800092,6,0,B|200:328|200:328|96:328|96:328|64:292,1,200
16,192,801087,1,0,0:0:0:0:
62,87,801418,2,0,L|210:63,2,150
68,96,802579,1,0,0:0:0:0:
68,96,802744,6,0,P|80:164|208:200,1,200
256,116,803739,1,0,0:0:0:0:
319,206,804070,2,0,P|432:164|444:96,1,200
332,88,805065,1,0,0:0:0:0:
320,208,805396,6,0,B|296:256|296:256|156:296,1,200
60,236,806391,1,0,0:0:0:0:
60,236,806722,2,0,L|208:192,2,150
100,132,808048,2,0,L|300:72,1,200
400,44,809043,1,0,0:0:0:0:
400,44,809374,6,0,P|440:88|444:128,1,100
416,192,809871,1,0,0:0:0:0:
444,257,810037,2,0,P|440:296|400:340,1,100
256,340,810700,6,0,P|173:316|145:208,1,200
256,224,811695,1,0,0:0:0:0:
256,224,811860,1,0,0:0:0:0:
256,224,812026,2,0,B|272:176|272:176|240:140|240:140|256:92,2,150
256,340,813352,6,0,P|308:344|356:324,1,100
404,280,813849,2,0,P|433:236|440:185,1,100
436,120,814347,1,0,0:0:0:0:
404,56,814512,1,0,0:0:0:0:
340,24,814678,1,0,0:0:0:0:
200,128,815010,1,0,0:0:0:0:
256,172,815175,1,0,0:0:0:0:
312,128,815341,1,0,0:0:0:0:
256,300,815673,1,0,0:0:0:0:
200,340,815838,5,0,0:0:0:0:
200,340,815921,1,0,0:0:0:0:
200,340,816004,2,0,P|120:360|64:320,1,150.000005722046
44,248,816501,1,0,0:0:0:0:
64,168,816667,2,0,P|116:133|196:153,1,150.000005722046
256,212,817164,1,0,0:0:0:0:
315,153,817330,2,0,P|395:133|448:168,1,150.000005722046
468,248,817827,1,0,0:0:0:0:
444,325,817993,5,0,0:0:0:0:
384,268,818159,1,0,0:0:0:0:
356,344,818324,2,0,P|308:352|284:344,1,75.0000028610231
224,288,818656,5,0,0:0:0:0:
144,300,818822,1,0,0:0:0:0:
64,312,818987,1,0,0:0:0:0:
48,232,819153,5,0,0:0:0:0:
44,208,819236,1,0,0:0:0:0:
40,184,819319,1,0,0:0:0:0:
36,160,819402,1,0,0:0:0:0:
32,136,819485,1,0,0:0:0:0:
112,48,819650,1,0,0:0:0:0:
136,56,819733,1,0,0:0:0:0:
160,64,819816,1,0,0:0:0:0:
184,72,819899,1,0,0:0:0:0:
208,80,819982,5,0,0:0:0:0:
412,48,820148,1,0,0:0:0:0:
468,216,820645,6,0,P|466:248|440:284,1,64.9999970245363
424,296,820832,1,0,0:0:0:0:
392,312,820913,1,0,0:0:0:0:
356,312,820993,1,0,0:0:0:0:
320,296,821074,1,0,0:0:0:0:
296,264,821155,1,0,0:0:0:0:
368,200,821294,6,0,P|368:132|392:100,1,100
484,64,821625,1,0,0:0:0:0:
368,200,821791,2,0,P|309:166|293:129,1,100
308,31,822122,2,0,L|206:31,2,100
244,120,822619,6,0,L|132:120,1,100
60,192,822951,1,0,0:0:0:0:
88,300,823117,2,0,P|144:348|208:340,1,100
256,284,823448,2,0,L|256:184,2,100
344,350,823945,6,0,P|368:348|424:300,1,100
452,192,824277,1,0,0:0:0:0:
348,228,824443,2,0,P|292:224|256:180,1,100
344,124,824774,2,0,L|440:80,2,100
252,64,825271,6,0,L|156:108,1,100
16,192,825603,2,0,L|112:236,1,100
180,328,825934,2,0,P|256:273|332:328,1,200
442,327,826432,1,0,0:0:0:0:
442,187,826597,6,0,L|442:75,1,100
348,28,826929,1,0,0:0:0:0:
348,168,827095,2,0,L|348:280,1,100
256,328,827426,2,0,P|188:348|148:332,2,100
184,244,827923,6,0,P|132:195|126:152,1,100
128,60,828255,1,0,0:0:0:0:
236,148,828421,2,0,P|287:99|293:56,1,100,0|0,0:0|0:0,0:0:0:0:
396,28,828752,2,0,P|448:36|492:76,2,100
416,136,829249,6,0,L|416:244,1,100
456,340,829581,1,0,0:0:0:0:
328,280,829747,2,0,P|260:292|240:312,1,100
140,356,830078,2,0,L|28:356,2,100
180,252,830575,6,0,P|212:208|200:148,1,100
72,44,830907,2,0,P|40:88|52:148,1,100
160,80,831238,6,0,P|232:48|324:140,1,200
296,224,831735,1,0,0:0:0:0:
344,324,831901,6,0,P|436:312|456:188,1,200
359,220,832398,2,0,P|267:208|247:84,1,200
292,24,832896,1,0,0:0:0:0:
332,128,833061,1,0,0:0:0:0:
424,44,833227,6,0,B|436:76|436:76|420:108|420:108|432:140,1,100,0|0,0:0|0:0,0:0:0:0:
360,220,833559,2,0,B|372:252|372:252|356:284|356:284|368:316,1,100
256,348,833890,2,0,P|172:344|116:248,1,200
224,248,834387,1,0,0:0:0:0:
256,104,834553,6,0,P|172:40|88:72,1,200
256,104,835050,2,0,P|340:40|424:72,1,200
464,172,835548,1,0,0:0:0:0:
436,276,835713,1,0,0:0:0:0:
352,344,835879,2,0,P|308:360|252:340,1,100
112,276,836211,2,0,P|156:260|212:280,1,100
156,360,836542,5,0,0:0:0:0:
464,88,836874,1,0,0:0:0:0:
396,172,837039,1,0,0:0:0:0:
356,68,837205,6,0,P|296:64|232:180,1,200
307,249,837702,2,0,P|240:356|180:352,1,200,0|0,0:0|0:0,0:0:0:0:
88,292,838200,1,0,0:0:0:0:
108,184,838365,1,0,0:0:0:0:
204,132,838531,6,0,P|260:168|308:156,1,100
487,131,838863,2,0,P|431:167|401:164,1,100,0|0,0:0|0:0,0:0:0:0:
276,72,839194,1,0,0:0:0:0:
416,72,839360,1,0,0:0:0:0:
344,192,839526,2,0,L|344:300,1,100
256,360,839857,5,0,0:0:0:0:
148,308,840020,1,0,0:0:0:0:
40,256,840184,1,0,0:0:0:0:
256,280,840348,5,0,0:0:0:0:
364,228,840511,1,0,0:0:0:0:
472,176,840675,1,0,0:0:0:0:
256,200,840840,5,0,0:0:0:0:
148,148,841003,1,0,0:0:0:0:
40,96,841167,1,0,0:0:0:0:
256,120,841332,5,0,0:0:0:0:
364,68,841495,1,0,0:0:0:0:
472,16,841659,1,0,0:0:0:0:
368,160,841824,5,0,0:0:0:0:
144,160,842155,1,0,0:0:0:0:
256,356,842516,6,0,B|248:324|248:324|264:296|264:296|256:260,1,100
256,140,843013,5,0,0:0:0:0:
160,52,843178,2,0,P|80:68|36:196,1,200
256,140,843676,1,0,0:0:0:0:
352,52,843841,2,0,P|432:68|476:196,1,200
444,272,844339,1,0,0:0:0:0:
340,240,844504,1,0,0:0:0:0:
256,312,844670,1,0,0:0:0:0:
172,240,844836,6,0,P|104:232|38:346,2,200
140,344,845665,1,0,0:0:0:0:
140,344,845830,2,0,L|28:160,1,200
68,68,846328,5,0,0:0:0:0:
68,68,846411,1,0,0:0:0:0:
68,68,846493,2,0,P|120:88|176:76,1,100
196,68,846742,1,0,0:0:0:0:
228,56,846825,2,0,P|270:50|322:70,1,100
456,156,847156,2,0,L|416:264,1,100
328,192,847488,2,0,L|288:300,1,100
180,336,847819,6,0,P|84:304|88:212,1,200
256,192,848316,1,0,0:0:0:0:
112,116,848482,2,0,P|144:19|236:24,1,200
256,192,848979,1,0,0:0:0:0:
332,48,849145,2,0,P|428:80|424:172,1,200
256,192,849642,1,0,0:0:0:0:
400,268,849808,2,0,P|368:364|276:360,1,200
184,312,850305,1,0,0:0:0:0:
80,348,850471,6,0,L|48:136,1,200
140,64,850968,1,0,0:0:0:0:
140,64,851134,2,0,L|156:164,1,100
252,288,851466,6,0,L|330:224,1,100
356,204,851714,1,0,0:0:0:0:
388,192,851797,2,0,P|440:212|464:264,1,100
461,248,852045,1,0,0:0:0:0:
461,248,852129,2,0,L|488:152,1,100
444,52,852459,5,0,0:0:0:0:
356,116,852625,1,0,0:0:0:0:
268,52,852791,1,0,0:0:0:0:
236,68,852874,1,0,0:0:0:0:
204,84,852957,1,0,0:0:0:0:
172,100,853039,1,0,0:0:0:0:
140,116,853123,6,0,P|76:168|88:288,1,200
256,252,853620,1,0,0:0:0:0:
379,129,853786,2,0,P|366:48|256:-1,1,200
204,162,854283,1,0,0:0:0:0:
248,330,854449,2,0,P|325:359|423:289,1,200
440,192,854946,1,0,0:0:0:0:
396,64,855112,2,0,P|336:88|320:136,1,100
116,64,855443,2,0,P|176:88|192:136,1,100
208,300,855775,6,0,P|96:317|48:257,1,200
256,192,856272,1,0,0:0:0:0:
304,300,856438,2,0,P|415:317|463:257,1,200
476,148,856935,1,0,0:0:0:0:
404,68,857101,2,0,L|304:68,1,100
108,140,857432,2,0,L|208:140,1,100
360,208,857763,5,0,0:0:0:0:
348,240,857846,1,0,0:0:0:0:
324,264,857929,1,0,0:0:0:0:
292,280,858012,1,0,0:0:0:0:
256,284,858095,1,0,0:0:0:0:
220,280,858178,1,0,0:0:0:0:
188,264,858261,1,0,0:0:0:0:
164,240,858344,1,0,0:0:0:0:
152,208,858427,6,0,L|60:136,1,100
360,208,858758,2,0,L|452:136,1,100
184,116,859090,2,0,L|152:16,1,100
328,116,859421,2,0,L|360:16,1,100
256,192,859753,2,0,L|256:312,1,100
152,332,860084,6,0,P|96:344|48:320,1,100
360,264,860416,2,0,P|416:252|464:276,1,100
256,364,860747,2,0,L|256:264,1,100
318,93,861078,5,0,0:0:0:0:
200,168,861244,1,0,0:0:0:0:
325,233,861410,1,0,0:0:0:0:
137,93,861575,5,0,0:0:0:0:
146,258,861741,1,0,0:0:0:0:
284,168,861907,1,0,0:0:0:0:
284,168,861990,1,0,0:0:0:0:
284,168,862073,1,0,0:0:0:0:
24,176,862238,1,0,0:0:0:0:
199,359,862404,5,0,0:0:0:0:
190,181,862570,1,0,0:0:0:0:
313,359,863565,5,0,0:0:0:0:
322,181,863731,1,0,0:0:0:0:
331,3,863897,1,0,0:0:0:0:
256,308,864393,5,0,0:0:0:0:
80,288,864559,1,0,0:0:0:0:
60,260,864642,1,0,0:0:0:0:
48,228,864725,1,0,0:0:0:0:
44,192,864807,1,0,0:0:0:0:
48,156,864890,1,0,0:0:0:0:
60,124,864973,1,0,0:0:0:0:
80,96,865056,6,0,P|184:48|260:96,1,200
380,28,865553,1,0,0:0:0:0:
468,140,865719,2,0,L|432:348,1,200
296,368,866216,1,0,0:0:0:0:
212,256,866382,2,0,P|120:220|40:280,1,200
212,256,866880,2,0,P|197:158|105:119,1,200
16,224,867377,1,0,0:0:0:0:
96,340,867542,5,0,0:0:0:0:
96,340,867625,1,0,0:0:0:0:
96,340,867709,2,0,P|152:352|200:332,1,100
420,224,868040,2,0,P|364:236|316:216,1,100
96,108,868372,2,0,P|152:120|200:100,1,100
312,36,868702,1,0,0:0:0:0:
440,92,868868,5,0,0:0:0:0:
440,92,868951,1,0,0:0:0:0:
440,92,869035,2,0,L|432:204,1,100
376,320,869366,2,0,P|328:340|276:324,1,100
56,280,869698,2,0,P|104:260|156:276,1,100
148,271,869946,1,0,0:0:0:0:
148,271,870029,2,0,L|208:176,1,100
220,156,870277,1,0,0:0:0:0:
240,128,870360,6,0,P|196:56|76:80,1,200
32,192,870857,1,0,0:0:0:0:
84,324,871023,2,0,L|304:336,1,200
424,340,871520,1,0,0:0:0:0:
456,204,871686,6,0,P|448:88|372:64,1,200
344,196,872184,2,0,P|256:236|168:196,1,200
72,92,872680,1,0,0:0:0:0:
200,32,872846,1,0,0:0:0:0:
312,116,873012,5,0,0:0:0:0:
256,288,873178,1,0,0:0:0:0:
200,116,873343,1,0,0:0:0:0:
347,222,873509,1,0,0:0:0:0:
165,222,873675,5,0,0:0:0:0:
323,100,873841,1,0,0:0:0:0:
256,307,874007,1,0,0:0:0:0:
188,100,874172,1,0,0:0:0:0:
364,228,874338,5,0,0:0:0:0:
148,228,874504,1,0,0:0:0:0:
336,82,874669,1,0,0:0:0:0:
256,330,874835,1,0,0:0:0:0:
176,82,875002,5,0,0:0:0:0:
387,235,875166,1,0,0:0:0:0:
125,235,875332,1,0,0:0:0:0:
336,82,875498,1,0,0:0:0:0:
336,82,875581,1,0,0:0:0:0:
336,82,875664,6,0,P|420:84|476:176,1,200
436,308,876161,1,0,0:0:0:0:
304,348,876327,2,0,L|104:348,1,200
32,228,876824,1,0,0:0:0:0:
172,228,876990,2,0,L|396:228,1,200
440,104,877487,2,0,L|216:104,1,200
100,104,877984,1,0,0:0:0:0:
32,228,878150,1,0,0:0:0:0:
128,332,878316,6,0,P|200:324|212:192,1,200
100,104,878813,2,0,P|70:170|179:246,1,200
292,244,879310,1,0,0:0:0:0:
376,132,879476,2,0,L|448:332,1,200
308,360,879973,1,0,0:0:0:0:
172,332,880139,1,0,0:0:0:0:
92,220,880305,6,0,P|84:152|116:104,1,100
260,188,880637,2,0,P|268:256|236:304,1,100
256,88,880968,2,0,P|328:120|364:232,1,200
308,360,881465,1,0,0:0:0:0:
172,332,881631,1,0,0:0:0:0:
92,220,881796,1,0,0:0:0:0:
92,220,881879,1,0,0:0:0:0:
92,220,881963,2,0,L|92:112,1,100
160,20,882294,5,0,0:0:0:0:
352,100,882459,1,0,0:0:0:0:
160,36,883620,5,0,0:0:0:0:
352,116,883785,1,0,0:0:0:0:
160,52,884946,5,0,0:0:0:0:
352,132,885111,1,0,0:0:0:0:
160,68,885609,5,0,0:0:0:0:
352,148,885774,1,0,0:0:0:0:
160,84,886271,5,0,0:0:0:0:
352,164,886436,1,0,0:0:0:0:
160,100,886602,5,0,0:0:0:0:
352,180,886767,1,0,0:0:0:0:
160,116,886933,5,0,0:0:0:0:
352,196,887098,1,0,0:0:0:0:
160,132,887264,5,0,0:0:0:0:
352,212,887429,1,0,0:0:0:0:
160,161,887595,5,0,0:0:0:0:
160,197,887677,1,0,0:0:0:0:
172,229,887760,1,0,0:0:0:0:
196,255,887842,1,0,0:0:0:0:
227,271,887925,1,0,0:0:0:0:
262,274,888007,1,0,0:0:0:0:
296,264,888090,1,0,0:0:0:0:
323,243,888172,1,0,0:0:0:0:
342,213,888255,1,0,0:0:0:0:
348,179,888337,1,0,0:0:0:0:
342,145,888420,1,0,0:0:0:0:
323,115,888502,1,0,0:0:0:0:
296,94,888585,1,0,0:0:0:0:
262,84,888667,1,0,0:0:0:0:
227,87,888750,1,0,0:0:0:0:
196,103,888832,1,0,0:0:0:0:
172,129,888915,1,0,0:0:0:0:
88,272,889274,6,0,P|120:320|160:344,1,100
356,342,889992,2,0,P|392:320|424:272,1,100
424,121,890711,1,0,0:0:0:0:
296,44,891070,1,0,0:0:0:0:
146,44,891429,2,0,P|46:96|26:188,1,200
76,316,892507,5,0,0:0:0:0:
256,192,893226,1,0,0:0:0:0:
436,316,893944,1,0,0:0:0:0:
256,116,894663,5,0,0:0:0:0:
72,192,900068,5,0,0:0:0:0:
96,112,900248,2,0,P|144:80|264:100,1,150.000005722046
272,156,900787,1,0,0:0:0:0:
324,92,900965,6,0,L|480:92,1,150.000005722046
504,168,901505,1,0,0:0:0:0:
504,168,901684,2,0,L|348:168,1,150.000005722046
296,228,902224,1,0,0:0:0:0:
252,300,902404,2,0,P|188:344|92:316,1,150.000005722046
44,304,902942,1,0,0:0:0:0:
0,232,903122,1,0,0:0:0:0:
44,160,903302,6,0,P|88:164|120:188,1,75.0000028610231
152,108,903660,2,0,P|183:139|192:178,1,75.0000028610231
164,244,904019,2,0,P|236:280|308:256,1,150.000005722046
352,324,904558,5,0,0:0:0:0:
352,324,904738,2,0,L|328:168,1,150.000005722046
316,96,905277,1,0,0:0:0:0:
388,140,905456,2,0,P|328:180|252:156,1,150.000005722046
200,100,905995,5,0,0:0:0:0:
200,100,906175,2,0,L|68:180,1,150.000005722046
52,256,906714,2,0,P|116:312|196:312,1,150.000005722046
256,284,907253,1,0,0:0:0:0:
333,316,907432,2,0,P|396:312|460:256,1,150.000005722046
472,176,907971,1,0,0:0:0:0:
472,176,908151,1,0,0:0:0:0:
460,96,908331,2,0,P|380:120|324:88,1,150.000005722046
384,32,908870,1,0,0:0:0:0:
325,89,909049,6,0,L|272:144,1,75.0000028610231
200,100,909409,2,0,L|147:153,1,75.0000028610231
88,212,909768,2,0,P|64:296|144:352,1,150.000005722046
176,308,910307,1,0,0:0:0:0:
252,336,910486,6,0,P|300:332|332:308,1,75.0000028610231
372,252,910846,1,0,0:0:0:0:
292,240,911025,1,0,0:0:0:0:
436,334,911205,6,0,P|456:290|451:250,1,75.0000028610231
423,188,911564,1,0,0:0:0:0:
372,251,911744,1,0,0:0:0:0:
252,168,911924,6,0,P|184:148|112:200,1,150.000005722046
192,228,912462,2,0,L|176:76,1,150.000005722046
80,112,913001,1,0,0:0:0:0:
80,112,913181,2,0,L|96:264,1,150.000005722046
144,328,913720,1,0,0:0:0:0:
224,316,913900,2,0,P|280:272|284:196,1,150.000005722046
240,128,914438,1,0,0:0:0:0:
272,52,914618,1,0,0:0:0:0:
352,28,914798,6,0,P|404:36|432:68,1,75.0000028610231
464,120,915157,2,0,P|412:128|384:160,1,75.0000028610231
352,212,915516,2,0,P|420:232|444:312,1,150.000005722046
364,292,916055,1,0,0:0:0:0:
296,340,916235,6,0,L|216:340,1,75.0000028610231
184,264,916594,2,0,L|264:264,1,75.0000028610231
296,192,916953,2,0,P|272:124|192:96,1,150.000005722046
152,160,917492,1,0,0:0:0:0:
76,124,917672,6,0,P|29:178|44:262,1,150.000005722046
88,316,918211,2,0,P|160:288|224:316,1,150.000005722046
296,352,918750,1,0,0:0:0:0:
296,352,918929,2,0,P|360:296|364:224,1,150.000005722046
316,168,919468,1,0,0:0:0:0:
316,168,919648,1,0,0:0:0:0:
68,192,920187,5,0,0:0:0:0:
68,192,920367,1,0,0:0:0:0:
92,112,920546,6,0,P|120:88|160:84,1,75.0000028610231
160,168,920906,2,0,P|194:180|218:212,1,75.0000028610231
220,292,921265,1,0,0:0:0:0:
284,340,921444,6,0,P|312:364|352:368,1,75.0000028610231
352,284,921804,2,0,P|386:271|410:239,1,75.0000028610231
420,76,922343,1,0,0:0:0:0:
256,60,922702,1,0,0:0:0:0:
244,140,922882,5,0,0:0:0:0:
180,192,923061,1,0,0:0:0:0:
100,208,923241,1,0,0:0:0:0:
20,188,923421,2,0,L|8:264,1,75.0000028610231
100,208,923780,2,0,L|108:300,1,75.0000028610231
160,348,924139,5,0,0:0:0:0:
288,240,924498,1,0,0:0:0:0:
436,316,924858,6,0,L|492:252,1,75.0000028610231
408,232,925217,2,0,L|352:168,1,75.0000028610231
436,148,925576,2,0,L|492:84,1,75.0000028610231
408,64,925935,2,0,L|352:0,1,75.0000028610231
300,68,926295,6,0,P|288:104|248:128,1,75.0000028610231
276,204,926654,2,0,P|238:211|198:188,1,75.0000028610231
172,120,927013,1,0,0:0:0:0:
108,172,927193,6,0,P|82:200|82:247,1,75.0000028610231
2,260,927552,2,0,P|13:296|54:320,1,75.0000028610231
204,340,928091,1,0,0:0:0:0:
344,252,928450,1,0,0:0:0:0:
316,172,928630,5,0,0:0:0:0:
336,92,928810,1,0,0:0:0:0:
408,48,928989,1,0,0:0:0:0:
492,44,929169,2,0,L|516:120,1,75.0000028610231
408,48,929528,2,0,L|432:124,1,75.0000028610231
484,180,929888,1,0,0:0:0:0:
384,312,930247,1,0,0:0:0:0:
228,256,930606,2,0,P|152:264|104:320,1,150.000005722046
32,356,931145,2,0,P|36:276|96:212,1,150.000005722046
152,188,931684,1,0,0:0:0:0:
188,112,931864,1,0,0:0:0:0:
136,48,932043,6,0,P|220:32|264:80,1,150.000005722046
296,148,932582,2,0,P|337:188|421:172,1,150.000005722046
452,96,933121,1,0,0:0:0:0:
372,112,933301,2,0,L|332:264,1,150.000005722046
372,328,933840,1,0,0:0:0:0:
292,340,934019,2,0,P|208:332|172:264,1,150.000005722046
180,200,934558,1,0,0:0:0:0:
180,200,934738,1,0,0:0:0:0:
168,120,934918,6,0,P|140:96|92:84,1,75.0000028610231
40,208,935277,2,0,P|68:184|116:172,1,75.0000028610231
180,200,935636,2,0,P|268:212|320:144,1,150.000005722046
300,92,936175,1,0,0:0:0:0:
376,56,936355,5,0,0:0:0:0:
468,192,936714,1,0,0:0:0:0:
376,328,937073,1,0,0:0:0:0:
300,296,937253,1,0,0:0:0:0:
240,352,937432,2,0,P|192:356|152:336,1,75.0000028610231
92,308,937792,6,0,P|140:256|132:180,1,150.000005722046
76,232,938331,2,0,P|142:255|209:218,1,150.000005722046
240,144,938870,1,0,0:0:0:0:
292,80,939049,2,0,L|452:80,1,150.000005722046
420,160,939588,1,0,0:0:0:0:
480,216,939768,2,0,P|476:292|428:344,1,150.000005722046
348,364,940307,1,0,0:0:0:0:
268,340,940486,1,0,0:0:0:0:
204,288,940666,6,0,P|164:308|144:344,1,75.0000028610231
80,284,941025,2,0,P|62:325|70:365,1,75.0000028610231
140,228,941385,2,0,P|160:156|120:96,1,150.000005722046
40,96,941924,1,0,0:0:0:0:
72,172,942103,5,0,0:0:0:0:
204,72,942462,1,0,0:0:0:0:
72,172,942822,1,0,0:0:0:0:
224,232,943181,1,0,0:0:0:0:
288,184,943361,1,0,0:0:0:0:
300,264,943540,6,0,P|368:296|444:272,1,150.000005722046
476,352,944079,2,0,L|476:172,1,150.000005722046
476,120,944618,1,0,0:0:0:0:
396,148,944798,2,0,P|312:144|272:88,1,150.000005722046
356,80,945337,1,0,0:0:0:0:
356,80,945516,2,0,L|288:228,1,150.000005722046
252,288,946055,1,0,0:0:0:0:
176,320,946235,1,0,0:0:0:0:
96,308,946415,6,0,P|56:284|36:256,1,75.0000028610231
88,196,946774,2,0,P|128:220|148:248,1,75.0000028610231
176,320,947133,2,0,P|248:372|304:356,1,150.000005722046
368,308,947672,1,0,0:0:0:0:
444,336,947852,5,0,0:0:0:0:
288,284,948211,1,0,0:0:0:0:
336,128,948570,1,0,0:0:0:0:
492,180,948929,1,0,0:0:0:0:
428,232,949109,1,0,0:0:0:0:
348,216,949289,6,0,L|196:168,1,150.000005722046
128,144,949828,2,0,P|64:168|44:256,1,150.000005722046
80,312,950367,1,0,0:0:0:0:
152,352,950546,2,0,L|304:320,1,150.000005722046
380,308,951085,1,0,0:0:0:0:
448,264,951265,2,0,P|468:188|436:120,1,150.000005722046
360,132,951804,1,0,0:0:0:0:
304,72,951983,1,0,0:0:0:0:
252,136,952163,6,0,P|208:140|156:124,1,75.0000028610231
108,92,952522,1,0,0:0:0:0:
44,144,952702,1,0,0:0:0:0:
36,228,952882,1,0,0:0:0:0:
68,304,953061,1,0,0:0:0:0:
144,340,953241,1,0,0:0:0:0:
224,328,953421,1,0,0:0:0:0:
284,272,953600,6,0,P|328:256|376:264,1,75.0000028610231
483,369,953959,2,0,P|447:338|430:293,1,75.0000028610231
468,148,954319,2,0,P|459:194|428:231,1,75.0000028610231
340,224,954678,1,0,0:0:0:0:
280,136,954858,1,0,0:0:0:0:
276,112,954947,1,0,0:0:0:0:
272,88,955037,6,0,P|240:56|192:56,1,75.0000028610231
180,152,955397,1,0,0:0:0:0:
88,104,955576,1,0,0:0:0:0:
72,124,955666,1,0,0:0:0:0:
56,144,955756,1,0,0:0:0:0:
24,244,955935,1,0,0:0:0:0:
76,336,956115,1,0,0:0:0:0:
132,248,956295,6,0,P|192:236|272:284,1,150.000005722046,0|0,0:0|0:0,0:0:0:0:
344,348,956834,2,0,P|388:356|436:340,1,75.0000028610231
417,349,957103,1,0,0:0:0:0:
417,349,957193,2,0,L|433:259,1,75.0000028610231
484,184,957552,1,0,0:0:0:0:
408,108,957732,1,0,0:0:0:0:
320,164,957912,6,0,P|276:168|228:140,1,75.0000028610231
176,232,958271,2,0,P|150:194|150:139,1,75.0000028610231
145,165,958540,1,0,0:0:0:0:
145,165,958630,2,0,L|72:180,1,75.0000028610231
28,276,958989,1,0,0:0:0:0:
92,360,959169,1,0,0:0:0:0:
196,360,959349,6,0,P|260:348|304:272,1,150.000005722046
256,188,959888,1,0,0:0:0:0:
256,188,959977,1,0,0:0:0:0:
256,188,960067,2,0,L|324:120,1,75.0000028610231
414,134,960427,2,0,L|467:187,1,75.0000028610231
456,352,960786,6,0,P|396:352|344:268,1,150.000005722046
360,180,961325,1,0,0:0:0:0:
360,180,961415,1,0,0:0:0:0:
360,180,961504,2,0,L|280:200,1,75.0000028610231
236,292,961864,1,0,0:0:0:0:
156,228,962043,1,0,0:0:0:0:
92,312,962223,6,0,P|56:288|48:232,1,75.0000028610231
52,156,962582,1,0,0:0:0:0:
156,148,962762,1,0,0:0:0:0:
180,144,962852,1,0,0:0:0:0:
204,132,962941,1,0,0:0:0:0:
256,40,963121,1,0,0:0:0:0:
320,124,963301,1,0,0:0:0:0:
412,76,963480,1,0,0:0:0:0:
464,168,963660,6,0,P|480:240|444:304,1,150.000005722046
340,284,964199,1,0,0:0:0:0:
256,344,964379,2,0,L|88:308,1,150.000005722046
36,236,964918,1,0,0:0:0:0:
36,236,965097,6,0,L|36:128,1,75.0000028610231
88,68,965456,1,0,0:0:0:0:
180,120,965636,1,0,0:0:0:0:
208,120,965726,1,0,0:0:0:0:
236,120,965816,1,0,0:0:0:0:
328,68,965995,1,0,0:0:0:0:
380,160,966175,1,0,0:0:0:0:
380,188,966265,1,0,0:0:0:0:
380,216,966355,1,0,0:0:0:0:
328,308,966534,6,0,P|288:328|232:320,1,75.0000028610231
232,324,966804,1,0,0:0:0:0:
208,316,966894,2,0,P|148:304|108:320,1,75.0000028610231
44,356,967253,2,0,L|24:276,1,75.0000028610231
40,180,967612,1,0,0:0:0:0:
140,216,967792,1,0,0:0:0:0:
220,148,967971,6,0,P|240:112|224:56,1,75.0000028610231
237,79,968241,1,0,0:0:0:0:
237,79,968331,2,0,L|328:80,1,75.0000028610231
404,132,968690,2,0,P|400:180|412:216,1,75.0000028610231
480,280,969049,1,0,0:0:0:0:
404,356,969229,1,0,0:0:0:0:
308,316,969409,6,0,P|244:292|164:332,1,150.000005722046
67,322,969947,1,0,0:0:0:0:
32,224,970127,2,0,P|36:152|96:104,1,150.000005722046
180,164,970666,1,0,0:0:0:0:
240,80,970846,1,0,0:0:0:0:
324,140,971025,1,0,0:0:0:0:
400,68,971205,2,0,L|448:104,1,37.5000014305115
476,184,971474,2,0,L|432:216,1,37.5000014305115
356,260,971744,1,0,0:0:0:0:
268,320,971924,1,0,0:0:0:0:
180,260,972103,1,0,0:0:0:0:
96,324,972283,6,0,P|56:272|72:188,1,150.000005722046
152,128,972822,1,0,0:0:0:0:
252,156,973001,2,0,P|320:156|340:140,1,75.0000028610231
416,100,973361,1,0,0:0:0:0:
492,172,973540,2,0,P|492:224|476:256,1,75.0000028610231
380,272,973900,5,0,0:0:0:0:
356,276,973989,1,0,0:0:0:0:
328,280,974079,1,0,0:0:0:0:
300,284,974169,1,0,0:0:0:0:
220,352,974349,1,0,0:0:0:0:
196,348,974438,1,0,0:0:0:0:
96,312,974618,1,0,0:0:0:0:
36,224,974798,1,0,0:0:0:0:
68,124,974977,1,0,0:0:0:0:
160,72,975157,6,0,P|236:88|312:40,1,150.000005722046
305,64,975696,1,0,0:0:0:0:
305,64,975876,2,0,L|363:136,1,75.0000028610231
476,140,976235,2,0,L|418:211,1,75.0000028610231
364,280,976594,5,0,0:0:0:0:
284,212,976774,1,0,0:0:0:0:
256,312,976953,2,0,L|212:320,1,37.5000014305115
120,280,977223,2,0,L|76:272,1,37.5000014305115
20,188,977492,1,0,0:0:0:0:
88,108,977672,1,0,0:0:0:0:
20,28,977852,5,0,0:0:0:0:
20,28,977941,1,0,0:0:0:0:
20,28,978031,1,0,0:0:0:0:
88,108,978210,2,0,L|88:152,2,37.5000014305115
156,28,978569,1,0,0:0:0:0:
224,108,978749,2,0,P|276:140|356:100,1,150.000005722046
224,108,979288,6,0,L|192:200,1,75.0000028610231
100,216,979647,2,0,L|124:252,1,37.5000014305115
52,328,979917,2,0,L|90:347,1,37.5000014305115
184,312,980186,2,0,P|260:308|324:356,1,150.000005722046
423,348,980725,1,0,0:0:0:0:
440,244,980905,6,0,L|456:156,1,75.0000028610231
416,72,981264,1,0,0:0:0:0:
328,128,981444,2,0,P|276:144|232:128,1,75.0000028610231
232,132,981713,1,0,0:0:0:0:
208,124,981803,1,0,0:0:0:0:
112,84,981983,1,0,0:0:0:0:
44,164,982162,5,0,0:0:0:0:
44,164,982252,1,0,0:0:0:0:
44,164,982342,2,0,P|40:220|68:260,1,75.0000028610231
108,320,982701,2,0,L|152:312,1,37.5000014305115
248,340,982971,2,0,L|292:348,1,37.5000014305115
388,368,983240,1,0,0:0:0:0:
440,276,983420,1,0,0:0:0:0:
364,204,983599,1,0,0:0:0:0:
316,108,983779,6,0,P|336:76|388:68,1,75.0000028610231
370,64,984048,1,0,0:0:0:0:
370,64,984138,2,0,L|308:8,1,75.0000028610231
208,24,984498,1,0,0:0:0:0:
108,60,984677,1,0,0:0:0:0:
92,80,984767,1,0,0:0:0:0:
84,104,984857,1,0,0:0:0:0:
76,208,985036,1,0,0:0:0:0:
96,312,985216,5,0,0:0:0:0:
184,252,985396,1,0,0:0:0:0:
184,252,985486,1,0,0:0:0:0:
288,252,985665,1,0,0:0:0:0:
288,252,985755,1,0,0:0:0:0:
372,312,985935,2,0,P|420:296|436:260,1,75.0000028610231
440,172,986294,1,0,0:0:0:0:
376,88,986474,1,0,0:0:0:0:
284,136,986653,6,0,P|232:132|196:112,1,75.0000028610231
128,60,987013,1,0,0:0:0:0:
228,24,987192,1,0,0:0:0:0:
332,28,987372,2,0,P|384:32|420:52,1,75.0000028610231
404,41,987641,1,0,0:0:0:0:
404,41,987731,2,0,L|424:120,1,75.0000028610231
432,220,988090,5,0,0:0:0:0:
388,316,988270,1,0,0:0:0:0:
316,236,988450,1,0,0:0:0:0:
316,236,988539,2,0,P|248:248|204:288,1,112.500004291535
128,332,988989,1,0,0:0:0:0:
40,276,989168,2,0,L|28:192,1,75.0000028610231
64,64,989528,6,0,P|140:48|216:88,1,150
256,124,989887,2,0,L|348:52,1,100
436,104,990246,1,0,0:0:0:0:
408,124,990336,1,0,0:0:0:0:
380,148,990426,1,0,0:0:0:0:
464,216,990605,1,0,0:0:0:0:
400,308,990785,1,0,0:0:0:0:
300,264,990965,6,0,P|232:256|160:304,1,150
116,344,991324,2,0,P|64:340|32:304,1,100
96,216,991683,1,0,0:0:0:0:
20,136,991863,1,0,0:0:0:0:
20,136,992042,1,0,0:0:0:0:
96,56,992222,1,0,0:0:0:0:
172,136,992402,6,0,L|276:264,1,150
316,304,992761,2,0,P|376:304|416:264,1,100
344,192,993120,1,0,0:0:0:0:
336,156,993210,1,0,0:0:0:0:
328,120,993300,1,0,0:0:0:0:
256,36,993480,1,0,0:0:0:0:
184,120,993659,1,0,0:0:0:0:
176,156,993749,1,0,0:0:0:0:
168,192,993839,1,0,0:0:0:0:
84,264,994019,6,0,L|36:296,1,50
116,334,994198,2,0,L|120:384,1,50
192,339,994378,2,0,L|237:362,1,50
316,384,994557,1,0,0:0:0:0:
350,372,994647,1,0,0:0:0:0:
384,360,994737,2,0,L|432:340,1,50
500,312,994917,1,0,0:0:0:0:
500,312,995276,6,0,P|512:228|428:156,1,200
328,192,995815,1,0,0:0:0:0:
224,232,995995,2,0,P|156:228|120:192,1,100
24,96,996354,2,0,P|92:100|128:136,1,100,0|0,0:0|0:0,0:0:0:0:
36,256,996713,6,0,P|76:312|220:324,1,200
296,280,997252,1,0,0:0:0:0:
392,336,997432,2,0,L|392:228,1,100
456,144,997791,2,0,L|456:36,1,100
344,44,998150,6,0,P|288:88|168:64,1,200
72,120,998689,1,0,0:0:0:0:
156,192,998869,2,0,P|188:244|184:296,1,100
100,348,999228,2,0,P|68:296|72:244,1,100
240,128,999587,6,0,B|368:128|368:128|428:184,1,200
420,287,1000126,1,0,0:0:0:0:
328,348,1000306,2,0,P|272:352|232:324,1,100
164,248,1000665,1,0,0:0:0:0:
164,136,1000845,1,0,0:0:0:0:
164,136,1000935,1,0,0:0:0:0:
164,136,1001025,6,0,P|248:72|344:112,1,200
264,184,1001563,1,0,0:0:0:0:
164,136,1001743,2,0,L|56:136,1,100
256,40,1002102,2,0,L|364:40,1,100
472,188,1002462,6,0,P|488:252|388:340,1,200
312,276,1003001,1,0,0:0:0:0:
228,344,1003180,2,0,P|160:324|136:276,1,100
60,376,1003539,2,0,P|20:316|33:264,1,100
120,192,1003899,6,0,L|200:4,1,200
304,36,1004438,1,0,0:0:0:0:
260,136,1004617,2,0,L|216:244,1,100
332,360,1004977,2,0,L|376:252,1,100,0|0,0:0|0:0,0:0:0:0:
424,112,1005336,5,0,0:0:0:0:
424,112,1005426,1,0,0:0:0:0:
424,112,1005516,2,0,P|372:152|316:152,1,100
180,96,1005875,1,0,0:0:0:0:
144,100,1005965,1,0,0:0:0:0:
112,116,1006054,1,0,0:0:0:0:
88,144,1006144,1,0,0:0:0:0:
76,176,1006234,1,0,0:0:0:0:
76,212,1006324,1,0,0:0:0:0:
88,244,1006414,2,0,L|108:280,7,25
112,280,1006773,5,0,0:0:0:0:
372,352,1007042,1,0,0:0:0:0:
456,96,1007312,1,0,0:0:0:0:
360,148,1007492,1,0,0:0:0:0:
340,40,1007671,2,0,P|284:56|256:96,1,100
252,200,1008031,1,0,0:0:0:0:
132,68,1008210,5,0,0:0:0:0:
84,336,1008480,1,0,0:0:0:0:
352,376,1008749,1,0,0:0:0:0:
456,312,1008929,1,0,0:0:0:0:
352,252,1009108,2,0,P|344:200|364:144,1,100
452,84,1009468,1,0,0:0:0:0:
344,32,1009647,5,0,0:0:0:0:
76,68,1009917,1,0,0:0:0:0:
28,332,1010186,1,0,0:0:0:0:
108,260,1010366,1,0,0:0:0:0:
192,332,1010545,2,0,P|248:328|280:288,1,100
256,188,1010905,1,0,0:0:0:0:
344,124,1011084,6,0,L|440:76,1,100
168,124,1011444,2,0,L|72:76,1,100
24,176,1011803,1,0,0:0:0:0:
32,284,1011983,1,0,0:0:0:0:
128,336,1012162,1,0,0:0:0:0:
164,328,1012252,1,0,0:0:0:0:
200,320,1012342,1,0,0:0:0:0:
236,312,1012432,1,0,0:0:0:0:
272,304,1012522,5,0,0:0:0:0:
444,96,1012791,1,0,0:0:0:0:
480,364,1013060,1,0,0:0:0:0:
404,284,1013240,1,0,0:0:0:0:
472,196,1013420,2,0,P|400:172|352:184,1,100
280,228,1013779,1,0,0:0:0:0:
136,336,1013959,5,0,0:0:0:0:
56,80,1014228,1,0,0:0:0:0:
280,228,1014498,1,0,0:0:0:0:
276,108,1014677,1,0,0:0:0:0:
388,152,1014857,2,0,P|436:104|440:56,1,100
332,20,1015216,1,0,0:0:0:0:
156,56,1015396,5,0,0:0:0:0:
24,292,1015665,1,0,0:0:0:0:
288,236,1015935,1,0,0:0:0:0:
344,328,1016114,1,0,0:0:0:0:
232,324,1016294,2,0,P|180:272|180:216,1,100
228,152,1016653,5,0,0:0:0:0:
228,152,1016743,1,0,0:0:0:0:
228,152,1016833,2,0,P|160:92|28:128,1,200
16,204,1017372,1,0,0:0:0:0:
48,308,1017551,1,0,0:0:0:0:
132,236,1017731,1,0,0:0:0:0:
172,340,1017911,1,0,0:0:0:0:
208,336,1018001,1,0,0:0:0:0:
240,324,1018090,1,0,0:0:0:0:
268,304,1018180,1,0,0:0:0:0:
288,276,1018270,6,0,P|308:212|278:117,1,150.000005722046
372,148,1018809,1,0,0:0:0:0:
372,148,1018989,2,0,P|346:86|262:32,1,150.000005722046
208,72,1019528,5,0,0:0:0:0:
208,72,1019617,1,0,0:0:0:0:
208,72,1019707,2,0,L|116:72,1,75.0000028610231
32,164,1020066,2,0,L|124:164,1,75.0000028610231
208,224,1020426,2,0,P|240:292|192:372,2,150.000005722046
160,292,1021324,5,0,0:0:0:0:
77,292,1021504,2,0,P|49:226|81:158,1,150.000005722046
156,124,1022042,1,0,0:0:0:0:
216,180,1022222,1,0,0:0:0:0:
288,136,1022402,5,0,0:0:0:0:
288,136,1022492,1,0,0:0:0:0:
288,136,1022581,2,0,L|360:88,1,75.0000028610231
464,176,1022941,2,0,L|392:224,1,75.0000028610231
252,312,1023300,2,0,P|192:316|120:260,1,150.000005722046
112,240,1023749,1,0,0:0:0:0:
104,216,1023839,1,0,0:0:0:0:
100,188,1023929,1,0,0:0:0:0:
104,160,1024019,6,0,P|136:92|204:48,1,150.000005722046
204,132,1024557,1,0,0:0:0:0:
204,132,1024737,2,0,P|276:112|354:136,1,150.000005722046
380,208,1025276,1,0,0:0:0:0:
452,168,1025456,6,0,P|480:200|484:240,1,75.0000028610231
452,352,1025815,2,0,P|424:320|420:280,1,75.0000028610231
452,168,1026174,1,0,0:0:0:0:
368,72,1026354,1,0,0:0:0:0:
344,80,1026444,1,0,0:0:0:0:
320,88,1026533,1,0,0:0:0:0:
296,96,1026623,1,0,0:0:0:0:
272,104,1026713,1,0,0:0:0:0:
244,212,1026893,6,0,P|176:220|136:192,1,100
124,184,1027162,1,0,0:0:0:0:
100,160,1027252,2,0,L|44:248,1,100
60,352,1027611,1,0,0:0:0:0:
208,352,1027791,2,0,L|308:352,1,100
408,304,1028150,1,0,0:0:0:0:
476,180,1028330,6,0,P|472:116|452:72,1,100
458,83,1028599,1,0,0:0:0:0:
458,83,1028689,1,0,0:0:0:0:
328,132,1028869,2,0,P|256:132|200:100,1,100
144,12,1029228,1,0,0:0:0:0:
144,12,1029318,1,0,0:0:0:0:
144,12,1029408,2,0,L|104:116,1,100
48,232,1029767,5,0,0:0:0:0:
256,364,1029947,1,0,0:0:0:0:
256,364,1030036,1,0,0:0:0:0:
256,364,1030126,1,0,0:0:0:0:
464,232,1030306,1,0,0:0:0:0:
464,232,1030396,1,0,0:0:0:0:
464,232,1030486,1,0,0:0:0:0:
144,92,1030665,1,0,0:0:0:0:
367,92,1030845,2,0,B|359:145|300:159|240:174|232:227,1,200
344,340,1031384,5,0,0:0:0:0:
396,324,1031474,1,0,0:0:0:0:
424,280,1031563,1,0,0:0:0:0:
424,139,1031743,1,0,0:0:0:0:
316,52,1031923,5,0,0:0:0:0:
4,156,1032192,1,0,0:0:0:0:
264,360,1032462,1,0,0:0:0:0:
296,224,1032641,5,0,0:0:0:0:
420,292,1032821,2,0,P|440:236|424:188,1,100
320,324,1033180,1,0,0:0:0:0:
456,360,1033360,5,0,0:0:0:0:
384,40,1033629,1,0,0:0:0:0:
56,12,1033899,1,0,0:0:0:0:
4,140,1034078,5,0,0:0:0:0:
140,180,1034258,2,0,P|164:236|132:304,1,100
60,376,1034617,1,0,0:0:0:0:
28,240,1034797,5,0,0:0:0:0:
340,352,1035066,1,0,0:0:0:0:
476,52,1035336,1,0,0:0:0:0:
388,160,1035516,5,0,0:0:0:0:
308,48,1035695,2,0,P|240:56|192:92,1,100
132,188,1036054,1,0,0:0:0:0:
72,60,1036234,5,0,0:0:0:0:
252,336,1036504,1,0,0:0:0:0:
440,60,1036773,1,0,0:0:0:0:
440,60,1036863,1,0,0:0:0:0:
440,60,1036953,6,0,P|480:108|488:152,1,100
464,280,1037312,1,0,0:0:0:0:
340,348,1037492,1,0,0:0:0:0:
200,348,1037671,5,0,0:0:0:0:
24,72,1037941,1,0,0:0:0:0:
348,16,1038210,1,0,0:0:0:0:
440,120,1038390,5,0,0:0:0:0:
428,260,1038569,1,0,0:0:0:0:
396,304,1038659,1,0,0:0:0:0:
344,320,1038749,1,0,0:0:0:0:
208,288,1038929,1,0,0:0:0:0:
24,192,1039108,5,0,0:0:0:0:
312,32,1039378,1,0,0:0:0:0:
472,320,1039647,1,0,0:0:0:0:
336,348,1039827,5,0,0:0:0:0:
264,228,1040007,1,0,0:0:0:0:
276,176,1040096,1,0,0:0:0:0:
316,136,1040186,1,0,0:0:0:0:
452,164,1040366,1,0,0:0:0:0:
396,36,1040545,5,0,0:0:0:0:
260,340,1040815,1,0,0:0:0:0:
4,132,1041084,1,0,0:0:0:0:
120,52,1041264,5,0,0:0:0:0:
204,164,1041444,2,0,P|180:220|124:248,1,100
28,312,1041803,1,0,0:0:0:0:
160,360,1041983,1,0,0:0:0:0:
300,348,1042162,1,0,0:0:0:0:
412,264,1042342,1,0,0:0:0:0:
436,216,1042432,1,0,0:0:0:0:
444,160,1042522,1,0,0:0:0:0:
436,104,1042611,1,0,0:0:0:0:
404,56,1042701,5,0,0:0:0:0:
280,120,1042881,1,0,0:0:0:0:
228,136,1042971,1,0,0:0:0:0:
172,132,1043060,1,0,0:0:0:0:
52,56,1043240,1,0,0:0:0:0:
72,272,1043420,6,0,P|140:296|184:288,1,100
440,188,1043689,2,0,P|372:212|345:209,1,100,0|0,0:0|0:0,0:0:0:0:
72,104,1043959,2,0,P|140:128|166:125,1,100,0|0,0:0|0:0,0:0:0:0:
288,56,1044318,5,0,0:0:0:0:
428,56,1044498,1,0,0:0:0:0:
484,184,1044677,1,0,0:0:0:0:
404,300,1044857,6,0,P|345:342|301:348,1,100
27,327,1045126,2,0,P|99:330|123:319,1,100,0|0,0:0|0:0,0:0:0:0:
354,139,1045396,2,0,P|295:181|270:186,1,100,0|0,0:0|0:0,0:0:0:0:
80,176,1045755,5,0,0:0:0:0:
52,128,1045845,1,0,0:0:0:0:
48,72,1045935,1,0,0:0:0:0:
180,24,1046114,1,0,0:0:0:0:
316,52,1046294,6,0,P|352:100|352:144,1,100
104,210,1046563,2,0,P|128:154|166:132,1,100
347,313,1046833,2,0,P|287:321|249:299,1,100
168,192,1047192,5,0,0:0:0:0:
276,100,1047372,1,0,0:0:0:0:
400,164,1047551,1,0,0:0:0:0:
444,296,1047731,6,0,P|408:340|344:340,1,100
240,288,1048090,1,0,0:0:0:0:
184,284,1048180,1,0,0:0:0:0:
132,296,1048270,1,0,0:0:0:0:
88,328,1048360,1,0,0:0:0:0:
60,376,1048450,6,0,P|16:348|0:300,1,100
84,192,1048809,1,0,0:0:0:0:
0,79,1048989,1,0,0:0:0:0:
128,28,1049168,5,0,0:0:0:0:
456,76,1049438,1,0,0:0:0:0:
312,372,1049707,1,0,0:0:0:0:
256,244,1049887,5,0,0:0:0:0:
148,332,1050066,2,0,P|72:332|44:296,1,100
24,184,1050426,1,0,0:0:0:0:
84,56,1050605,1,0,0:0:0:0:
140,48,1050695,1,0,0:0:0:0:
188,72,1050785,1,0,0:0:0:0:
256,192,1050965,1,0,0:0:0:0:
324,312,1051144,1,0,0:0:0:0:
372,336,1051234,1,0,0:0:0:0:
428,328,1051324,6,0,L|448:216,1,100
361,77,1051683,2,0,L|344:176,1,100,0|0,0:0|0:0,0:0:0:0:
256,284,1052042,1,0,0:0:0:0:
128,304,1052222,1,0,0:0:0:0:
76,284,1052312,1,0,0:0:0:0:
48,236,1052402,1,0,0:0:0:0:
48,116,1052581,1,0,0:0:0:0:
144,60,1052761,6,0,P|204:56|252:84,1,100
260,100,1053031,1,0,0:0:0:0:
280,128,1053120,1,0,0:0:0:0:
252,236,1053300,1,0,0:0:0:0:
320,324,1053480,1,0,0:0:0:0:
424,284,1053659,1,0,0:0:0:0:
432,248,1053749,1,0,0:0:0:0:
440,212,1053839,1,0,0:0:0:0:
364,132,1054019,1,0,0:0:0:0:
356,96,1054109,1,0,0:0:0:0:
348,60,1054199,1,0,0:0:0:0:
256,192,1054288,12,0,1057072,0:0:0:0:
256,324,1057432,5,0,0:0:0:0:
344,260,1057611,1,0,0:0:0:0:
344,260,1057701,1,0,0:0:0:0:
344,260,1057791,2,0,P|364:196|348:164,1,100
244,148,1058150,1,0,0:0:0:0:
208,144,1058240,1,0,0:0:0:0:
176,132,1058330,1,0,0:0:0:0:
148,112,1058420,1,0,0:0:0:0:
132,80,1058510,1,0,0:0:0:0:
224,40,1058689,5,0,0:0:0:0:
316,76,1058869,2,0,P|384:92|432:72,1,100
504,128,1059228,1,0,0:0:0:0:
492,228,1059408,1,0,0:0:0:0:
484,264,1059498,1,0,0:0:0:0:
476,296,1059587,2,0,P|428:328|336:304,1,150
308,248,1059947,6,0,P|228:252|168:360,1,200
276,348,1060486,1,0,0:0:0:0:
164,184,1060665,2,0,P|124:152|64:164,1,100
24,308,1061025,2,0,P|71:289|91:231,1,100
40,68,1061384,6,0,P|136:44|228:100,1,200
256,196,1061923,1,0,0:0:0:0:
320,284,1062102,2,0,P|368:320|412:320,1,100
406,62,1062462,2,0,P|368:64|320:100,1,100
216,260,1062821,6,0,P|176:304|44:280,1,200
24,176,1063360,1,0,0:0:0:0:
60,72,1063539,2,0,P|120:52|180:76,1,100
252,108,1063899,2,0,P|286:115|346:95,1,100
472,32,1064258,6,0,P|504:112|472:228,1,200
404,300,1064797,1,0,0:0:0:0:
288,344,1064977,2,0,L|184:344,1,100
72,300,1065336,1,0,0:0:0:0:
72,264,1065426,1,0,0:0:0:0:
72,228,1065516,1,0,0:0:0:0:
72,192,1065605,1,0,0:0:0:0:
72,156,1065695,6,0,B|92:112|92:112|268:112,1,200
296,208,1066234,1,0,0:0:0:0:
296,208,1066324,1,0,0:0:0:0:
296,208,1066414,2,0,L|184:208,1,100
136,300,1066773,1,0,0:0:0:0:
236,348,1066953,5,0,0:0:0:0:
236,348,1067042,1,0,0:0:0:0:
236,348,1067132,2,0,P|304:352|344:320,1,100
492,272,1067492,2,0,P|424:276|384:244,1,100
368,156,1067851,1,0,0:0:0:0:
444,76,1068031,2,0,B|412:40|412:40|360:40,1,100
256,120,1068390,5,0,0:0:0:0:
256,120,1068480,1,0,0:0:0:0:
256,120,1068569,2,0,L|256:320,1,200
148,336,1069108,1,0,0:0:0:0:
112,336,1069198,1,0,0:0:0:0:
76,336,1069288,2,0,B|36:300|36:300|36:248,1,100
36,143,1069647,1,0,0:0:0:0:
100,56,1069827,5,0,0:0:0:0:
100,56,1069917,1,0,0:0:0:0:
100,56,1070007,2,0,P|152:52|196:72,1,100
412,56,1070366,2,0,P|360:52|316:72,1,100
316,228,1070725,1,0,0:0:0:0:
355,82,1070904,1,0,0:0:0:0:
277,217,1071084,1,0,0:0:0:0:
383,111,1071264,1,0,0:0:0:0:
248,189,1071444,6,0,L|24:188,3,200
24,296,1072701,1,0,0:0:0:0:
56,308,1072791,1,0,0:0:0:0:
88,320,1072881,2,0,P|144:332|204:300,1,100
256,236,1073240,1,0,0:0:0:0:
328,318,1073420,1,0,0:0:0:0:
400,237,1073599,2,0,P|424:184|416:136,1,100
252,32,1073959,2,0,P|228:85|236:133,1,100
309,288,1074318,6,0,P|268:344|136:336,1,200
64,268,1074857,1,0,0:0:0:0:
56,236,1074947,1,0,0:0:0:0:
48,204,1075036,2,0,L|24:104,1,100
160,32,1075396,2,0,L|184:132,1,100
192,164,1075665,1,0,0:0:0:0:
200,196,1075755,6,0,P|232:248|272:268,1,100
405,266,1076114,2,0,P|438:247|470:195,1,100,0|0,0:0|0:0,0:0:0:0:
460,84,1076474,1,0,0:0:0:0:
360,132,1076653,2,0,P|320:116|292:68,1,100
188,32,1077013,1,0,0:0:0:0:
153,32,1077102,1,0,0:0:0:0:
117,32,1077192,6,0,P|52:48|12:176,3,200
52,264,1078450,1,0,0:0:0:0:
84,280,1078539,1,0,0:0:0:0:
116,296,1078629,2,0,L|224:296,1,100
396,296,1078989,2,0,L|288:296,1,100
216,220,1079348,1,0,0:0:0:0:
240,112,1079528,1,0,0:0:0:0:
344,80,1079707,1,0,0:0:0:0:
448,120,1079887,5,0,0:0:0:0:
448,120,1079977,1,0,0:0:0:0:
448,120,1080066,2,0,P|484:176|416:288,1,200
336,344,1080605,1,0,0:0:0:0:
336,344,1080695,1,0,0:0:0:0:
336,344,1080785,2,0,L|236:308,1,100
52,280,1081144,2,0,L|152:248,1,100
180,240,1081414,1,0,0:0:0:0:
212,232,1081504,6,0,B|256:216|256:216|276:152,1,100
384,168,1081863,2,0,B|392:121|392:121|346:72,1,100
252,44,1082222,5,0,0:0:0:0:
216,40,1082312,1,0,0:0:0:0:
180,48,1082402,1,0,0:0:0:0:
64,124,1082581,1,0,0:0:0:0:
64,260,1082761,1,0,0:0:0:0:
180,336,1082941,6,0,L|280:300,1,100
380,268,1083300,2,0,P|448:276|508:388,2,200
300,192,1084198,1,0,0:0:0:0:
348,92,1084378,2,0,P|384:64|448:64,1,100
424,168,1084737,1,0,0:0:0:0:
244,116,1084917,2,0,P|184:132|156:184,1,100
212,260,1085276,1,0,0:0:0:0:
200,292,1085366,1,0,0:0:0:0:
172,312,1085456,2,0,P|100:328|64:316,1,100
24,224,1085815,5,0,0:0:0:0:
52,116,1085995,1,0,0:0:0:0:
136,188,1086174,1,0,0:0:0:0:
164,80,1086354,1,0,0:0:0:0:
252,148,1086533,2,0,P|320:168|412:80,1,200
308,52,1087072,1,0,0:0:0:0:
252,148,1087252,6,0,P|232:204|248:256,1,100
344,284,1087611,1,0,0:0:0:0:
260,356,1087791,2,0,L|148:360,1,100
76,288,1088150,2,0,L|28:240,2,50
172,236,1088510,1,0,0:0:0:0:
206,236,1088599,1,0,0:0:0:0:
241,236,1088689,6,0,B|336:236|336:236|424:160,1,200
364,72,1089228,1,0,0:0:0:0:
280,144,1089408,2,0,B|212:144|212:144|172:112,1,100
116,40,1089767,1,0,0:0:0:0:
36,116,1089947,1,0,0:0:0:0:
36,224,1090126,6,0,P|44:280|80:328,1,100
152,244,1090486,1,0,0:0:0:0:
224,324,1090665,2,0,B|280:324|280:324|360:292|360:292|420:292,1,200
452,304,1091114,1,0,0:0:0:0:
484,312,1091204,2,0,P|504:268|480:212,1,100
280,212,1091563,6,0,P|216:180|228:56,1,200
280,211,1092102,2,0,P|284:283|170:335,1,200
92,276,1092641,1,0,0:0:0:0:
68,168,1092821,1,0,0:0:0:0:
128,76,1093001,5,0,0:0:0:0:
384,152,1093180,1,0,0:0:0:0:
128,152,1093360,1,0,0:0:0:0:
384,76,1093539,1,0,0:0:0:0:
256,40,1093899,5,0,0:0:0:0:
256,76,1093989,1,0,0:0:0:0:
256,112,1094078,1,0,0:0:0:0:
256,224,1094258,1,0,0:0:0:0:
316,316,1094438,6,0,P|396:324|456:220,3,200
456,124,1095695,1,0,0:0:0:0:
440,92,1095785,1,0,0:0:0:0:
424,60,1095875,2,0,P|364:48|308:68,1,100
272,152,1096234,1,0,0:0:0:0:
192,76,1096414,1,0,0:0:0:0:
84,96,1096593,2,0,B|56:128|56:128|56:188,1,100
132,268,1096953,2,0,B|160:236|160:236|160:176,1,100
32,296,1097312,6,0,P|72:344|208:328,1,200
272,256,1097851,1,0,0:0:0:0:
272,256,1097941,1,0,0:0:0:0:
272,256,1098030,2,0,L|368:316,1,100
456,356,1098390,1,0,0:0:0:0:
496,252,1098569,5,0,0:0:0:0:
492,216,1098659,1,0,0:0:0:0:
488,180,1098749,2,0,L|476:80,1,100
376,124,1099108,2,0,L|364:24,1,100
256,40,1099468,1,0,0:0:0:0:
224,48,1099557,1,0,0:0:0:0:
192,56,1099647,1,0,0:0:0:0:
88,92,1099827,1,0,0:0:0:0:
68,120,1099917,1,0,0:0:0:0:
60,156,1100007,1,0,0:0:0:0:
64,192,1100096,1,0,0:0:0:0:
80,224,1100186,6,0,B|109:277|109:277|252:312,1,200
352,328,1100725,1,0,0:0:0:0:
352,328,1100905,2,0,P|408:284|420:236,1,100
432,148,1101264,1,0,0:0:0:0:
392,44,1101444,1,0,0:0:0:0:
300,104,1101623,6,0,L|184:68,2,100
308,212,1102162,2,0,P|268:264|128:236,1,200
104,76,1102701,1,0,0:0:0:0:
64,180,1102881,1,0,0:0:0:0:
52,212,1102971,1,0,0:0:0:0:
40,244,1103060,6,0,L|8:344,2,100
148,212,1103599,1,0,0:0:0:0:
256,184,1103779,2,0,P|300:152|272:20,1,200
196,96,1104318,1,0,0:0:0:0:
220,264,1104498,6,0,P|244:312|296:344,1,100
388,360,1104857,1,0,0:0:0:0:
472,288,1105036,2,0,L|472:180,1,100
384,124,1105396,1,0,0:0:0:0:
384,124,1105486,1,0,0:0:0:0:
384,124,1105575,2,0,P|328:104|280:112,1,100
236,208,1105935,6,0,B|168:208|168:208|132:176,1,100
16,256,1106294,2,0,B|84:256|84:256|120:288,1,100,0|0,0:0|0:0,0:0:0:0:
176,364,1106653,1,0,0:0:0:0:
244,276,1106833,1,0,0:0:0:0:
312,364,1107013,1,0,0:0:0:0:
380,276,1107192,1,0,0:0:0:0:
308,192,1107372,6,0,P|332:140|380:112,1,100
476,132,1107731,1,0,0:0:0:0:
352,32,1107911,2,0,P|264:80|220:168,1,200
224,200,1108360,1,0,0:0:0:0:
232,236,1108450,2,0,P|188:280|148:292,1,100
42,291,1108809,1,0,0:0:0:0:
40,124,1109887,5,0,0:0:0:0:
112,88,1110066,1,0,0:0:0:0:
112,88,1110156,1,0,0:0:0:0:
112,88,1110246,1,0,0:0:0:0:
184,124,1110426,1,0,0:0:0:0:
256,88,1110605,1,0,0:0:0:0:
328,128,1110785,2,0,P|396:124|436:96,1,100
496,28,1111144,1,0,0:0:0:0:
496,180,1111324,2,0,L|496:284,1,100
392,320,1111683,6,0,P|332:304|216:380,1,200,0|0,0:0|0:0,0:0:0:0:
109,371,1112222,1,0,0:0:0:0:
40,284,1112402,2,0,P|24:224|44:156,1,100
84,92,1112761,1,0,0:0:0:0:
180,144,1112941,1,0,0:0:0:0:
256,68,1113120,6,0,L|368:68,1,100
448,160,1113480,2,0,L|336:160,1,100
252,268,1113839,2,0,P|192:304|80:248,1,200
28,160,1114378,5,0,0:0:0:0:
28,160,1114468,1,0,0:0:0:0:
28,160,1114557,2,0,B|44:108|44:108|96:88,1,100
184,148,1114917,1,0,0:0:0:0:
288,116,1115096,1,0,0:0:0:0:
320,108,1115186,1,0,0:0:0:0:
356,100,1115276,2,0,B|376:148|376:148|376:204,1,100
372,308,1115635,1,0,0:0:0:0:
256,360,1115815,5,0,0:0:0:0:
256,360,1115905,1,0,0:0:0:0:
256,360,1115995,2,0,B|204:352|204:352|168:316,1,100
32,260,1116354,2,0,B|84:252|84:252|120:216,1,100
60,124,1116713,1,0,0:0:0:0:
148,56,1116893,1,0,0:0:0:0:
256,40,1117072,1,0,0:0:0:0:
364,56,1117252,1,0,0:0:0:0:
452,124,1117432,6,0,P|464:192|352:292,1,200
296,220,1117971,1,0,0:0:0:0:
244,316,1118150,2,0,L|140:288,1,100
96,160,1118510,2,0,L|200:188,1,100
192,185,1118779,1,0,0:0:0:0:
192,185,1118869,6,0,P|232:160|260:104,1,100
352,168,1119228,2,0,P|365:122|350:61,1,100,0|0,0:0|0:0,0:0:0:0:
252,36,1119587,5,0,0:0:0:0:
116,124,1119767,1,0,0:0:0:0:
256,112,1119947,5,0,0:0:0:0:
392,200,1120127,1,0,0:0:0:0:
340,304,1120306,6,0,P|256:350|172:304,1,200
88,232,1120845,1,0,0:0:0:0:
136,132,1121025,2,0,L|196:216,1,100
376,132,1121384,2,0,L|316:216,1,100
256,340,1121743,5,0,0:0:0:0:
136,132,1121923,1,0,0:0:0:0:
376,132,1122102,1,0,0:0:0:0:
256,216,1122462,5,0,0:0:0:0:
256,216,1122551,1,0,0:0:0:0:
256,216,1122641,1,0,0:0:0:0:
176,292,1122821,1,0,0:0:0:0:
68,304,1123001,1,0,0:0:0:0:
52,276,1123090,1,0,0:0:0:0:
48,240,1123180,6,0,P|48:168|156:92,1,200
156,204,1123719,1,0,0:0:0:0:
256,156,1123899,2,0,B|288:112|288:112|288:56,1,100
184,28,1124258,1,0,0:0:0:0:
384,80,1124438,1,0,0:0:0:0:
384,80,1124528,1,0,0:0:0:0:
384,80,1124617,6,0,P|440:148|440:176,1,100
416,264,1124977,1,0,0:0:0:0:
336,188,1125156,1,0,0:0:0:0:
440,156,1125336,1,0,0:0:0:0:
416,264,1125516,1,0,0:0:0:0:
320,320,1125695,5,0,0:0:0:0:
284,320,1125785,1,0,0:0:0:0:
248,320,1125875,2,0,L|144:320,1,100
56,256,1126234,1,0,0:0:0:0:
136,180,1126414,2,0,B|168:140|168:140|148:80,1,100
140,60,1126683,1,0,0:0:0:0:
172,48,1126773,2,0,B|220:32|220:32|268:48,1,100
340,128,1127132,1,0,0:0:0:0:
416,48,1127312,1,0,0:0:0:0:
480,192,1127492,6,0,P|472:272|356:316,1,200
288,248,1128030,1,0,0:0:0:0:
204,320,1128210,2,0,P|136:312|112:272,1,100
60,200,1128569,1,0,0:0:0:0:
60,164,1128659,1,0,0:0:0:0:
60,128,1128749,1,0,0:0:0:0:
88,104,1128839,1,0,0:0:0:0:
116,84,1128929,6,0,L|208:32,1,100
300,84,1129288,2,0,B|256:112|256:112|256:176,1,100
256,194,1129557,1,0,0:0:0:0:
256,229,1129647,1,0,0:0:0:0:
256,340,1129827,1,0,0:0:0:0:
348,280,1130007,1,0,0:0:0:0:
164,280,1130186,1,0,0:0:0:0:
164,280,1130276,1,0,0:0:0:0:
164,280,1130366,6,0,P|116:264|92:216,1,100
208,88,1130725,2,0,P|218:137|188:182,1,100
108,112,1131084,1,0,0:0:0:0:
308,60,1131264,1,0,0:0:0:0:
272,164,1131444,5,0,0:0:0:0:
260,196,1131533,1,0,0:0:0:0:
248,228,1131623,2,0,P|248:288|292:320,1,100
376,356,1131983,1,0,0:0:0:0:
274,313,1132162,1,0,0:0:0:0:
364,252,1132342,1,0,0:0:0:0:
364,252,1132432,1,0,0:0:0:0:
364,252,1132522,2,0,L|408:152,1,100
452,60,1132881,1,0,0:0:0:0:
348,88,1133060,5,0,0:0:0:0:
256,28,1133240,2,0,L|172:84,1,100
256,356,1133599,2,0,L|340:300,1,100
480,324,1133959,1,0,0:0:0:0:
360,192,1134138,1,0,0:0:0:0:
480,60,1134318,1,0,0:0:0:0:
360,192,1134498,1,0,0:0:0:0:
324,191,1134587,1,0,0:0:0:0:
288,192,1134677,1,0,0:0:0:0:
456,112,1138989,5,0,0:0:0:0:
380,192,1139168,1,0,0:0:0:0:
456,272,1139348,1,0,0:0:0:0:
456,272,1139438,1,0,0:0:0:0:
456,272,1139528,1,0,0:0:0:0:
368,340,1139707,2,0,P|316:352|264:332,1,100
244,316,1139977,1,0,0:0:0:0:
224,288,1140066,1,0,0:0:0:0:
216,256,1140156,1,0,0:0:0:0:
216,220,1140246,1,0,0:0:0:0:
224,188,1140336,1,0,0:0:0:0:
244,160,1140426,6,0,P|220:80|92:56,1,200
132,156,1140965,1,0,0:0:0:0:
132,156,1141054,1,0,0:0:0:0:
132,156,1141144,2,0,P|128:220|100:252,1,100
28,324,1141504,1,0,0:0:0:0:
132,356,1141683,1,0,0:0:0:0:
167,356,1141773,1,0,0:0:0:0:
204,356,1141863,6,0,P|280:336|320:224,1,200
256,144,1142402,1,0,0:0:0:0:
256,144,1142492,1,0,0:0:0:0:
256,144,1142581,2,0,L|316:64,1,100
426,64,1142941,1,0,0:0:0:0:
492,152,1143120,1,0,0:0:0:0:
480,184,1143210,1,0,0:0:0:0:
468,216,1143300,6,0,P|396:280|300:248,1,200
212,192,1143839,1,0,0:0:0:0:
212,192,1143929,1,0,0:0:0:0:
212,192,1144019,2,0,P|160:232|156:272,1,100
216,356,1144378,1,0,0:0:0:0:
324,352,1144557,1,0,0:0:0:0:
348,328,1144647,1,0,0:0:0:0:
364,296,1144737,6,0,P|376:220|304:124,1,200
204,92,1145276,1,0,0:0:0:0:
204,92,1145366,1,0,0:0:0:0:
204,92,1145456,2,0,P|152:112|104:96,1,100
284,24,1145815,2,0,P|336:4|384:20,1,100
400,40,1146084,1,0,0:0:0:0:
420,68,1146174,6,0,P|432:120|316:220,1,200
248,164,1146713,1,0,0:0:0:0:
248,164,1146803,1,0,0:0:0:0:
248,164,1146893,2,0,P|232:224|248:276,1,100
208,364,1147252,1,0,0:0:0:0:
124,296,1147432,1,0,0:0:0:0:
88,300,1147522,1,0,0:0:0:0:
56,312,1147611,6,0,P|24:260|68:128,1,200
160,68,1148150,1,0,0:0:0:0:
196,68,1148240,1,0,0:0:0:0:
232,68,1148330,2,0,P|292:84|320:120,1,100
256,204,1148689,1,0,0:0:0:0:
320,292,1148869,1,0,0:0:0:0:
352,304,1148959,1,0,0:0:0:0:
388,304,1149048,6,0,P|456:272|468:144,1,200
380,100,1149587,1,0,0:0:0:0:
344,92,1149677,1,0,0:0:0:0:
308,84,1149767,2,0,L|200:60,1,100
104,92,1150126,1,0,0:0:0:0:
76,200,1150306,1,0,0:0:0:0:
68,232,1150396,1,0,0:0:0:0:
60,268,1150486,6,0,P|72:328|200:348,1,200
256,264,1151025,1,0,0:0:0:0:
256,264,1151114,1,0,0:0:0:0:
256,264,1151204,2,0,P|300:308|352:312,1,100
372,312,1151474,1,0,0:0:0:0:
404,304,1151563,1,0,0:0:0:0:
428,280,1151653,1,0,0:0:0:0:
444,248,1151743,1,0,0:0:0:0:
448,212,1151833,1,0,0:0:0:0:
444,176,1151923,5,0,0:0:0:0:
388,80,1152100,1,0,0:0:0:0:
320,168,1152278,2,0,P|264:172|188:112,1,150
152,60,1152633,2,0,L|56:116,1,100
20,212,1152988,1,0,0:0:0:0:
68,312,1153165,1,0,0:0:0:0:
176,340,1153343,6,0,P|264:340|320:224,1,200
212,253,1153875,2,0,P|270:339|358:339,1,200,0|0,0:0|0:0,0:0:0:0:
444,268,1154408,1,0,0:0:0:0:
464,160,1154585,1,0,0:0:0:0:
464,124,1154674,1,0,0:0:0:0:
464,88,1154763,1,0,0:0:0:0:
372,32,1154939,5,0,0:0:0:0:
328,132,1155115,2,0,L|256:304,1,150
276,340,1155468,2,0,P|216:356|168:336,1,100
84,288,1155821,1,0,0:0:0:0:
172,224,1155998,1,0,0:0:0:0:
72,176,1156174,6,0,P|104:96|216:80,1,200
304,132,1156704,2,0,P|407:112|439:32,1,200,0|0,0:0|0:0,0:0:0:0:
332,48,1157233,1,0,0:0:0:0:
297,48,1157321,1,0,0:0:0:0:
261,48,1157410,1,0,0:0:0:0:
226,48,1157498,1,0,0:0:0:0:
191,48,1157586,1,0,0:0:0:0:
36,52,1157763,5,0,0:0:0:0:
100,140,1157939,2,0,P|136:224|100:284,1,150
72,332,1158292,2,0,P|124:312|184:332,1,100
272,356,1158645,1,0,0:0:0:0:
368,308,1158821,1,0,0:0:0:0:
408,204,1158998,6,0,P|412:116|328:48,1,200
308,156,1159527,2,0,P|209:191|135:144,1,200,0|0,0:0|0:0,0:0:0:0:
96,40,1160057,1,0,0:0:0:0:
204,12,1160233,1,0,0:0:0:0:
204,12,1160321,1,0,0:0:0:0:
204,12,1160410,1,0,0:0:0:0:
296,72,1160586,5,0,0:0:0:0:
392,16,1160763,2,0,P|444:52|456:188,1,200
404,276,1161292,2,0,L|320:344,1,100
228,284,1161645,5,0,0:0:0:0:
228,284,1161733,1,0,0:0:0:0:
228,284,1161821,2,0,L|228:184,1,100
392,16,1162174,2,0,L|392:116,1,100
148,284,1162527,2,0,L|148:184,1,100
256,36,1162880,1,0,0:0:0:0:
288,44,1162968,1,0,0:0:0:0:
316,68,1163057,1,0,0:0:0:0:
332,100,1163145,1,0,0:0:0:0:
336,136,1163233,6,0,L|336:240,1,100
336,272,1163494,1,0,0:0:0:0:
336,308,1163581,2,0,P|372:344|512:288,1,200
420,236,1164105,1,0,0:0:0:0:
500,160,1164279,1,0,0:0:0:0:
420,84,1164453,1,0,0:0:0:0:
392,64,1164541,1,0,0:0:0:0:
364,44,1164628,6,0,P|296:36|252:68,1,100
272,160,1164977,1,0,0:0:0:0:
176,108,1165151,2,0,P|92:156|64:276,1,200
120,344,1165674,1,0,0:0:0:0:
192,260,1165849,1,0,0:0:0:0:
224,248,1165936,1,0,0:0:0:0:
260,248,1166023,1,0,0:0:0:0:
352,308,1166196,5,0,0:0:0:0:
436,236,1166369,2,0,P|456:184|368:72,1,200
300,148,1166890,1,0,0:0:0:0:
212,84,1167063,1,0,0:0:0:0:
140,168,1167236,1,0,0:0:0:0:
120,196,1167323,1,0,0:0:0:0:
100,224,1167410,6,0,P|80:288|84:332,1,100
188,352,1167757,1,0,0:0:0:0:
256,264,1167930,2,0,P|312:248|372:276,1,100
448,308,1168277,1,0,0:0:0:0:
488,208,1168450,1,0,0:0:0:0:
468,180,1168537,1,0,0:0:0:0:
448,152,1168624,1,0,0:0:0:0:
428,124,1168710,1,0,0:0:0:0:
408,96,1168797,1,0,0:0:0:0:
332,16,1168970,5,0,0:0:0:0:
260,100,1169144,2,0,P|192:104|116:44,1,150
126,60,1169491,2,0,L|88:160,1,100
60,260,1169838,1,0,0:0:0:0:
128,344,1170011,1,0,0:0:0:0:
236,348,1170184,6,0,P|304:340|384:232,1,200
440,340,1170705,2,0,P|477:282|446:152,1,200,0|0,0:0|0:0,0:0:0:0:
344,144,1171225,1,0,0:0:0:0:
260,212,1171398,1,0,0:0:0:0:
260,212,1171485,1,0,0:0:0:0:
260,212,1171572,6,0,L|160:164,1,100
172,60,1171918,2,0,P|80:80|44:188,1,200
44,280,1172439,2,0,L|156:328,1,100
240,352,1172786,5,0,0:0:0:0:
240,352,1172872,1,0,0:0:0:0:
240,352,1172959,2,0,L|344:308,1,100
444,48,1173306,2,0,L|340:92,1,100,0|0,0:0|0:0,0:0:0:0:
232,272,1173653,2,0,L|336:228,1,100
256,44,1173999,1,0,0:0:0:0:
224,56,1174086,1,0,0:0:0:0:
192,68,1174173,1,0,0:0:0:0:
160,80,1174259,1,0,0:0:0:0:
128,92,1174346,5,0,0:0:0:0:
194,361,1174688,1,0,0:0:0:0:
466,294,1175031,1,0,0:0:0:0:
399,21,1175374,1,0,0:0:0:0:
396,132,1175546,5,0,0:0:0:0:
396,132,1175631,1,0,0:0:0:0:
396,132,1175717,1,0,0:0:0:0:
300,80,1175888,2,0,P|232:92|188:124,1,100
144,196,1176231,1,0,0:0:0:0:
188,296,1176403,1,0,0:0:0:0:
288,252,1176574,2,0,P|356:252|400:288,1,100
380,376,1176917,6,0,L|492:388,2,100
292,312,1177431,2,0,P|208:324|120:236,1,200
104,144,1177946,1,0,0:0:0:0:
125,253,1178117,1,0,0:0:0:0:
212,188,1178288,1,0,0:0:0:0:
288,268,1178460,2,0,P|356:276|412:240,1,100
464,188,1178803,1,0,0:0:0:0:
488,296,1178974,1,0,0:0:0:0:
352,168,1179146,5,0,0:0:0:0:
328,140,1179231,1,0,0:0:0:0:
320,108,1179317,1,0,0:0:0:0:
328,72,1179403,1,0,0:0:0:0:
348,44,1179488,1,0,0:0:0:0:
380,32,1179574,1,0,0:0:0:0:
416,32,1179660,1,0,0:0:0:0:
448,48,1179746,1,0,0:0:0:0:
468,76,1179831,5,0,0:0:0:0:
425,349,1180173,1,0,0:0:0:0:
148,306,1180516,1,0,0:0:0:0:
191,28,1180859,1,0,0:0:0:0:
216,136,1181031,5,0,0:0:0:0:
216,136,1181117,1,0,0:0:0:0:
216,136,1181203,1,0,0:0:0:0:
112,96,1181374,2,0,P|80:152|84:204,1,100
92,296,1181717,1,0,0:0:0:0:
188,344,1181888,2,0,L|304:324,1,100
396,308,1182231,1,0,0:0:0:0:
436,204,1182403,5,0,0:0:0:0:
436,204,1182488,1,0,0:0:0:0:
436,204,1182574,2,0,L|324:224,1,100
228,240,1182917,1,0,0:0:0:0:
132,184,1183088,1,0,0:0:0:0:
228,132,1183260,1,0,0:0:0:0:
132,76,1183431,2,0,P|80:88|44:120,1,100
44,228,1183774,5,0,0:0:0:0:
44,264,1183860,1,0,0:0:0:0:
44,300,1183946,2,0,P|84:340|128:344,1,100
212,276,1184288,1,0,0:0:0:0:
300,344,1184460,1,0,0:0:0:0:
388,276,1184631,1,0,0:0:0:0:
476,344,1184803,2,0,P|504:284|492:228,1,100
492,217,1185060,1,0,0:0:0:0:
467,192,1185146,1,0,0:0:0:0:
386,98,1185317,6,0,L|398:42,2,50
257,110,1185655,2,0,L|244:61,2,50
139,165,1185994,2,0,L|144:116,2,50
49,264,1186333,2,0,L|30:217,2,50
260,348,1186672,5,0,0:0:0:0:
294,354,1186756,1,0,0:0:0:0:
329,352,1186841,1,0,0:0:0:0:
363,343,1186926,1,0,0:0:0:0:
394,328,1187010,1,0,0:0:0:0:
421,305,1187095,1,0,0:0:0:0:
442,278,1187180,1,0,0:0:0:0:
458,247,1187265,1,0,0:0:0:0:
466,213,1187350,5,0,0:0:0:0:
467,178,1187434,1,0,0:0:0:0:
460,144,1187519,1,0,0:0:0:0:
446,111,1187604,1,0,0:0:0:0:
426,83,1187688,1,0,0:0:0:0:
400,60,1187773,1,0,0:0:0:0:
370,42,1187858,1,0,0:0:0:0:
336,32,1187943,1,0,0:0:0:0:
302,29,1188028,6,0,P|232:52|104:24,1,200
236,136,1188533,1,0,0:0:0:0:
236,136,1188702,2,0,P|307:120|404:32,1,200
348,196,1189207,1,0,0:0:0:0:
348,196,1189376,2,0,P|288:216|220:216,1,100
144,192,1189713,1,0,0:0:0:0:
112,296,1189881,5,0,0:0:0:0:
92,132,1190050,1,0,0:0:0:0:
164,356,1190219,1,0,0:0:0:0:
216,168,1190387,1,0,0:0:0:0:
40,320,1190556,1,0,0:0:0:0:
40,320,1190640,1,0,0:0:0:0:
40,320,1190724,6,0,L|40:104,1,200
172,24,1191230,1,0,0:0:0:0:
172,24,1191398,2,0,L|172:240,1,200
308,320,1191904,1,0,0:0:0:0:
308,320,1192072,2,0,L|308:220,1,100
376,40,1192410,6,0,L|480:56,1,100
392,152,1192747,2,0,L|496:168,1,100,0|0,0:0|0:0,0:0:0:0:
464,320,1193084,1,0,0:0:0:0:
428,316,1193168,1,0,0:0:0:0:
392,312,1193252,1,0,0:0:0:0:
356,308,1193336,1,0,0:0:0:0:
320,306,1193421,6,0,P|264:300|124:352,1,200
232,216,1193926,1,0,0:0:0:0:
232,216,1194095,2,0,P|340:216|432:264,1,200
312,128,1194601,1,0,0:0:0:0:
312,128,1194769,2,0,P|252:124|200:136,1,100
120,192,1195106,1,0,0:0:0:0:
32,128,1195275,1,0,0:0:0:0:
104,44,1195443,2,0,L|212:32,1,100
368,72,1195780,2,0,L|476:60,1,100
496,168,1196120,6,0,L|336:300,1,200
256,228,1196620,1,0,0:0:0:0:
170,295,1196786,2,0,L|16:168,1,200
64,68,1197286,1,0,0:0:0:0:
152,136,1197453,2,0,P|216:136|256:104,1,100
360,248,1197786,2,0,P|296:248|256:280,1,100
256,376,1198120,5,0,0:0:0:0:
256,376,1198203,1,0,0:0:0:0:
256,376,1198286,1,0,0:0:0:0:
152,344,1198453,1,0,0:0:0:0:
128,320,1198536,1,0,0:0:0:0:
112,288,1198620,1,0,0:0:0:0:
108,252,1198703,1,0,0:0:0:0:
112,216,1198786,6,0,P|140:148|248:88,1,200
80,92,1199283,1,0,0:0:0:0:
80,92,1199448,2,0,P|36:168|36:288,1,200
204,292,1199946,1,0,0:0:0:0:
204,292,1200111,2,0,P|192:240|204:188,1,100
288,124,1200443,1,0,0:0:0:0:
376,192,1200609,5,0,0:0:0:0:
344,36,1200774,1,0,0:0:0:0:
284,224,1200940,1,0,0:0:0:0:
436,68,1201106,1,0,0:0:0:0:
448,248,1201272,5,0,0:0:0:0:
448,248,1201355,1,0,0:0:0:0:
448,248,1201437,2,0,P|424:328|320:368,1,200
116,272,1201935,1,0,0:0:0:0:
116,272,1202100,2,0,P|197:291|283:221,1,200
208,80,1202598,1,0,0:0:0:0:
176,176,1202763,2,0,P|124:148|104:108,1,100
140,8,1203095,5,0,0:0:0:0:
32,152,1203261,1,0,0:0:0:0:
140,296,1203426,1,0,0:0:0:0:
248,152,1203592,1,0,0:0:0:0:
356,296,1203758,1,0,0:0:0:0:
392,296,1203841,1,0,0:0:0:0:
424,280,1203924,1,0,0:0:0:0:
448,256,1204006,1,0,0:0:0:0:
452,220,1204089,6,0,P|448:152|360:44,1,200
256,200,1204587,1,0,0:0:0:0:
141,49,1204752,2,0,P|64:152|60:220,1,200
76,328,1205250,1,0,0:0:0:0:
180,292,1205415,2,0,P|240:288|300:320,1,100
372,360,1205747,1,0,0:0:0:0:
460,296,1205913,1,0,0:0:0:0:
364,244,1206078,6,0,L|372:132,1,100
492,152,1206410,2,0,L|500:40,1,100
388,56,1206741,6,0,P|312:80|204:28,1,200
96,52,1207239,1,0,0:0:0:0:
44,148,1207404,2,0,P|48:208|84:256,1,100
224,324,1207736,2,0,P|220:264|184:216,1,100
136,140,1208067,6,0,L|224:44,1,100
376,140,1208399,2,0,L|288:44,1,100
244,156,1208730,1,0,0:0:0:0:
268,184,1208813,1,0,0:0:0:0:
244,212,1208896,1,0,0:0:0:0:
268,240,1208979,1,0,0:0:0:0:
244,268,1209062,1,0,0:0:0:0:
268,296,1209144,1,0,0:0:0:0:
244,324,1209227,1,0,0:0:0:0:
268,352,1209310,1,0,0:0:0:0:
244,380,1209393,1,0,0:0:0:0:
256,192,1209476,12,0,1210719,0:0:0:0:
256,192,1211046,5,0,0:0:0:0:
256,88,1211374,1,0,0:0:0:0:
256,88,1211456,1,0,0:0:0:0:
256,88,1211538,1,0,0:0:0:0:
256,296,1211702,1,0,0:0:0:0:
256,296,1211784,1,0,0:0:0:0:
256,296,1211866,1,0,0:0:0:0:
360,192,1212056,6,0,P|432:232|420:360,1,200
324,348,1212545,1,0,0:0:0:0:
180,320,1212708,2,0,L|76:304,1,100
156,104,1213034,2,0,L|260:88,1,100
296,192,1213360,6,0,P|400:192|452:88,1,200
344,96,1213849,1,0,0:0:0:0:
428,288,1214012,2,0,L|468:380,1,100
296,192,1214338,2,0,L|196:180,1,100
28,244,1214664,6,0,P|60:320|176:328,1,200
256,268,1215153,1,0,0:0:0:0:
356,184,1215316,2,0,P|384:120|368:76,1,100
134,93,1215642,2,0,P|128:120|156:184,1,100
256,344,1215969,6,0,L|256:128,1,200
256,36,1216458,1,0,0:0:0:0:
348,96,1216621,2,0,P|408:108|456:84,1,100
348,96,1216947,1,0,0:0:0:0:
340,128,1217028,1,0,0:0:0:0:
332,160,1217110,1,0,0:0:0:0:
324,192,1217191,1,0,0:0:0:0:
316,224,1217273,6,0,P|316:288|440:348,1,200
424,244,1217762,1,0,0:0:0:0:
236,344,1217925,2,0,P|180:332|152:292,1,100
48,204,1218251,2,0,P|104:192|129:160,1,100
256,36,1218577,6,0,P|312:32|416:120,1,200
312,148,1219066,1,0,0:0:0:0:
368,244,1219229,2,0,L|416:340,1,100
256,352,1219556,1,0,0:0:0:0:
220,344,1219637,1,0,0:0:0:0:
184,336,1219719,1,0,0:0:0:0:
152,328,1219800,1,0,0:0:0:0:
116,320,1219882,6,0,P|84:280|80:224,1,100
180,40,1220208,2,0,P|212:80|216:136,1,100
304,340,1220534,2,0,P|284:256|356:176,1,200
392,280,1221023,1,0,0:0:0:0:
460,164,1221186,6,0,P|448:96|408:68,1,100
256,192,1221512,2,0,P|268:260|308:288,1,100
296,84,1221838,5,0,0:0:0:0:
260,76,1221920,1,0,0:0:0:0:
228,68,1222001,1,0,0:0:0:0:
192,60,1222083,1,0,0:0:0:0:
120,80,1222164,5,0,0:0:0:0:
124,116,1222246,1,0,0:0:0:0:
128,152,1222327,1,0,0:0:0:0:
132,188,1222409,1,0,0:0:0:0:
140,264,1222490,6,0,P|200:340|300:344,1,200
388,264,1222979,1,0,0:0:0:0:
416,144,1223142,2,0,P|392:84|352:60,1,100
147,64,1223469,2,0,P|120:84|96:144,1,100
24,292,1223795,6,0,L|240:328,1,200
332,340,1224284,1,0,0:0:0:0:
444,224,1224447,2,0,L|332:200,1,100
68,128,1224773,2,0,L|180:104,1,100
364,32,1225099,6,0,P|428:80|396:192,1,200
292,192,1225588,1,0,0:0:0:0:
208,116,1225751,2,0,L|208:0,1,100
208,268,1226077,2,0,L|208:384,1,100
104,104,1226403,6,0,P|64:192|104:280,1,200
168,192,1226892,1,0,0:0:0:0:
276,192,1227056,2,0,P|340:176|372:140,1,100
404,52,1227382,1,0,0:0:0:0:
436,64,1227463,1,0,0:0:0:0:
460,92,1227545,1,0,0:0:0:0:
472,124,1227626,1,0,0:0:0:0:
472,160,1227708,6,0,L|412:352,1,200
316,300,1228191,1,0,0:0:0:0:
216,344,1228353,2,0,P|144:336|120:308,1,100
48,120,1228675,2,0,P|120:128|144:156,1,100
212,228,1228998,6,0,P|280:172|268:48,1,200
184,12,1229482,1,0,0:0:0:0:
48,120,1229643,2,0,L|24:224,1,100
92,308,1229966,1,0,0:0:0:0:
124,316,1230046,1,0,0:0:0:0:
160,324,1230127,1,0,0:0:0:0:
196,332,1230208,1,0,0:0:0:0:
232,340,1230288,6,0,P|288:340|332:312,1,100
316,144,1230607,1,0,0:0:0:0:
388,228,1230766,1,0,0:0:0:0:
208,156,1230926,2,0,P|128:160|88:188,1,100
40,256,1231246,1,0,0:0:0:0:
32,224,1231325,1,0,0:0:0:0:
24,188,1231405,1,0,0:0:0:0:
16,156,1231484,1,0,0:0:0:0:
8,124,1231564,6,0,P|36:64|92:48,1,100
188,92,1231883,1,0,0:0:0:0:
280,0,1232043,1,0,0:0:0:0:
400,44,1232202,5,0,0:0:0:0:
420,72,1232282,1,0,0:0:0:0:
440,100,1232362,1,0,0:0:0:0:
460,128,1232442,1,0,0:0:0:0:
512,188,1232522,5,0,0:0:0:0:
492,216,1232601,1,0,0:0:0:0:
472,244,1232681,1,0,0:0:0:0:
452,272,1232761,1,0,0:0:0:0:
408,332,1232841,6,0,L|296:332,1,100
104,332,1233161,2,0,L|216:332,1,100
436,252,1233482,2,0,L|332:252,1,100
76,252,1233803,2,0,L|180:252,1,100
464,172,1234124,2,0,L|360:172,1,100
48,172,1234445,2,0,L|152:172,1,100
340,84,1234766,2,0,P|256:38|172:84,1,200
156,116,1235167,1,0,0:0:0:0:
146,150,1235247,1,0,0:0:0:0:
149,186,1235327,1,0,0:0:0:0:
160,221,1235407,6,0,P|180:280|152:324,1,100
48,92,1235726,2,0,P|88:52|160:52,1,100
292,176,1236045,2,0,P|344:192|408:168,1,100
256,52,1236364,2,0,P|204:36|140:60,1,100
80,192,1236683,2,0,L|36:312,1,100
256,356,1237002,2,0,L|300:236,1,100
256,52,1237321,2,0,P|376:44|428:120,1,200
422,133,1237720,1,0,0:0:0:0:
422,167,1237800,1,0,0:0:0:0:
422,201,1237880,1,0,0:0:0:0:
422,235,1237960,6,0,L|380:328,1,100
90,235,1238279,2,0,L|132:328,1,100
416,160,1238598,2,0,L|374:253,1,100
96,160,1238917,2,0,L|138:253,1,100
410,85,1239236,2,0,L|368:178,1,100
102,85,1239555,2,0,L|144:178,1,100
256,360,1239875,2,0,L|256:148,1,200
256,48,1240353,1,0,0:0:0:0:
364,84,1240513,6,0,L|460:124,1,100
460,296,1240832,2,0,L|364:336,1,100
184,380,1241151,2,0,P|140:348|136:288,1,100
192,256,1241391,1,0,0:0:0:0:
192,256,1241470,2,0,P|236:224|240:164,1,100
212,112,1241710,1,0,0:0:0:0:
212,112,1241789,2,0,L|100:112,1,100
8,192,1242109,1,0,0:0:0:0:
108,276,1242268,1,0,0:0:0:0:
208,196,1242428,5,0,0:0:0:0:
244,189,1242508,1,0,0:0:0:0:
280,182,1242587,1,0,0:0:0:0:
316,175,1242667,1,0,0:0:0:0:
392,160,1242747,5,0,0:0:0:0:
400,124,1242827,1,0,0:0:0:0:
408,88,1242907,1,0,0:0:0:0:
416,52,1242986,1,0,0:0:0:0:
360,4,1243066,6,0,P|312:-4|256:16,1,100
84,84,1243381,2,0,L|120:288,1,200
188,364,1243855,1,0,0:0:0:0:
256,276,1244013,2,0,P|320:248|368:252,1,100
480,328,1244329,2,0,P|416:356|368:352,1,100
256,276,1244644,1,0,0:0:0:0:
276,168,1244802,1,0,0:0:0:0:
384,172,1244960,2,0,P|412:124|332:20,1,200
240,76,1245434,5,0,0:0:0:0:
240,76,1245513,1,0,0:0:0:0:
240,76,1245592,2,0,P|168:80|136:56,1,100
176,192,1245908,2,0,P|268:168|376:232,1,200
396,316,1246381,1,0,0:0:0:0:
292,356,1246539,2,0,L|188:348,1,100
40,264,1246855,2,0,L|32:160,1,100
124,28,1247171,2,0,L|228:20,1,100
296,104,1247487,1,0,0:0:0:0:
392,48,1247644,1,0,0:0:0:0:
468,128,1247802,5,0,0:0:0:0:
464,156,1247881,1,0,0:0:0:0:
460,184,1247960,1,0,0:0:0:0:
456,212,1248039,1,0,0:0:0:0:
452,240,1248118,6,0,L|352:192,1,100
150,196,1248434,2,0,L|60:240,1,100
424,312,1248750,2,0,L|324:264,1,100
178,268,1249066,2,0,L|88:312,1,100
396,384,1249381,2,0,L|296:336,1,100
206,340,1249697,2,0,L|116:384,1,100
256,240,1250013,2,0,B|276:172|276:172|236:120|236:120|256:56,1,200
284,36,1250408,1,0,0:0:0:0:
320,28,1250487,1,0,0:0:0:0:
356,36,1250566,1,0,0:0:0:0:
384,60,1250644,6,0,P|396:108|388:164,1,100
292,324,1250960,2,0,L|184:368,1,100
36,232,1251276,2,0,L|144:276,1,100
244,136,1251592,2,0,P|208:88|156:80,1,100
36,232,1251908,2,0,L|64:344,1,100
244,360,1252223,2,0,P|312:364|352:340,1,100
464,268,1252539,2,0,P|480:192|400:112,1,200
399,111,1252934,1,0,0:0:0:0:
399,111,1253013,1,0,0:0:0:0:
268,116,1253141,6,0,L|224:24,1,100
152,108,1253451,2,0,L|240:312,1,200
332,340,1253918,1,0,0:0:0:0:
344,232,1254073,2,0,P|332:176|280:144,1,100
60,112,1254384,2,0,P|114:94|168:123,1,100
56,256,1254695,1,0,0:0:0:0:
140,324,1254850,1,0,0:0:0:0:
236,272,1255006,2,0,P|304:256|400:352,1,200
460,228,1255472,5,0,0:0:0:0:
460,228,1255550,1,0,0:0:0:0:
460,228,1255628,2,0,L|480:116,1,100
360,184,1255940,2,0,P|288:188|216:72,1,200
324,88,1256409,1,0,0:0:0:0:
212,244,1256565,2,0,P|156:264|92:244,1,100
300,328,1256878,2,0,P|356:308|420:328,1,100
464,168,1257190,2,0,L|464:48,1,100
360,28,1257503,5,0,0:0:0:0:
272,92,1257659,1,0,0:0:0:0:
240,108,1257737,1,0,0:0:0:0:
208,124,1257815,2,0,P|116:136|56:76,1,150
32,48,1258128,6,0,P|48:116|28:164,1,100
32,336,1258440,2,0,P|48:268|28:220,1,100
152,29,1258753,2,0,P|143:98|108:136,1,100
152,355,1259065,2,0,P|143:285|108:247,1,100
281,19,1259378,2,0,P|249:81|203:105,1,100
281,365,1259690,2,0,P|249:302|203:278,1,100
24,192,1260003,2,0,B|72:160|120:192|168:224|216:192,1,200
240,168,1260393,1,0,0:0:0:0:
272,152,1260471,1,0,0:0:0:0:
308,148,1260549,1,0,0:0:0:0:
340,160,1260628,6,0,L|400:260,1,100
196,356,1260940,2,0,L|256:256,1,100
384,96,1261253,2,0,P|332:64|268:80,1,100
44,180,1261565,2,0,P|96:212|160:196,1,100
256,88,1261878,2,0,L|296:184,1,100
484,276,1262190,2,0,L|444:180,1,100
332,4,1262503,5,0,0:0:0:0:
296,8,1262581,1,0,0:0:0:0:
260,12,1262659,1,0,0:0:0:0:
224,16,1262737,1,0,0:0:0:0:
140,24,1262815,5,0,0:0:0:0:
144,60,1262893,1,0,0:0:0:0:
148,96,1262971,1,0,0:0:0:0:
152,132,1263049,1,0,0:0:0:0:
164,208,1263128,6,0,P|204:292|312:304,1,200
468,176,1263587,2,0,P|428:92|320:80,1,200
224,104,1264046,1,0,0:0:0:0:
120,144,1264199,2,0,P|64:152|20:128,1,100
88,44,1264505,1,0,0:0:0:0:
88,44,1264658,2,0,L|56:260,1,200
44,352,1265117,1,0,0:0:0:0:
148,320,1265270,1,0,0:0:0:0:
148,320,1265347,1,0,0:0:0:0:
148,320,1265423,1,0,0:0:0:0:
148,320,1265500,1,0,0:0:0:0:
148,320,1265576,6,0,P|208:296|344:328,1,200
468,280,1266036,2,0,P|408:224|280:180,1,200
192,196,1266495,1,0,0:0:0:0:
92,152,1266648,2,0,P|72:96|80:52,1,100
264,100,1266954,2,0,P|304:188|256:292,1,200
164,244,1267413,1,0,0:0:0:0:
92,328,1267566,1,0,0:0:0:0:
32,248,1267719,1,0,0:0:0:0:
32,248,1267796,1,0,0:0:0:0:
32,248,1267872,1,0,0:0:0:0:
32,248,1267949,1,0,0:0:0:0:
32,248,1268025,6,0,L|84:36,1,200
160,128,1268485,2,0,L|352:36,1,200
328,152,1268944,1,0,0:0:0:0:
360,164,1269020,1,0,0:0:0:0:
392,176,1269097,1,0,0:0:0:0:
424,188,1269173,1,0,0:0:0:0:
456,200,1269250,6,0,P|472:256|456:308,1,100
256,352,1269556,2,0,P|199:337|162:298,1,100
224,102,1269862,2,0,P|264:60|317:47,1,100
388,200,1270168,1,0,0:0:0:0:
280,200,1270321,1,0,0:0:0:0:
170,200,1270474,6,0,L|48:200,1,100
292,113,1270781,2,0,L|353:7,1,100
305,262,1271087,2,0,L|366:368,1,100
208,114,1271393,2,0,L|269:8,1,100
221,262,1271699,2,0,L|282:367,1,100
416,188,1272005,2,0,L|212:188,1,200
128,120,1272464,1,0,0:0:0:0:
44,192,1272617,1,0,0:0:0:0:
44,228,1272694,1,0,0:0:0:0:
52,260,1272770,1,0,0:0:0:0:
76,288,1272847,1,0,0:0:0:0:
108,300,1272923,6,0,L|324:336,1,200
464,228,1273383,2,0,L|248:192,1,200
160,172,1273842,1,0,0:0:0:0:
88,84,1273995,2,0,P|140:32|200:36,1,100
296,104,1274301,2,0,L|228:312,1,200
132,360,1274760,1,0,0:0:0:0:
96,244,1274913,1,0,0:0:0:0:
260,368,1275066,1,0,0:0:0:0:
260,368,1275143,1,0,0:0:0:0:
260,368,1275219,1,0,0:0:0:0:
260,368,1275296,1,0,0:0:0:0:
260,368,1275372,6,0,P|384:360|432:276,1,200
425,195,1275832,2,0,P|383:140|259:132,1,200
168,196,1276291,1,0,0:0:0:0:
84,128,1276444,2,0,P|48:168|40:216,1,100
100,344,1276750,2,0,L|308:284,1,200
396,256,1277209,1,0,0:0:0:0:
440,156,1277362,1,0,0:0:0:0:
392,56,1277515,1,0,0:0:0:0:
392,56,1277592,1,0,0:0:0:0:
392,56,1277668,1,0,0:0:0:0:
392,56,1277745,1,0,0:0:0:0:
392,56,1277821,6,0,P|328:76|208:32,1,200
40,128,1278281,2,0,P|104:108|224:152,1,200
324,220,1278740,1,0,0:0:0:0:
224,264,1278893,1,0,0:0:0:0:
312,328,1279032,6,0,L|412:328,1,100
392,136,1279335,2,0,L|392:36,1,100
200,56,1279638,2,0,L|100:56,1,100
120,247,1279941,2,0,L|120:348,1,100
312,328,1280244,6,0,P|320:276|288:224,1,100
200,56,1280547,2,0,P|192:108|224:160,1,100
392,136,1280850,2,0,P|340:128|288:160,1,100
120,248,1281153,2,0,P|172:256|224:224,1,100
368,40,1281456,5,0,0:0:0:0:
340,64,1281532,1,0,0:0:0:0:
312,88,1281607,1,0,0:0:0:0:
284,64,1281683,1,0,0:0:0:0:
256,40,1281759,1,0,0:0:0:0:
228,64,1281835,1,0,0:0:0:0:
200,88,1281910,1,0,0:0:0:0:
172,64,1281986,1,0,0:0:0:0:
144,40,1282062,1,0,0:0:0:0:
66,117,1282213,5,0,0:0:0:0:
144,195,1282365,1,0,0:0:0:0:
120,223,1282441,1,0,0:0:0:0:
96,251,1282516,1,0,0:0:0:0:
120,279,1282592,1,0,0:0:0:0:
144,307,1282668,6,0,P|200:348|336:320,1,200
392,244,1283122,1,0,0:0:0:0:
296,192,1283274,2,0,P|264:140|268:80,1,100
456,24,1283577,2,0,P|488:76|484:136,1,100
264,276,1283880,6,0,P|208:232|176:108,1,200
256,36,1284335,1,0,0:0:0:0:
384,120,1284486,2,0,L|480:184,1,100
424,332,1284789,1,0,0:0:0:0:
392,344,1284865,1,0,0:0:0:0:
356,348,1284941,1,0,0:0:0:0:
320,344,1285016,1,0,0:0:0:0:
284,336,1285092,6,0,P|208:300|180:184,1,200
256,116,1285547,1,0,0:0:0:0:
160,68,1285698,2,0,L|56:68,1,100
352,68,1286001,2,0,L|456:68,1,100
360,192,1286304,6,0,P|344:272|460:340,1,200
456,236,1286759,1,0,0:0:0:0:
252,320,1286910,2,0,P|188:316|144:272,1,100
56,152,1287213,1,0,0:0:0:0:
64,116,1287289,1,0,0:0:0:0:
88,92,1287365,1,0,0:0:0:0:
124,84,1287441,1,0,0:0:0:0:
156,92,1287516,6,0,P|244:112|336:36,1,200
439,51,1287971,1,0,0:0:0:0:
324,180,1288122,2,0,P|268:204|208:200,1,100
48,328,1288425,2,0,P|104:352|164:348,1,100
336,352,1288728,6,0,P|416:316|456:184,1,200
420,112,1289183,1,0,0:0:0:0:
312,88,1289335,1,0,0:0:0:0:
312,196,1289486,1,0,0:0:0:0:
204,176,1289638,1,0,0:0:0:0:
168,172,1289713,1,0,0:0:0:0:
132,180,1289789,1,0,0:0:0:0:
104,204,1289865,1,0,0:0:0:0:
92,236,1289941,6,0,P|112:296|144:320,1,100
312,196,1290241,2,0,P|250:183|213:199,1,100
388,296,1290541,2,0,P|437:216|377:100,1,200
304,84,1290991,1,0,0:0:0:0:
196,68,1291141,6,0,L|76:56,1,100
312,196,1291441,2,0,L|192:184,1,100
44,176,1291741,1,0,0:0:0:0:
52,208,1291816,1,0,0:0:0:0:
60,240,1291891,1,0,0:0:0:0:
140,356,1292041,1,0,0:0:0:0:
172,340,1292116,1,0,0:0:0:0:
208,336,1292191,1,0,0:0:0:0:
244,340,1292266,1,0,0:0:0:0:
276,352,1292335,6,0,P|344:348|432:240,1,200
440,148,1292787,1,0,0:0:0:0:
284,188,1292938,2,0,P|224:196|184:172,1,100
36,68,1293239,2,0,P|96:76|136:52,1,100
296,92,1293541,6,0,P|356:132|344:272,1,200,0|0,0:0|0:0,0:0:0:0:
292,336,1293993,1,0,0:0:0:0:
208,268,1294144,2,0,L|116:192,1,100
36,68,1294445,1,0,0:0:0:0:
68,60,1294520,1,0,0:0:0:0:
104,52,1294596,1,0,0:0:0:0:
136,44,1294671,1,0,0:0:0:0:
172,36,1294747,6,0,L|388:64,1,200
480,72,1295199,1,0,0:0:0:0:
420,164,1295350,2,0,P|400:224|408:280,1,100
256,352,1295651,2,0,P|258:316|238:256,1,100,0|0,0:0|0:0,0:0:0:0:
40,272,1295953,6,0,P|24:188|108:104,1,200
196,156,1296405,1,0,0:0:0:0:
300,120,1296556,2,0,P|344:72|344:20,1,100
196,156,1296857,1,0,0:0:0:0:
208,188,1296932,1,0,0:0:0:0:
220,220,1297008,1,0,0:0:0:0:
232,252,1297083,1,0,0:0:0:0:
244,284,1297159,6,0,P|312:324|428:284,1,200
460,188,1297611,1,0,0:0:0:0:
300,192,1297762,2,0,L|192:192,1,100
48,64,1298063,2,0,L|156:64,1,100
456,8,1298365,6,0,L|376:192,1,200
328,292,1298817,1,0,0:0:0:0:
224,324,1298968,2,0,P|176:308|128:316,1,100
28,360,1299269,1,0,0:0:0:0:
24,324,1299345,1,0,0:0:0:0:
20,288,1299420,1,0,0:0:0:0:
16,252,1299495,1,0,0:0:0:0:
12,216,1299571,6,0,L|28:104,1,100
274,143,1299868,2,0,L|180:176,1,100
256,312,1300165,2,0,L|352:368,1,100
472,308,1300462,1,0,0:0:0:0:
480,272,1300536,1,0,0:0:0:0:
476,236,1300610,1,0,0:0:0:0:
460,204,1300684,1,0,0:0:0:0:
432,184,1300759,6,0,P|384:176|328:124,1,100
256,20,1301056,1,0,0:0:0:0:
168,146,1301204,1,0,0:0:0:0:
20,120,1301353,5,0,0:0:0:0:
28,156,1301427,1,0,0:0:0:0:
36,192,1301501,1,0,0:0:0:0:
44,224,1301575,1,0,0:0:0:0:
68,300,1301650,5,0,0:0:0:0:
104,292,1301724,1,0,0:0:0:0:
140,284,1301798,1,0,0:0:0:0:
172,276,1301872,1,0,0:0:0:0:
248,260,1301947,6,0,P|312:272|348:344,1,150
472,276,1302685,2,0,P|429:217|450:147,1,150
368,144,1303277,2,0,P|336:180|284:188,2,100
300,112,1304015,1,0,0:0:0:0:
300,112,1304311,6,0,L|150:112,1,150
36,192,1305050,2,0,L|148:192,1,100
220,304,1305641,2,0,L|112:304,2,100
244,236,1306380,2,0,P|280:192|312:184,1,75
328,184,1306676,5,0,0:0:0:0:
328,184,1306823,1,0,0:0:0:0:
312,272,1306971,2,0,L|302:326,1,50
393,293,1307267,2,0,L|425:341,1,50
463,247,1307562,2,0,L|517:256,1,50
400,200,1307858,6,0,L|400:140,1,50
324,24,1308153,2,0,L|324:84,1,50
248,200,1308449,2,0,L|248:140,1,50
172,24,1308745,2,0,L|172:84,1,50
104,156,1309040,6,0,P|88:196|56:236,1,75.0000028610231
120,352,1309336,2,0,P|136:312|169:272,1,75.0000028610231
316,192,1309631,2,0,P|282:218|234:237,1,75.0000028610231
231,369,1309927,2,0,P|264:342|312:323,1,75.0000028610231
400,320,1310222,1,0,0:0:0:0:
472,244,1310370,6,0,P|456:192|456:152,1,75.0000028610231
368,48,1310666,2,0,P|366:68|350:120,1,75.0000028610231
256,168,1310961,1,0,0:0:0:0:
220,160,1311035,1,0,0:0:0:0:
184,152,1311109,1,0,0:0:0:0:
148,144,1311183,1,0,0:0:0:0:
112,136,1311257,1,0,0:0:0:0:
76,128,1311331,1,0,0:0:0:0:
36,120,1311405,6,0,P|52:188|96:220,1,100
256,352,1311700,2,0,L|256:244,1,100
476,120,1311996,2,0,P|460:188|416:220,1,100
256,132,1312291,2,0,L|256:32,1,100
307,222,1312587,2,0,L|394:272,1,100
204,222,1312882,2,0,L|117:272,1,100
172,84,1313178,2,0,P|256:38|340:84,1,200
356,116,1313547,1,0,0:0:0:0:
372,148,1313621,1,0,0:0:0:0:
388,180,1313695,1,0,0:0:0:0:
404,212,1313769,6,0,B|404:264|404:264|372:308,1,100
108,212,1314058,2,0,B|108:264|108:264|140:308,1,100
328,180,1314348,2,0,L|416:112,1,100
184,180,1314638,2,0,L|96:112,1,100
300,296,1314928,2,0,P|256:316|212:296,1,100
212,88,1315218,2,0,P|256:68|300:88,1,100
444,192,1315508,2,0,L|340:192,2,100
464,220,1315870,1,0,0:0:0:0:
472,252,1315942,1,0,0:0:0:0:
472,288,1316015,1,0,0:0:0:0:
456,320,1316087,6,0,P|416:344|360:336,1,100
216,252,1316378,2,0,L|104:168,1,100
332,56,1316669,2,0,L|220:140,1,100
44,256,1316960,2,0,P|36:324|60:368,1,100
292,296,1317252,2,0,P|300:228|276:184,1,100
96,152,1317543,2,0,L|124:52,1,100
256,128,1317834,2,0,P|344:156|428:100,1,200
428,99,1318198,1,0,0:0:0:0:
428,99,1318271,1,0,0:0:0:0:
428,99,1318344,1,0,0:0:0:0:
428,99,1318417,6,0,L|444:220,1,100
324,332,1318708,2,0,L|208:344,1,100
48,256,1318999,2,0,P|40:192|60:156,1,100
84,140,1319218,1,0,0:0:0:0:
116,124,1319290,1,0,0:0:0:0:
260,72,1319436,1,0,0:0:0:0:
292,88,1319508,1,0,0:0:0:0:
320,109,1319582,2,0,P|335:139|327:203,1,100
152,324,1319873,2,0,L|244:264,1,100
424,76,1320164,2,0,L|412:280,1,200
388,304,1320528,1,0,0:0:0:0:
356,320,1320601,1,0,0:0:0:0:
320,320,1320674,1,0,0:0:0:0:
288,308,1320747,6,0,P|240:276|196:268,1,100
44,336,1321038,1,0,0:0:0:0:
24,168,1321184,1,0,0:0:0:0:
44,336,1321329,1,0,0:0:0:0:
24,168,1321475,1,0,0:0:0:0:
148,56,1321620,1,0,0:0:0:0:
24,168,1321766,1,0,0:0:0:0:
128,256,1321912,6,0,P|180:272|248:244,1,100
404,124,1322203,2,0,P|352:108|284:136,1,100
204,56,1322494,1,0,0:0:0:0:
104,120,1322640,1,0,0:0:0:0:
200,196,1322786,1,0,0:0:0:0:
196,232,1322858,1,0,0:0:0:0:
192,268,1322931,1,0,0:0:0:0:
188,304,1323004,1,0,0:0:0:0:
184,340,1323077,6,0,P|248:352|300:332,1,100
440,280,1323368,1,0,0:0:0:0:
401,115,1323514,1,0,0:0:0:0:
440,280,1323659,1,0,0:0:0:0:
401,115,1323805,1,0,0:0:0:0:
246,52,1323950,1,0,0:0:0:0:
401,115,1324096,1,0,0:0:0:0:
324,208,1324242,6,0,L|220:208,1,100
32,344,1324533,2,0,L|136:344,1,100,0|0,0:0|0:0,0:0:0:0:
240,296,1324824,1,0,0:0:0:0:
352,340,1324970,1,0,0:0:0:0:
436,252,1325116,1,0,0:0:0:0:
444,220,1325188,1,0,0:0:0:0:
440,184,1325261,1,0,0:0:0:0:
428,152,1325334,1,0,0:0:0:0:
404,124,1325407,6,0,P|368:88|316:72,1,100
134,70,1325694,1,0,0:0:0:0:
256,192,1325837,1,0,0:0:0:0:
84,192,1325981,1,0,0:0:0:0:
256,192,1326124,1,0,0:0:0:0:
134,313,1326268,1,0,0:0:0:0:
256,192,1326411,1,0,0:0:0:0:
256,364,1326555,1,0,0:0:0:0:
256,192,1326698,1,0,0:0:0:0:
377,313,1326842,1,0,0:0:0:0:
256,192,1326985,1,0,0:0:0:0:
428,192,1327129,1,0,0:0:0:0:
256,192,1327273,1,0,0:0:0:0:
377,70,1327416,1,0,0:0:0:0:
256,192,1327560,1,0,0:0:0:0:
256,20,1327703,5,0,0:0:0:0:
240,52,1327774,1,0,0:0:0:0:
224,84,1327845,1,0,0:0:0:0:
240,116,1327916,1,0,0:0:0:0:
256,148,1327987,1,0,0:0:0:0:
272,180,1328058,1,0,0:0:0:0:
288,212,1328129,1,0,0:0:0:0:
272,244,1328200,1,0,0:0:0:0:
256,276,1328271,1,0,0:0:0:0:
240,308,1328342,1,0,0:0:0:0:
224,340,1328413,1,0,0:0:0:0:
340,356,1328556,5,0,0:0:0:0:
356,324,1328627,1,0,0:0:0:0:
372,292,1328698,1,0,0:0:0:0:
388,260,1328769,1,0,0:0:0:0:
256,192,1328840,12,0,1329693,0:0:0:0:
56,232,1329973,6,0,P|92:312|204:320,1,200
456,152,1330405,2,0,P|420:72|308:64,1,200
256,164,1330838,1,0,0:0:0:0:
168,84,1330982,2,0,P|88:96|52:128,1,100
148,200,1331271,2,0,P|208:256|328:240,1,200
357,132,1331703,1,0,0:0:0:0:
469,174,1331848,1,0,0:0:0:0:
423,284,1331992,1,0,0:0:0:0:
393,302,1332064,1,0,0:0:0:0:
364,321,1332136,1,0,0:0:0:0:
333,338,1332208,1,0,0:0:0:0:
303,356,1332280,6,0,L|103:350,1,200
20,202,1332713,2,0,L|220:196,1,200
340,192,1333146,1,0,0:0:0:0:
364,76,1333290,2,0,P|412:92|444:136,1,100
256,176,1333578,2,0,P|196:164|152:36,1,200
256,64,1334011,1,0,0:0:0:0:
340,192,1334155,1,0,0:0:0:0:
424,64,1334299,1,0,0:0:0:0:
424,64,1334372,1,0,0:0:0:0:
424,64,1334444,1,0,0:0:0:0:
424,64,1334516,1,0,0:0:0:0:
424,64,1334588,6,0,P|476:148|428:248,1,200
264,360,1335016,2,0,L|60:312,1,200
24,200,1335445,1,0,0:0:0:0:
24,164,1335516,1,0,0:0:0:0:
40,132,1335588,1,0,0:0:0:0:
68,112,1335659,1,0,0:0:0:0:
104,108,1335730,6,0,L|204:152,1,100
340,40,1336016,2,0,L|296:140,1,100
408,276,1336302,2,0,L|308:232,1,100
172,344,1336588,2,0,L|216:244,1,100
360,136,1336873,6,0,P|420:132|464:164,1,100
304,288,1337156,2,0,B|256:304|256:304|208:288,1,100
59,151,1337439,2,0,P|92:132|152:136,1,100
256,300,1337722,2,0,L|256:188,1,100
328,120,1338005,1,0,0:0:0:0:
184,120,1338146,1,0,0:0:0:0:
284,40,1338288,2,0,P|368:32|424:136,1,200
351,213,1338712,1,0,0:0:0:0:
408,316,1338854,1,0,0:0:0:0:
375,325,1338924,1,0,0:0:0:0:
339,325,1338995,1,0,0:0:0:0:
303,317,1339066,1,0,0:0:0:0:
275,297,1339137,6,0,P|245:233|124:205,1,200
215,365,1339559,2,0,P|311:373|363:277,1,200
404,180,1339982,1,0,0:0:0:0:
340,80,1340122,2,0,P|272:56|216:80,1,100
48,84,1340404,2,0,L|232:208,1,200
316,260,1340827,1,0,0:0:0:0:
212,316,1340967,1,0,0:0:0:0:
213,195,1341108,1,0,0:0:0:0:
220,160,1341179,1,0,0:0:0:0:
240,132,1341249,1,0,0:0:0:0:
268,112,1341320,1,0,0:0:0:0:
300,104,1341390,6,0,P|388:116|452:220,1,200
364,336,1341810,2,0,P|276:324|212:220,1,200
214,117,1342231,1,0,0:0:0:0:
108,172,1342371,2,0,L|8:228,1,100
214,117,1342651,2,0,P|328:104|392:152,1,200
448,260,1343072,1,0,0:0:0:0:
328,252,1343212,1,0,0:0:0:0:
248,340,1343352,1,0,0:0:0:0:
212,344,1343422,1,0,0:0:0:0:
176,340,1343492,1,0,0:0:0:0:
144,328,1343562,1,0,0:0:0:0:
116,308,1343632,6,0,P|80:240|108:124,1,200
216,212,1344056,2,0,P|256:146|371:113,1,200,0|0,0:0|0:0,0:0:0:0:
460,192,1344481,1,0,0:0:0:0:
404,296,1344622,1,0,0:0:0:0:
292,344,1344764,6,0,L|192:344,1,100
308,192,1345047,2,0,L|408:192,1,100,0|0,0:0|0:0,0:0:0:0:
292,40,1345330,2,0,L|192:40,1,100
16,152,1345613,1,0,0:0:0:0:
52,152,1345683,1,0,0:0:0:0:
88,152,1345754,1,0,0:0:0:0:
124,152,1345825,1,0,0:0:0:0:
160,152,1345896,6,0,L|224:152,3,50
248,224,1346176,2,0,L|184:224,3,50
160,296,1346456,2,0,L|224:296,3,50
248,368,1346737,2,0,L|184:368,3,50
324,364,1347017,5,0,0:0:0:0:
348,340,1347087,1,0,0:0:0:0:
372,312,1347157,1,0,0:0:0:0:
396,284,1347227,1,0,0:0:0:0:
420,256,1347297,1,0,0:0:0:0:
444,228,1347367,1,0,0:0:0:0:
468,200,1347438,1,0,0:0:0:0:
492,172,1347508,1,0,0:0:0:0:
492,100,1347578,5,0,0:0:0:0:
459,91,1347648,1,0,0:0:0:0:
422,84,1347718,1,0,0:0:0:0:
386,77,1347788,1,0,0:0:0:0:
350,70,1347858,1,0,0:0:0:0:
314,64,1347928,1,0,0:0:0:0:
277,57,1347999,1,0,0:0:0:0:
241,50,1348069,1,0,0:0:0:0:
168,32,1348138,5,0,0:0:0:0:
168,352,1348275,1,0,0:0:0:0:
100,112,1348413,1,0,0:0:0:0:
100,272,1348550,1,0,0:0:0:0:
28,192,1348688,6,0,L|236:192,1,200
328,260,1349104,1,0,0:0:0:0:
252,356,1349243,2,0,P|208:344|168:288,1,100
416,216,1349521,2,0,P|427:260|399:322,1,100
256,188,1349799,6,0,P|256:92|364:44,1,200
368,156,1350215,1,0,0:0:0:0:
180,240,1350354,2,0,P|160:192|156:136,1,100
36,60,1350632,1,0,0:0:0:0:
40,96,1350701,1,0,0:0:0:0:
44,132,1350771,1,0,0:0:0:0:
48,168,1350840,1,0,0:0:0:0:
52,204,1350910,6,0,B|68:304|68:304|160:352,1,200
256,284,1351326,1,0,0:0:0:0:
356,349,1351465,2,0,L|448:300,1,100
444,82,1351743,2,0,L|356:34,1,100
256,116,1352021,6,0,P|212:200|96:220,1,200
48,124,1352438,1,0,0:0:0:0:
256,116,1352576,2,0,L|336:192,1,100
440,300,1352854,1,0,0:0:0:0:
408,316,1352924,1,0,0:0:0:0:
372,324,1352993,1,0,0:0:0:0:
336,324,1353063,1,0,0:0:0:0:
304,316,1353132,6,0,L|164:172,1,200
88,80,1353549,1,0,0:0:0:0:
52,196,1353688,2,0,P|48:244|72:300,1,100
224,364,1353965,2,0,P|272:368|328:344,1,100
376,184,1354243,6,0,P|348:92|256:48,1,200
196,152,1354660,1,0,0:0:0:0:
80,116,1354799,2,0,L|32:16,1,100
100,204,1355076,1,0,0:0:0:0:
108,240,1355146,1,0,0:0:0:0:
104,276,1355215,1,0,0:0:0:0:
88,308,1355285,1,0,0:0:0:0:
60,328,1355354,6,0,P|140:344|172:372,1,100
452,328,1355632,2,0,P|372:344|340:372,1,100
176,236,1355910,2,0,P|255:287|336:236,1,200
256,148,1356326,1,0,0:0:0:0:
360,84,1356465,6,0,B|336:40|336:40|284:20,1,100
152,84,1356743,2,0,B|176:40|176:40|228:20,1,100
256,148,1357020,5,0,0:0:0:0:
268,180,1357090,1,0,0:0:0:0:
280,212,1357159,1,0,0:0:0:0:
292,244,1357229,1,0,0:0:0:0:
316,320,1357298,5,0,0:0:0:0:
284,332,1357367,1,0,0:0:0:0:
252,344,1357437,1,0,0:0:0:0:
220,356,1357506,1,0,0:0:0:0:
148,380,1357576,6,0,P|73:339|62:222,1,200
156,164,1357986,1,0,0:0:0:0:
132,48,1358123,2,0,P|200:52|232:84,1,100
344,188,1358397,2,0,P|412:184|444:152,1,100
156,164,1358671,6,0,P|156:240|252:308,1,200
372,316,1359082,1,0,0:0:0:0:
448,224,1359219,2,0,P|456:156|436:104,1,100
348,56,1359493,1,0,0:0:0:0:
316,64,1359562,1,0,0:0:0:0:
284,72,1359630,1,0,0:0:0:0:
252,64,1359699,1,0,0:0:0:0:
220,56,1359767,6,0,P|136:48|60:136,1,200
44,248,1360178,1,0,0:0:0:0:
144,344,1360315,2,0,B|192:324|192:324|192:272,1,100
320,276,1360589,2,0,B|320:324|320:324|368:344,1,100
436,228,1360863,6,0,L|488:24,1,200
364,34,1361274,1,0,0:0:0:0:
224,68,1361411,2,0,P|188:120|204:196,1,100
272,288,1361685,1,0,0:0:0:0:
244,308,1361754,1,0,0:0:0:0:
208,316,1361822,1,0,0:0:0:0:
172,312,1361891,1,0,0:0:0:0:
140,300,1361959,6,0,B|104:264|104:264|104:165|104:165|56:124,1,200
65,11,1362370,1,0,0:0:0:0:
172,64,1362507,2,0,L|264:120,1,100
192,224,1362781,2,0,L|308:224,1,100
368,76,1363055,6,0,P|456:116|460:224,1,200
416,320,1363466,1,0,0:0:0:0:
308,268,1363603,2,0,L|308:164,1,100
332,48,1363877,1,0,0:0:0:0:
367,48,1363945,1,0,0:0:0:0:
402,48,1364014,1,0,0:0:0:0:
437,48,1364082,1,0,0:0:0:0:
471,48,1364151,6,0,L|496:168,1,100
368,336,1364425,2,0,L|393:216,1,100
264,48,1364699,2,0,P|180:68|136:176,1,200
148,196,1365041,1,0,0:0:0:0:
156,232,1365110,1,0,0:0:0:0:
148,268,1365178,1,0,0:0:0:0:
132,300,1365247,6,0,L|28:276,1,100
216,320,1365521,2,0,L|320:344,1,100
408,268,1365795,5,0,0:0:0:0:
380,248,1365863,1,0,0:0:0:0:
352,228,1365932,1,0,0:0:0:0:
324,208,1366000,1,0,0:0:0:0:
256,160,1366069,5,0,0:0:0:0:
222,168,1366137,1,0,0:0:0:0:
189,177,1366206,1,0,0:0:0:0:
156,185,1366274,1,0,0:0:0:0:
76,208,1366343,6,0,L|48:96,1,100
196,244,1366614,2,0,L|156:344,1,100
316,140,1366887,2,0,L|356:40,1,100
436,176,1367160,2,0,L|464:288,1,100
256,340,1367432,6,0,P|196:352|148:332,1,100
32,192,1367703,2,0,P|92:204|140:184,1,100
252,97,1367974,2,0,P|160:28|84:44,1,200
83,44,1368314,1,0,0:0:0:0:
83,44,1368382,1,0,0:0:0:0:
83,44,1368450,1,0,0:0:0:0:
83,44,1368517,6,0,L|80:144,1,100
120,308,1368787,2,0,P|192:272|232:276,1,100
392,280,1369057,2,0,P|320:316|280:312,1,100
296,152,1369327,2,0,L|304:40,1,100
476,192,1369598,2,0,L|468:304,1,100
344,352,1369867,1,0,0:0:0:0:
256,244,1370001,1,0,0:0:0:0:
168,352,1370136,2,0,P|96:348|60:312,1,100
96,196,1370405,1,0,0:0:0:0:
116,164,1370472,1,0,0:0:0:0:
120,128,1370539,1,0,0:0:0:0:
112,96,1370606,1,0,0:0:0:0:
88,68,1370674,6,0,L|196:40,1,100
327,42,1370937,2,0,L|424:68,1,100
72,144,1371200,2,0,L|180:116,1,100,0|0,0:0|0:0,0:0:0:0:
343,118,1371463,2,0,L|440:144,1,100,0|0,0:0|0:0,0:0:0:0:
56,220,1371726,2,0,L|164:192,1,100,0|0,0:0|0:0,0:0:0:0:
359,194,1371989,2,0,L|456:220,1,100,0|0,0:0|0:0,0:0:0:0:
160,332,1372252,2,0,B|256:304|256:304|352:332,1,200,0|0,0:0|0:0,0:0:0:0:
472,332,1372647,1,0,0:0:0:0:
476,188,1372780,5,0,0:0:0:0:
472,148,1372843,1,0,0:0:0:0:
456,112,1372907,1,0,0:0:0:0:
424,88,1372972,1,0,0:0:0:0:
384,84,1373036,2,0,P|348:80|280:100,1,100
80,236,1373294,5,0,0:0:0:0:
224,144,1373422,1,0,0:0:0:0:
100,24,1373551,1,0,0:0:0:0:
224,144,1373680,1,0,0:0:0:0:
348,260,1373809,2,0,P|352:312|312:356,1,100
168,336,1374066,6,0,L|128:342,8,25
56,228,1374452,2,0,L|23:225,8,25
88,96,1374839,6,0,P|144:32|256:24,1,200
356,60,1375222,1,0,0:0:0:0:
272,132,1375350,2,0,P|300:184|344:204,1,100
444,196,1375605,1,0,0:0:0:0:
400,296,1375733,1,0,0:0:0:0:
292,288,1375860,5,0,0:0:0:0:
292,288,1375988,2,0,P|240:308|216:356,1,100
97,337,1376243,2,0,P|60:264|100:160,1,200
208,192,1376626,1,0,0:0:0:0:
188,84,1376754,1,0,0:0:0:0:
292,120,1376882,6,0,P|380:120|444:32,1,200
336,20,1377265,1,0,0:0:0:0:
292,120,1377392,2,0,P|220:100|200:64,1,100
112,28,1377648,1,0,0:0:0:0:
32,104,1377775,1,0,0:0:0:0:
128,156,1377903,5,0,0:0:0:0:
128,156,1378031,2,0,P|136:216|116:260,1,100
16,280,1378286,2,0,P|64:348|184:340,1,200
256,232,1378669,1,0,0:0:0:0:
368,316,1378797,1,0,0:0:0:0:
440,196,1378924,6,0,P|440:104|356:48,1,200
252,88,1379307,1,0,0:0:0:0:
271,198,1379435,2,0,P|310:191|358:153,1,100
172,156,1379690,2,0,P|158:193|167:253,1,100
256,316,1379945,5,0,0:0:0:0:
256,316,1380073,2,0,P|312:320|368:300,1,100
413,207,1380328,2,0,P|472:308|440:376,1,200
356,304,1380711,1,0,0:0:0:0:
276,380,1380839,1,0,0:0:0:0:
192,308,1380967,6,0,P|116:264|20:320,1,200
116,376,1381350,1,0,0:0:0:0:
272,240,1381477,2,0,P|300:192|288:144,1,100
136,120,1381733,2,0,P|163:168|211:181,1,100
307,62,1381988,5,0,0:0:0:0:
307,62,1382116,2,0,P|251:61|215:96,1,100
384,124,1382371,2,0,P|412:76|400:27,1,100
284,156,1382626,1,0,0:0:0:0:
364,228,1382754,1,0,0:0:0:0:
384,124,1382882,1,0,0:0:0:0:
284,156,1383009,6,0,P|252:200|264:256,1,100
364,228,1383265,2,0,P|344:324|248:352,2,200
284,156,1383903,1,0,0:0:0:0:
384,124,1384031,2,0,P|440:144|468:180,1,100
460,284,1384286,1,0,0:0:0:0:
368,348,1384414,2,0,P|280:360|208:272,1,200
196,176,1384797,1,0,0:0:0:0:
232,72,1384924,1,0,0:0:0:0:
340,48,1385052,6,0,P|336:112|220:176,1,200
152,100,1385435,1,0,0:0:0:0:
124,204,1385562,2,0,P|128:268|244:332,1,200
336,288,1385945,1,0,0:0:0:0:
404,200,1386073,2,0,P|396:152|352:116,1,100
180,216,1386328,2,0,P|225:233|278:212,1,100
278,14,1386584,2,0,P|240:44|231:101,1,100
256,308,1386839,1,0,0:0:0:0:
148,332,1386967,5,0,0:0:0:0:
148,332,1387031,1,0,0:0:0:0:
148,332,1387094,2,0,P|72:296|60:176,1,200
116,100,1387477,1,0,0:0:0:0:
168,196,1387605,2,0,P|220:136|192:24,2,200
116,100,1388243,6,0,L|316:128,1,200
424,140,1388626,2,0,P|460:188|456:232,1,100
404,324,1388882,1,0,0:0:0:0:
340,236,1389009,1,0,0:0:0:0:
276,324,1389137,6,0,P|224:336|172:316,1,100
131,143,1389392,2,0,P|147:92|190:57,1,100
360,108,1389648,2,0,P|396:147|405:202,1,100
276,324,1389903,2,0,P|224:336|172:316,1,100
84,272,1390158,5,0,0:0:0:0:
52,136,1390286,1,0,0:0:0:0:
52,136,1390349,1,0,0:0:0:0:
52,136,1390414,1,0,0:0:0:0:
184,176,1390541,1,0,0:0:0:0:
184,176,1390605,1,0,0:0:0:0:
184,176,1390669,1,0,0:0:0:0:
320,208,1390797,1,0,0:0:0:0:
416,108,1390924,1,0,0:0:0:0:
280,76,1391052,1,0,0:0:0:0:
320,208,1391179,6,0,P|412:256|508:216,1,200
320,96,1391562,1,0,0:0:0:0:
320,96,1391690,2,0,P|232:151|219:254,1,200
300,312,1392073,1,0,0:0:0:0:
196,348,1392201,5,0,0:0:0:0:
196,348,1392328,2,0,P|141:339|96:288,1,100
52,216,1392584,2,0,P|40:112|140:56,1,200
212,76,1392967,1,0,0:0:0:0:
144,160,1393094,1,0,0:0:0:0:
208,248,1393222,6,0,P|264:308|380:280,1,200
420,88,1393605,1,0,0:0:0:0:
420,88,1393733,2,0,P|340:106|306:220,1,200,0|0,0:0|0:0,0:0:0:0:
452,351,1394116,1,0,0:0:0:0:
452,351,1394243,2,0,P|475:272|393:186,1,200,0|0,0:0|0:0,0:0:0:0:
328,268,1394626,1,0,0:0:0:0:
252,348,1394754,2,0,P|204:368|140:352,1,100
40,288,1395009,1,0,0:0:0:0:
160,220,1395137,1,0,0:0:0:0:
160,220,1395201,1,0,0:0:0:0:
160,220,1395265,6,0,P|190:124|124:52,1,200
84,152,1395648,1,0,0:0:0:0:
84,152,1395775,2,0,L|244:296,1,200
320,352,1396158,1,0,0:0:0:0:
344,244,1396286,2,0,P|392:208|436:208,1,100
420,312,1396541,1,0,0:0:0:0:
320,352,1396669,2,0,P|260:320|244:192,1,200
360,124,1397052,1,0,0:0:0:0:
256,32,1397179,1,0,0:0:0:0:
152,124,1397307,6,0,P|120:176|116:224,1,100
280,76,1397562,2,0,P|250:22|211:-5,1,100
257,210,1397818,2,0,P|318:211|361:191,1,100
376,88,1398073,1,0,0:0:0:0:
460,156,1398201,1,0,0:0:0:0:
480,264,1398328,5,0,0:0:0:0:
468,296,1398392,1,0,0:0:0:0:
440,320,1398456,1,0,0:0:0:0:
408,336,1398519,1,0,0:0:0:0:
372,340,1398584,1,0,0:0:0:0:
292,264,1398711,1,0,0:0:0:0:
400,236,1398839,1,0,0:0:0:0:
316,308,1398967,1,0,0:0:0:0:
208,320,1399094,1,0,0:0:0:0:
104,284,1399222,1,0,0:0:0:0:
16,216,1399350,6,0,P|24:108|128:60,1,200
112,168,1399733,1,0,0:0:0:0:
112,168,1399860,2,0,P|187:205|285:158,1,200,0|0,0:0|0:0,0:0:0:0:
192,100,1400243,2,0,L|212:316,1,200
300,364,1400626,2,0,P|364:356|408:316,1,100
316,132,1400882,2,0,P|290:191|303:249,1,100
440,192,1401137,6,0,P|448:112|384:16,2,200
356,120,1401775,1,0,0:0:0:0:
356,120,1401903,2,0,P|299:62|185:49,1,200
246,138,1402286,2,0,P|165:144|82:223,1,200
189,233,1402669,2,0,P|154:274|134:350,1,100
320,336,1402924,2,0,P|355:295|375:219,1,100
476,160,1403179,2,0,P|467:106|421:42,1,100
308,32,1403435,6,0,L|108:44,1,200
40,132,1403818,1,0,0:0:0:0:
40,132,1403945,2,0,L|240:120,1,200,0|0,0:0|0:0,0:0:0:0:
340,212,1404328,2,0,P|356:276|264:364,1,200
176,320,1404711,2,0,P|148:272|106:256,1,100
0,382,1404967,2,0,P|54:381|89:353,1,100
136,176,1405222,1,0,0:0:0:0:
52,104,1405350,1,0,0:0:0:0:
45,218,1405477,5,0,0:0:0:0:
45,218,1405605,2,0,P|113:271|219:233,1,200
337,0,1405988,2,0,P|257:28|237:139,1,200
383,360,1406371,2,0,P|395:274|309:202,1,200
216,332,1406754,2,0,P|280:324|308:296,2,100
112,292,1407137,1,0,0:0:0:0:
48,204,1407265,1,0,0:0:0:0:
56,92,1407392,1,0,0:0:0:0:
148,32,1407520,6,0,P|220:64|248:176,1,200
240,290,1407903,1,0,0:0:0:0:
240,290,1408031,2,0,P|168:258|140:148,1,200,0|0,0:0|0:0,0:0:0:0:
292,40,1408414,2,0,P|364:72|392:182,1,200,0|0,0:0|0:0,0:0:0:0:
360,280,1408797,2,0,L|320:372,1,100
292,204,1409052,2,0,L|232:123,1,100
391,183,1409307,2,0,L|490:171,1,100
344,336,1409562,6,0,P|288:372|160:360,1,200
248,296,1409945,1,0,0:0:0:0:
248,296,1410073,2,0,P|184:276|111:170,1,200,0|0,0:0|0:0,0:0:0:0:
216,196,1410456,2,0,P|190:134|224:10,1,200,0|0,0:0|0:0,0:0:0:0:
288,104,1410839,2,0,L|392:104,1,100
484,224,1411094,2,0,L|380:224,1,100
288,344,1411350,2,0,L|392:344,1,100
252,256,1411605,6,0,P|204:300|196:360,1,100
344,188,1411860,2,0,P|329:124|281:87,1,100,0|0,0:0|0:0,0:0:0:0:
156,196,1412116,2,0,P|56:192|12:96,1,200
120,104,1412499,2,0,L|200:308,1,200
336,336,1412882,2,0,L|296:240,1,100
264,140,1413137,1,0,0:0:0:0:
280,108,1413201,1,0,0:0:0:0:
312,96,1413265,1,0,0:0:0:0:
348,100,1413328,1,0,0:0:0:0:
376,124,1413392,2,0,P|424:152|476:140,1,100
440,36,1413648,5,0,0:0:0:0:
440,36,1413775,1,0,0:0:0:0:
72,36,1414414,5,0,0:0:0:0:
72,36,1414541,1,0,0:0:0:0:
12,128,1414669,1,0,0:0:0:0:
24,160,1414733,1,0,0:0:0:0:
36,192,1414797,1,0,0:0:0:0:
76,292,1414924,1,0,0:0:0:0:
156,204,1415052,1,0,0:0:0:0:
216,316,1415179,1,0,0:0:0:0:
288,196,1415307,1,0,0:0:0:0:
352,332,1415435,1,0,0:0:0:0:
416,188,1415562,1,0,0:0:0:0:
476,348,1415690,6,0,P|489:259|416:188,1,200
380,292,1416073,1,0,0:0:0:0:
308,208,1416201,2,0,P|288:136|380:32,1,200
384,136,1416584,2,0,P|309:141|224:31,1,200
120,32,1416967,2,0,L|80:136,1,100
120,352,1417222,2,0,L|80:248,1,100
208,192,1417477,6,0,P|272:200|312:328,2,200
208,300,1418116,2,0,L|368:168,1,200
448,100,1418499,2,0,P|384:36|268:68,1,200
208,132,1418882,1,0,0:0:0:0:
176,28,1419009,1,0,0:0:0:0:
283,52,1419137,1,0,0:0:0:0:
208,132,1419265,2,0,P|136:136|104:108,1,100
8,232,1419520,2,0,P|80:228|112:256,1,100
184,356,1419775,6,0,P|264:344|308:232,1,200
296,124,1420158,1,0,0:0:0:0:
180,92,1420286,2,0,P|150:167|225:261,1,200
408,316,1420669,2,0,L|460:112,1,200
364,64,1421052,2,0,L|336:176,1,100
244,108,1421307,2,0,L|216:220,1,100
188,332,1421562,1,0,0:0:0:0:
76,264,1421690,5,0,0:0:0:0:
76,264,1421754,1,0,0:0:0:0:
76,264,1421818,2,0,P|28:180|72:88,1,200
164,40,1422201,1,0,0:0:0:0:
160,148,1422328,2,0,P|256:112|268:16,1,200
164,40,1422711,1,0,0:0:0:0:
160,148,1422839,5,0,0:0:0:0:
168,184,1422903,1,0,0:0:0:0:
176,216,1422967,1,0,0:0:0:0:
224,324,1423094,1,0,0:0:0:0:
340,352,1423222,1,0,0:0:0:0:
452,308,1423350,1,0,0:0:0:0:
476,192,1423477,1,0,0:0:0:0:
369,221,1423604,2,0,P|321:222|268:202,1,100
254,58,1423860,6,0,P|332:114|424:84,1,200
352,16,1424243,1,0,0:0:0:0:
352,16,1424371,2,0,P|336:104|232:152,1,200
134,152,1424754,2,0,P|42:103|26:15,1,200
192,8,1425137,2,0,L|192:112,1,100
355,268,1425392,2,0,L|264:216,1,100
48,280,1425647,2,0,L|138:228,1,100
328,144,1425903,6,0,P|396:128|492:216,1,200
428,340,1426286,2,0,P|360:356|264:268,1,200
228,176,1426669,2,0,P|188:220|116:228,1,100
72,64,1426924,6,0,P|128:100|136:144,1,100
96,317,1427179,2,0,P|40:281|32:252,1,100
16,120,1427435,1,0,0:0:0:0:
140,84,1427562,1,0,0:0:0:0:
228,176,1427690,1,0,0:0:0:0:
100,208,1427818,1,0,0:0:0:0:
140,84,1427945,6,0,P|236:48|320:100,1,200
340,248,1428328,1,0,0:0:0:0:
220,346,1428456,2,0,P|141:281|144:182,1,200
407,145,1428839,2,0,P|390:246|303:293,1,200
240,140,1429222,2,0,P|292:148|316:188,1,100
168,184,1429477,2,0,P|148:134|171:94,1,100
242,224,1429733,2,0,P|209:265|162:265,1,100
60,128,1429988,6,0,P|92:44|192:8,1,200
322,152,1430371,2,0,P|420:116|452:32,1,200,0|0,0:0|0:0,0:0:0:0:
344,48,1430754,2,0,L|232:48,1,100
148,100,1431009,1,0,0:0:0:0:
244,156,1431137,1,0,0:0:0:0:
144,204,1431265,2,0,P|124:264|136:312,1,100
224,356,1431520,6,0,L|320:304,1,100
464,220,1431775,2,0,L|368:168,1,100
208,52,1432031,6,0,P|112:52|56:136,1,200
304,52,1432414,2,0,P|400:52|456:136,1,200
344,144,1432797,2,0,P|324:200|332:252,1,100
360,344,1433052,6,0,P|288:360|200:272,1,200
152,40,1433435,2,0,P|224:24|312:112,1,200
216,192,1433818,2,0,L|108:192,1,100
40,272,1434073,6,0,P|92:344|200:332,1,200
472,272,1434456,2,0,P|420:344|312:332,1,200
256,192,1434839,2,0,B|236:160|276:128|256:96,1,100
176,228,1435094,6,0,P|256:280|336:228,1,200
356,120,1435477,1,0,0:0:0:0:
440,192,1435605,2,0,P|456:260|428:320,1,100
356,120,1435860,2,0,P|406:72|472:66,1,100
440,192,1436116,6,0,B|390:251|390:251|382:297|382:297|334:355,1,200
177,355,1436499,2,0,B|129:297|129:297|121:251|121:251|72:192,1,200
72,52,1436882,2,0,L|152:128,1,100
296,240,1437137,6,0,P|368:220|388:96,1,200
216,144,1437520,2,0,P|144:164|124:288,1,200
256,356,1437903,2,0,L|360:340,1,100
436,268,1438158,1,0,0:0:0:0:
356,192,1438286,1,0,0:0:0:0:
436,116,1438414,1,0,0:0:0:0:
356,44,1438541,6,0,P|284:32|248:48,1,100
240,68,1438733,1,0,0:0:0:0:
220,96,1438797,1,0,0:0:0:0:
128,192,1438924,1,0,0:0:0:0:
109,164,1438987,1,0,0:0:0:0:
88,134,1439051,1,0,0:0:0:0:
68,103,1439115,1,0,0:0:0:0:
47,72,1439179,5,0,0:0:0:0:
256,356,1439435,1,0,0:0:0:0:
256,356,1439562,1,0,0:0:0:0:
465,72,1439818,1,0,0:0:0:0:
465,72,1439945,1,0,0:0:0:0:
256,192,1440201,1,0,0:0:0:0:
152,312,1441222,5,0,0:0:0:0:
152,312,1441350,2,0,P|100:307|30:239,1,150.000005722046
148,196,1441733,2,0,P|113:158|108:60,1,150.000005722046
256,148,1442116,2,0,L|256:-8,1,150.000005722046
364,196,1442499,2,0,P|398:158|403:60,1,150.000005722046
360,312,1442882,2,0,P|411:307|481:239,1,150.000005722046
480,120,1443265,5,0,0:0:0:0:
480,120,1443328,1,0,0:0:0:0:
480,120,1443392,1,0,0:0:0:0:
404,200,1443520,1,0,0:0:0:0:
328,120,1443648,1,0,0:0:0:0:
256,200,1443775,1,0,0:0:0:0:
184,120,1443903,1,0,0:0:0:0:
108,200,1444031,1,0,0:0:0:0:
32,120,1444159,1,0,0:0:0:0:
28,276,1444286,6,0,P|88:308|200:248,1,200
256,348,1444669,1,0,0:0:0:0:
256,348,1444797,2,0,P|312:264|280:152,1,200
256,68,1445179,1,0,0:0:0:0:
184,152,1445307,6,0,P|116:168|32:68,1,200
140,56,1445690,2,0,L|56:260,1,200
104,344,1446073,2,0,P|172:336|204:312,1,100
260,228,1446328,6,0,P|284:196|328:172,2,66.6666666666667
360,268,1446584,2,0,P|400:256|436:268,2,66.6666666666667
412,156,1446839,2,0,P|428:120|464:96,2,66.6666666666667
340,76,1447094,2,0,P|328:40|296:8,2,66.6666666666667
232,84,1447350,2,0,P|204:64|160:60,2,66.6666666666667
152,144,1447605,2,0,P|112:140|64:168,2,66.6666666666667
104,244,1447860,1,0,0:0:0:0:
100,292,1447945,1,0,0:0:0:0:
116,336,1448031,1,0,0:0:0:0:
160,356,1448116,1,0,0:0:0:0:
204,364,1448201,1,0,0:0:0:0:
248,352,1448286,1,0,0:0:0:0:
280,316,1448371,6,0,P|328:280|396:280,1,100
460,336,1448626,1,0,0:0:0:0:
488,228,1448754,1,0,0:0:0:0:
456,124,1448882,2,0,P|404:64|284:56,1,200
256,160,1449265,1,0,0:0:0:0:
172,88,1449392,5,0,0:0:0:0:
172,88,1449456,1,0,0:0:0:0:
172,88,1449520,1,0,0:0:0:0:
144,196,1449648,1,0,0:0:0:0:
52,140,1449775,1,0,0:0:0:0:
32,248,1449903,2,0,P|64:296|116:312,1,100
256,360,1450158,2,0,L|352:328,1,100
472,224,1450413,6,0,P|500:128|440:40,1,200
312,96,1450797,1,0,0:0:0:0:
180,32,1450924,2,0,P|116:64|84:100,1,100
48,184,1451179,1,0,0:0:0:0:
112,272,1451307,1,0,0:0:0:0:
48,360,1451435,5,0,0:0:0:0:
48,360,1451499,1,0,0:0:0:0:
48,360,1451562,1,0,0:0:0:0:
220,248,1451690,1,0,0:0:0:0:
220,248,1451754,1,0,0:0:0:0:
220,248,1451818,1,0,0:0:0:0:
296,328,1451945,1,0,0:0:0:0:
408,324,1452073,1,0,0:0:0:0:
476,236,1452201,1,0,0:0:0:0:
452,128,1452328,1,0,0:0:0:0:
368,60,1452456,6,0,P|280:40|180:84,1,200
204,192,1452839,1,0,0:0:0:0:
132,276,1452967,2,0,P|80:308|24:296,1,100
208,340,1453222,2,0,P|260:308|316:320,1,100
452,360,1453477,6,0,L|416:264,1,100
228,180,1453733,2,0,L|329:196,1,100
495,76,1453988,2,0,L|429:155,1,100
328,284,1454243,1,0,0:0:0:0:
252,364,1454371,1,0,0:0:0:0:
144,336,1454499,22,0,P|88:292|36:160,1,200
296,96,1455009,2,0,B|352:20|456:92|420:240|256:320|256:320|92:240|56:92|160:20|216:96,2,800
196,260,1457179,1,0,0:0:0:0:
316,260,1457307,1,0,0:0:0:0:
152,348,1457435,5,0,0:0:0:0:
360,348,1457562,2,0,L|456:304,1,100
256,200,1457818,2,0,L|256:72,1,100
152,348,1458073,2,0,L|56:304,1,100
24,204,1458328,5,0,0:0:0:0:
24,93,1458456,1,0,0:0:0:0:
120,148,1458584,2,0,P|172:124|192:72,1,100
276,16,1458839,1,0,0:0:0:0:
376,60,1458967,2,0,L|468:112,1,100
480,220,1459222,2,0,P|480:300|372:368,1,200
308,292,1459605,5,0,0:0:0:0:
216,352,1459733,1,0,0:0:0:0:
128,284,1459860,2,0,L|56:80,1,200
148,24,1460243,1,0,0:0:0:0:
148,24,1460307,1,0,0:0:0:0:
148,24,1460371,1,0,0:0:0:0:
256,36,1460499,1,0,0:0:0:0:
328,116,1460626,6,0,P|340:176|328:216,1,100
228,260,1460882,1,0,0:0:0:0:
328,116,1461009,2,0,P|404:152|432:260,1,200
400,304,1461328,1,0,0:0:0:0:
368,348,1461392,1,0,0:0:0:0:
284,256,1461520,1,0,0:0:0:0:
192,340,1461648,2,0,P|104:344|12:248,1,200
22,109,1462031,2,0,P|104:40|192:44,1,200
256,136,1462414,1,0,0:0:0:0:
320,44,1462541,6,0,P|408:40|489:109,1,200
416,192,1462924,1,0,0:0:0:0:
456,296,1463052,1,0,0:0:0:0:
352,268,1463179,2,0,P|296:264|240:296,1,100
176,356,1463434,1,0,0:0:0:0:
76,308,1463562,1,0,0:0:0:0:
148,228,1463690,6,0,P|176:172|152:124,2,100
68,152,1464073,2,0,P|116:64|220:60,1,200
256,152,1464456,2,0,L|352:84,1,100
464,192,1464711,6,0,L|296:320,1,200
204,356,1465094,1,0,0:0:0:0:
96,344,1465222,1,0,0:0:0:0:
20,264,1465350,2,0,P|12:216|24:160,1,100
84,72,1465605,1,0,0:0:0:0:
148,160,1465733,6,0,P|136:248|228:212,1,200
364,160,1466116,2,0,P|376:248|284:212,1,200
252,136,1466499,1,0,0:0:0:0:
332,60,1466626,1,0,0:0:0:0:
436,84,1466754,6,0,P|484:136|488:192,1,100
396,344,1467009,2,0,P|326:359|276:335,1,100,0|0,0:0|0:0,0:0:0:0:
144,264,1467265,2,0,P|100:188|144:88,1,200
256,180,1467648,1,0,0:0:0:0:
371,90,1467775,6,0,L|372:196,1,100
372,304,1468031,1,0,0:0:0:0:
296,48,1468158,2,0,L|296:153,1,100,0|0,0:0|0:0,0:0:0:0:
296,304,1468414,1,0,0:0:0:0:
220,5,1468541,2,0,L|220:110,1,100,0|0,0:0|0:0,0:0:0:0:
220,304,1468797,1,0,0:0:0:0:
132,192,1468924,5,0,0:0:0:0:
104,212,1468988,1,0,0:0:0:0:
84,240,1469052,1,0,0:0:0:0:
112,344,1469179,1,0,0:0:0:0:
192,272,1469307,1,0,0:0:0:0:
256,364,1469435,1,0,0:0:0:0:
320,272,1469562,1,0,0:0:0:0:
400,344,1469690,1,0,0:0:0:0:
416,292,1469753,1,0,0:0:0:0:
428,240,1469818,5,0,0:0:0:0:
412,140,1469945,1,0,0:0:0:0:
348,76,1470073,1,0,0:0:0:0:
272,52,1470201,1,0,0:0:0:0:
204,68,1470328,1,0,0:0:0:0:
256,192,1470839,12,0,1472881,0:0:0:0:
168,284,1473392,5,0,0:0:0:0:
168,284,1473647,2,0,P|256:324|344:284,1,200
256,192,1474413,1,0,0:0:0:0:
132,222,1474668,1,0,0:0:0:0:
132,222,1474924,2,0,P|141:126|220:69,1,200
291,69,1475690,2,0,P|370:125|379:222,1,200
332,288,1476456,5,0,0:0:0:0:
256,264,1476711,1,0,0:0:0:0:
180,288,1476966,2,0,P|72:288|24:212,1,200
68,152,1477732,2,0,B|116:68|116:68|224:44,1,200
296,45,1478498,2,0,B|396:67|396:67|444:151,1,200
256,360,1480030,1,0,0:0:0:0:
256,288,1481051,5,0,0:0:0:0:
256,268,1481114,1,0,0:0:0:0:
256,248,1481178,1,0,0:0:0:0:
292,184,1481305,1,0,0:0:0:0:
220,144,1481432,1,0,0:0:0:0:
292,104,1481559,1,0,0:0:0:0:
220,64,1481686,1,0,0:0:0:0:
292,24,1481813,6,0,L|336:24,3,25
368,56,1481940,2,0,L|412:56,3,25
444,88,1482067,6,0,P|480:168|420:260,1,200
328,312,1482467,1,0,0:0:0:0:
220,328,1482600,2,0,P|172:312|136:268,1,100
32,300,1482867,2,0,P|29:249|57:200,1,100
232,232,1483133,6,0,P|304:160|280:72,1,200
180,28,1483533,1,0,0:0:0:0:
200,136,1483667,2,0,L|400:184,1,200
500,212,1484067,1,0,0:0:0:0:
232,232,1484200,6,0,L|330:256,1,100
308,76,1484467,2,0,L|210:52,1,100,0|0,0:0|0:0,0:0:0:0:
88,272,1484733,2,0,L|186:296,1,100
164,116,1485000,2,0,L|66:92,1,100,0|0,0:0|0:0,0:0:0:0:
12,192,1485267,5,0,0:0:0:0:
88,272,1485400,1,0,0:0:0:0:
124,264,1485467,1,0,0:0:0:0:
160,256,1485533,1,0,0:0:0:0:
256,340,1485667,1,0,0:0:0:0:
283,315,1485734,1,0,0:0:0:0:
310,290,1485800,1,0,0:0:0:0:
435,314,1485933,1,0,0:0:0:0:
446,279,1486000,1,0,0:0:0:0:
457,244,1486066,1,0,0:0:0:0:
420,60,1486200,5,0,0:0:0:0:
420,60,1486267,1,0,0:0:0:0:
420,60,1486333,2,0,P|360:64|300:180,1,200
320,352,1486733,2,0,P|192:355|159:305,1,200
124,156,1487133,1,0,0:0:0:0:
256,80,1487267,1,0,0:0:0:0:
356,192,1487400,6,0,L|488:348,1,200
252,192,1487800,2,0,L|384:348,1,200,0|0,0:0|0:0,0:0:0:0:
484,232,1488200,1,0,0:0:0:0:
440,88,1488333,1,0,0:0:0:0:
304,24,1488467,6,0,P|232:28|192:68,1,100
84,120,1488733,2,0,P|156:124|196:164,1,100,0|0,0:0|0:0,0:0:0:0:
304,216,1489000,2,0,P|232:220|192:260,1,100,0|0,0:0|0:0,0:0:0:0:
84,312,1489267,2,0,P|156:316|196:356,1,100,0|0,0:0|0:0,0:0:0:0:
336,332,1489533,6,0,P|408:272|412:168,1,200
388,52,1489933,1,0,0:0:0:0:
304,140,1490067,1,0,0:0:0:0:
256,28,1490200,1,0,0:0:0:0:
208,140,1490333,1,0,0:0:0:0:
124,52,1490467,5,0,0:0:0:0:
124,52,1490533,1,0,0:0:0:0:
124,52,1490600,2,0,P|48:152|80:248,1,200
256,336,1491000,1,0,0:0:0:0:
452,218,1491133,2,0,P|464:152|388:52,1,200
256,192,1491533,1,0,0:0:0:0:
256,192,1491600,1,0,0:0:0:0:
256,192,1491667,6,0,P|308:268|416:272,1,200
256,192,1492067,2,0,P|204:268|96:272,1,200
36,152,1492467,1,0,0:0:0:0:
40,116,1492533,1,0,0:0:0:0:
56,84,1492600,1,0,0:0:0:0:
80,60,1492667,1,0,0:0:0:0:
112,52,1492744,6,0,L|228:52,1,100
240,160,1493009,2,0,L|356:160,1,100
368,268,1493274,2,0,L|484:268,1,100
292,344,1493540,6,0,P|240:348|180:316,1,100
116,256,1493805,1,0,0:0:0:0:
116,256,1493938,1,0,0:0:0:0:
152,152,1494071,1,0,0:0:0:0:
152,152,1494204,1,0,0:0:0:0:
72,80,1494336,2,0,P|48:128|56:184,1,100
232,216,1494602,2,0,P|256:168|248:112,1,100
100,48,1494867,6,0,L|36:144,1,100
152,152,1495133,2,0,L|88:248,1,100,0|0,0:0|0:0,0:0:0:0:
204,256,1495398,2,0,L|140:352,1,100,0|0,0:0|0:0,0:0:0:0:
304,308,1495664,6,0,P|368:292|396:264,1,100
444,160,1495929,1,0,0:0:0:0:
444,160,1496062,1,0,0:0:0:0:
380,60,1496195,1,0,0:0:0:0:
380,60,1496328,1,0,0:0:0:0:
276,116,1496460,2,0,L|176:116,1,100
36,36,1496726,2,0,L|136:36,1,100,0|0,0:0|0:0,0:0:0:0:
276,116,1496991,6,0,P|308:168|300:224,1,100
56,256,1497257,2,0,P|85:202|137:181,1,100
287,376,1497522,2,0,P|225:377|181:342,1,100
56,256,1497788,6,0,L|24:148,1,100
80,44,1498053,1,0,0:0:0:0:
80,44,1498186,1,0,0:0:0:0:
200,104,1498319,1,0,0:0:0:0:
200,104,1498451,1,0,0:0:0:0:
288,8,1498584,2,0,P|356:0|412:24,1,100
460,168,1498850,2,0,P|430:176|362:168,1,100
162,109,1499115,6,0,P|119:137|94:184,1,100
49,364,1499381,2,0,P|94:388|147:386,1,100
326,334,1499646,2,0,P|323:284|295:238,1,100
264,240,1499845,1,0,0:0:0:0:
230,237,1499912,2,0,P|209:191|213:138,1,100
256,44,1500177,5,0,0:0:0:0:
399,291,1500315,1,0,0:0:0:0:
399,291,1500732,5,0,0:0:0:0:
115,291,1500871,1,0,0:0:0:0:
256,44,1501288,5,0,0:0:0:0:
256,192,1501357,12,0,1507954,0:0:0:0:
186,219,1509065,5,0,0:0:0:0:
230,247,1509158,1,0,0:0:0:0:
283,247,1509251,1,0,0:0:0:0:
326,219,1509343,1,0,0:0:0:0:
