osu file format v14

[General]
AudioFilename: audio.mp3
AudioLeadIn: 0
PreviewTime: 54947
Countdown: 0
SampleSet: Soft
StackLeniency: 0.7
Mode: 0
LetterboxInBreaks: 0
WidescreenStoryboard: 1

[Editor]
DistanceSpacing: 1.1
BeatDivisor: 4
GridSize: 4
TimelineZoom: 2.3

[Metadata]
Title:Sugar Coaster Girl
TitleUnicode:Sugar Coaster Girl
Artist:Citrus and Ocean Colour
ArtistUnicode:Citrus and Ocean Colour
Creator:Enon
Version:silver's Hard
Source:pop'n music éclale
Tags:eclale popn lively rock japanese video game pop Tachinon TEA tell Suetsugu Kanon RIE♥chan Cycopton Wanpachi laplus asapbakery ChocoMochi silverin0 seegiirino Down ポップンミュジック エクラル bemani komani
BeatmapID:3632785
BeatmapSetID:1774229

[Difficulty]
HPDrainRate:4
CircleSize:3.4
OverallDifficulty:6
ApproachRate:8
SliderMultiplier:1.4
SliderTickRate:1

[Events]
//Background and Video events
0,0,"Background.jpg",0,0
//Break Periods
2,77609,79135
//Storyboard Layer 0 (Background)
//Storyboard Layer 1 (Fail)
//Storyboard Layer 2 (Pass)
//Storyboard Layer 3 (Foreground)
//Storyboard Layer 4 (Overlay)
//Storyboard Sound Samples

[TimingPoints]
-129,307.692307692308,4,2,1,70,1,0
1101,-111.111111111111,4,2,1,70,0,0
10947,-100,4,2,1,80,0,0
20794,-111.111111111111,4,2,1,70,0,0
55255,-90.9090909090909,4,2,1,100,0,1
74947,-100,4,2,1,70,0,0
79885,307.692307692308,4,2,1,80,1,0
99577,-90.9090909090909,4,2,1,100,0,1
118038,-100,4,2,1,50,0,0

[Colours]
Combo1 : 17,254,176
Combo2 : 173,255,95
Combo3 : 255,88,100
Combo4 : 255,94,55

[HitObjects]
374,316,1101,6,0,L|501:331,2,125.999996154785,4|0|0,1:2|1:0|1:0,0:0:0:0:
294,365,1871,1,0,0:0:0:0:
294,365,2024,1,0,1:0:0:0:
232,292,2178,6,0,B|263:267|263:267|274:176,1,125.999996154785,8|0,2:1|0:0,0:0:0:0:
255,92,2640,1,0,1:0:0:0:
255,92,2794,2,0,P|197:130|142:119,1,125.999996154785,8|0,2:1|0:0,0:0:0:0:
88,44,3255,1,0,1:0:0:0:
12,101,3409,1,8,2:1:0:0:
13,116,3486,1,8,2:1:0:0:
15,132,3563,6,0,L|32:266,1,125.999996154785,4|0,1:2|1:0,0:0:0:0:
174,379,4178,2,0,L|190:253,1,125.999996154785,0|0,1:0|1:0,0:0:0:0:
186,158,4640,6,0,B|225:162|225:162|258:195|258:195|301:200,1,125.999996154785,8|0,2:1|0:0,0:0:0:0:
376,145,5101,1,0,1:0:0:0:
376,145,5255,1,8,2:1:0:0:
440,214,5409,1,0,1:0:0:0:
441,228,5486,1,8,0:1:0:0:
443,244,5563,2,0,L|447:279,2,31.4999990386963,8|8|2,2:1|2:1|1:0,0:0:0:0:
444,54,6024,6,0,B|413:33|413:33|321:44,1,125.999996154785,4|0,1:2|1:0,0:0:0:0:
242,25,6486,1,0,1:0:0:0:
242,25,6640,2,0,P|239:59|249:88,1,62.9999980773926,0|0,1:0|1:0,0:0:0:0:
304,153,6947,2,0,P|307:187|296:216,1,62.9999980773926,0|0,1:0|1:0,0:0:0:0:
242,284,7255,5,0,1:0:0:0:
242,284,7409,1,2,1:0:0:0:
184,217,7563,2,0,L|120:209,1,62.9999980773926,0|2,1:0|1:0,0:0:0:0:
43,248,7871,1,2,1:0:0:0:
43,248,8024,1,2,1:0:0:0:
2,169,8178,1,2,1:0:0:0:
48,86,8332,6,0,L|175:70,1,125.999996154785,4|0,1:2|1:0,0:0:0:0:
251,26,8794,1,0,1:0:0:0:
251,26,8947,2,0,L|314:33,1,62.9999980773926,8|0,1:0|1:0,0:0:0:0:
381,98,9255,1,10,1:0:0:0:
381,98,9409,1,8,1:0:0:0:
337,182,9563,6,0,L|274:189,1,62.9999980773926,10|4,1:0|1:2,0:0:0:0:
201,237,9871,1,10,1:0:0:0:
201,237,10024,1,8,1:0:0:0:
149,165,10178,1,10,1:0:0:0:
67,198,10332,2,0,L|23:192,3,31.4999990386963,8|8|10|8,2:1|2:1|2:1|2:1,0:0:0:0:
9,211,10640,2,0,L|19:290,1,62.9999980773926,8|10,2:1|2:1,0:0:0:0:
8,378,10947,6,0,B|51:373|51:373|87:336|87:336|130:331,1,140,6|8,1:2|2:1,0:0:0:0:
235,354,11409,2,0,B|239:321|239:321|225:287,1,70,2|0,1:0|1:0,0:0:0:0:
167,198,11717,2,0,L|238:189,1,70,2|8,1:0|1:0,0:0:0:0:
331,248,12024,6,0,B|311:213|311:213|323:114,1,140,4|2,1:2|1:0,0:0:0:0:
388,39,12486,1,8,1:0:0:0:
281,2,12640,2,0,B|237:7|237:7|201:43|201:43|157:49,1,140,4|2,1:2|0:0,0:0:0:0:
68,6,13101,1,8,2:1:0:0:
11,94,13255,1,2,0:0:0:0:
13,111,13332,1,8,1:0:0:0:
15,128,13409,6,0,L|23:203,1,70,4|2,1:2|0:0,0:0:0:0:
27,303,13717,2,0,P|52:277|90:269,1,70,8|2,1:0|0:0,0:0:0:0:
186,292,14024,2,0,L|194:363,2,70,2|2|10,1:0|1:2|1:0,0:0:0:0:
244,212,14486,6,0,P|230:158|152:122,2,140,12|12|12,0:0|0:0|0:0,0:0:0:0:
344,380,15409,1,12,0:0:0:0:
417,315,15563,1,8,1:0:0:0:
364,215,15717,1,0,1:0:0:0:
366,197,15794,1,0,1:0:0:0:
368,180,15871,6,0,B|380:76|380:76|349:101,2,140,4|8|0,1:2|2:1|1:0,0:0:0:0:
311,270,16640,1,2,0:0:0:0:
311,270,16794,1,8,2:1:0:0:
245,180,16947,6,0,B|213:208|213:208|114:196,1,140,4|0,0:0|1:0,0:0:0:0:
33,249,17409,1,10,1:0:0:0:
93,343,17563,2,0,L|231:325,1,140,4|0,1:0|1:0,0:0:0:0:
322,377,18024,1,8,0:1:0:0:
367,282,18178,1,2,0:0:0:0:
369,264,18255,1,8,0:1:0:0:
371,247,18332,6,0,L|379:175,1,70,4|2,0:0|1:2,0:0:0:0:
446,96,18640,1,8,0:1:0:0:
367,25,18794,2,0,P|328:18|295:33,1,70,2|8,1:2|0:1,0:0:0:0:
252,121,19101,1,8,1:0:0:0:
173,51,19255,1,8,0:1:0:0:
112,136,19409,6,0,L|120:207,1,70,6|0,1:2|0:0,0:0:0:0:
92,295,19717,1,4,1:2:0:0:
92,295,19871,1,4,1:2:0:0:
374,373,20332,1,8,0:1:0:0:
377,356,20409,1,8,0:1:0:0:
379,339,20486,2,0,L|383:303,3,35,8|8|8|8,0:1|0:1|0:1|0:1,0:0:0:0:
369,275,20794,6,0,B|329:279|329:279|286:256|286:256|242:262,2,125.999996154785,4|8|0,1:2|0:1|1:0,0:0:0:0:
440,213,21563,1,0,1:0:0:0:
440,213,21717,1,8,0:1:0:0:
425,119,21871,6,0,P|361:129|296:87,1,125.999996154785,0|0,1:0|1:0,0:0:0:0:
239,37,22332,1,8,0:1:0:0:
193,120,22486,2,0,L|130:128,1,62.9999980773926,2|0,0:0|1:0,0:0:0:0:
88,213,22794,2,0,L|151:221,1,62.9999980773926,0|8,1:0|0:1,0:0:0:0:
226,286,23101,1,2,0:0:0:0:
226,286,23255,6,0,B|250:258|250:258|342:247,1,125.999996154785,0|8,1:0|0:1,0:0:0:0:
209,384,23871,1,0,1:0:0:0:
209,384,24024,2,0,L|145:376,1,62.9999980773926,0|8,1:0|0:1,0:0:0:0:
51,376,24332,2,0,P|75:315|53:244,1,125.999996154785,2|8,1:0|0:0,0:0:0:0:
111,176,24794,2,0,L|119:104,2,62.9999980773926,8|8|8,0:1|1:2|1:0,0:0:0:0:
164,254,25255,1,2,0:1:0:0:
242,190,25409,1,10,1:0:0:0:
257,191,25486,1,0,1:0:0:0:
272,193,25563,6,0,B|311:197|311:197|347:230|347:230|387:235,1,125.999996154785,4|2,1:2|1:0,0:0:0:0:
482,246,26024,1,8,1:0:0:0:
482,246,26178,2,0,B|486:208|486:208|463:165|463:165|468:126,1,125.999996154785,4|2,1:2|1:0,0:0:0:0:
497,38,26640,1,8,1:0:0:0:
497,38,26794,6,0,B|473:12|473:12|374:24,1,125.999996154785,4|2,1:2|1:0,0:0:0:0:
315,89,27255,1,8,1:0:0:0:
246,24,27409,2,0,L|182:16,1,62.9999980773926,4|0,1:2|0:0,0:0:0:0:
110,77,27717,1,2,1:0:0:0:
173,148,27871,2,0,L|177:187,3,31.4999990386963,8|0|2|8,0:1|1:0|1:0|1:0,0:0:0:0:
174,210,28178,6,0,P|134:240|56:228,1,125.999996154785,4|8,1:2|0:1,0:0:0:0:
223,131,28794,2,0,P|251:153|266:183,1,62.9999980773926,0|0,1:0|1:0,0:0:0:0:
300,264,29101,1,8,1:0:0:0:
300,264,29255,6,0,L|425:279,1,125.999996154785,0|0,1:0|1:0,0:0:0:0:
506,229,29717,1,8,0:1:0:0:
447,154,29871,2,0,L|455:91,1,62.9999980773926
473,5,30178,2,0,P|439:1|410:13,1,62.9999980773926,0|8,1:0|0:1,0:0:0:0:
341,72,30486,1,2,0:0:0:0:
341,72,30640,6,0,B|301:67|301:67|268:34|268:34|229:30,2,125.999996154785,2|8|0,1:0|0:1|1:0,0:0:0:0:
407,139,31409,2,0,P|411:173|399:202,1,62.9999980773926,0|8,1:0|1:0,0:0:0:0:
369,289,31717,6,0,B|329:284|329:284|296:251|296:251|257:247,1,125.999996154785,2|8,1:0|1:0,0:0:0:0:
188,311,32178,2,0,L|196:383,2,62.9999980773926,8|8|8,1:0|0:0|0:0,0:0:0:0:
118,245,32640,1,2,1:0:0:0:
179,166,32794,1,10,1:0:0:0:
179,166,32947,6,0,B|158:135|158:135|170:39,1,125.999996154785,4|2,1:2|1:0,0:0:0:0:
89,5,33409,1,8,1:0:0:0:
89,5,33563,2,0,P|26:25|0:90,1,125.999996154785,4|2,1:2|1:0,0:0:0:0:
49,162,34024,1,8,1:0:0:0:
49,162,34178,6,0,L|65:293,1,125.999996154785,4|2,1:2|1:0,0:0:0:0:
127,358,34640,1,8,1:0:0:0:
193,290,34794,2,0,L|256:282,1,62.9999980773926,4|0,0:2|1:0,0:0:0:0:
327,343,35101,1,2,1:0:0:0:
398,280,35255,2,0,L|437:284,3,31.4999990386963,8|0|8|8,0:1|1:0|2:1|0:1,0:0:0:0:
458,295,35563,6,0,L|474:163,1,125.999996154785,4|8,1:2|2:1,0:0:0:0:
399,9,36178,2,0,P|377:31|335:42,1,62.9999980773926,0|0,1:0|1:0,0:0:0:0:
257,26,36486,1,8,1:0:0:0:
257,26,36640,6,0,B|252:65|252:65|276:100|276:100|270:144,1,125.999996154785,2|0,1:0|1:0,0:0:0:0:
234,233,37101,1,8,1:0:0:0:
234,233,37255,2,0,L|170:240,1,62.9999980773926,0|0,1:0|0:0,0:0:0:0:
88,286,37563,2,0,P|78:256|80:222,1,62.9999980773926,0|8,1:0|1:0,0:0:0:0:
116,132,37871,1,4,1:2:0:0:
116,132,38024,6,0,L|52:139,2,62.9999980773926,0|0|0,0:0|1:0|1:0,0:0:0:0:
183,64,38486,1,10,1:0:0:0:
183,64,38640,2,0,L|190:0,2,62.9999980773926,0|10|8,1:0|1:1|1:1,0:0:0:0:
240,139,39101,6,0,B|260:112|260:112|352:101,1,125.999996154785,4|0,1:2|1:0,0:0:0:0:
438,58,39563,1,8,1:0:0:0:
438,58,39717,2,0,B|449:88|449:88|445:121,1,62.9999980773926,10|0,1:0|1:0,0:0:0:0:
382,189,40024,1,10,1:1:0:0:
380,204,40101,1,2,1:0:0:0:
378,220,40178,1,8,1:1:0:0:
443,288,40332,1,10,1:0:0:0:
392,375,40486,6,0,B|352:370|352:370|319:337|319:337|276:332,1,125.999996154785,4|8,1:2|1:0,0:0:0:0:
106,361,41101,2,0,P|126:337|132:306,1,62.9999980773926,0|0,1:0|1:0,0:0:0:0:
83,230,41409,1,8,1:0:0:0:
83,230,41563,6,0,B|113:209|113:209|205:220,1,125.999996154785,0|0,1:0|1:0,0:0:0:0:
297,245,42024,1,8,1:0:0:0:
297,245,42178,2,0,L|289:182,1,62.9999980773926,0|0,1:0|0:0,0:0:0:0:
325,94,42486,2,0,P|295:82|262:86,1,62.9999980773926,0|8,1:0|1:0,0:0:0:0:
185,137,42794,1,0,1:0:0:0:
115,64,42947,6,0,L|122:1,2,62.9999980773926,4|2|8,1:2|1:0|1:0,0:0:0:0:
45,129,43409,1,10,1:0:0:0:
45,129,43563,2,0,L|52:192,1,62.9999980773926,0|10,1:0|1:0,0:0:0:0:
20,290,43871,1,8,1:0:0:0:
20,290,44024,6,0,P|86:288|130:329,1,125.999996154785,4|0,1:2|1:0,0:0:0:0:
209,375,44486,1,8,1:0:0:0:
272,304,44640,1,10,1:0:0:0:
344,365,44794,2,0,L|387:370,3,31.4999990386963,0|0|10|0,1:0|1:0|1:1|1:0,0:0:0:0:
406,373,45101,1,8,1:1:0:0:
475,299,45255,1,2,1:0:0:0:
473,283,45332,1,8,1:1:0:0:
471,267,45409,6,0,B|435:262|435:262|398:233|398:233|350:228,1,125.999996154785,4|8,1:2|1:0,0:0:0:0:
217,119,46024,2,0,L|280:111,1,62.9999980773926,0|0,1:0|1:0,0:0:0:0:
335,35,46332,1,8,1:0:0:0:
335,35,46486,6,0,L|207:19,1,125.999996154785,0|0,1:0|1:0,0:0:0:0:
131,68,46947,1,8,1:0:0:0:
131,68,47101,2,0,L|63:76,1,62.9999980773926,0|0,1:0|1:0,0:0:0:0:
28,161,47409,2,0,L|90:168,1,62.9999980773926,0|8,1:0|1:0,0:0:0:0:
162,247,47717,1,0,1:0:0:0:
162,247,47871,6,0,B|189:222|189:222|200:126,1,125.999996154785,4|0,1:2|1:0,0:0:0:0:
237,46,48332,2,0,B|266:32|266:32|304:37,1,62.9999980773926,10|0,1:0|1:1,0:0:0:0:
373,91,48640,1,10,1:1:0:0:
322,179,48794,1,8,1:0:0:0:
322,179,48947,6,0,B|361:183|361:183|393:220|393:220|433:224,1,125.999996154785,4|0,1:2|1:0,0:0:0:0:
475,307,49409,2,0,L|407:315,1,62.9999980773926,12|0,1:2|0:0,0:0:0:0:
333,367,49717,2,0,L|297:362,3,31.4999990386963,0|0|10|0,1:0|0:0|1:1|0:0,0:0:0:0:
280,339,50024,2,0,L|244:343,3,31.4999990386963,10|0|10|8,1:1|1:0|1:0|1:0,0:0:0:0:
218,353,50332,6,0,L|202:225,1,125.999996154785,4|8,1:2|1:0,0:0:0:0:
100,83,50947,2,0,P|131:86|167:74,1,62.9999980773926,0|0,1:0|1:0,0:0:0:0:
229,10,51255,1,8,1:0:0:0:
229,10,51409,2,0,B|253:37|253:37|345:48,1,125.999996154785,0|0,1:0|1:0,0:0:0:0:
439,33,51871,1,8,1:0:0:0:
439,33,52024,2,0,P|441:66|431:96,1,62.9999980773926,2|2,1:0|0:0,0:0:0:0:
355,151,52332,2,0,P|351:184|362:214,1,62.9999980773926,2|8,1:0|1:0,0:0:0:0:
426,297,52640,6,0,L|363:304,1,62.9999980773926,2|4,0:1|1:2,0:0:0:0:
290,363,52947,1,8,1:0:0:0:
290,363,53101,1,10,1:0:0:0:
219,300,53255,1,2,1:0:0:0:
217,284,53332,1,0,1:0:0:0:
215,268,53409,2,0,L|206:200,1,62.9999980773926,8|10,1:0|1:0,0:0:0:0:
243,117,53717,1,0,1:0:0:0:
178,48,53871,6,0,P|147:35|114:40,1,62.9999980773926,4|0,1:2|0:0,0:0:0:0:
51,104,54178,1,4,1:2:0:0:
51,104,54332,1,4,1:2:0:0:
277,372,54947,2,0,L|340:364,1,62.9999980773926,2|0,0:0|0:0,0:0:0:0:
447,379,55255,6,0,P|428:351|424:309,1,77.0000023498536,4|2,1:2|0:0,0:0:0:0:
465,216,55563,2,0,P|458:178|432:148,1,77.0000023498536,8|2,1:0|0:0,0:0:0:0:
348,178,55871,1,0,1:0:0:0:
348,178,56024,1,0,1:0:0:0:
286,109,56178,1,8,1:0:0:0:
193,163,56332,6,0,L|183:242,1,77.0000023498536,4|0,1:2|0:0,0:0:0:0:
229,337,56640,2,0,P|195:323|155:330,1,77.0000023498536,0|8,1:0|1:0,0:0:0:0:
57,372,56947,2,0,B|81:340|81:340|67:225,1,154.000004699707,4|0,1:2|1:0,0:0:0:0:
51,119,57409,1,8,1:0:0:0:
223,185,57717,6,0,L|232:264,2,77.0000023498536,4|2|8,1:2|1:2|1:0,0:0:0:0:
255,100,58178,1,2,1:2:0:0:
255,100,58332,2,0,P|286:87|328:95,1,77.0000023498536,0|2,1:0|1:2,0:0:0:0:
373,175,58640,1,8,1:0:0:0:
452,127,58794,6,0,B|466:11|466:11|434:40,2,154.000004699707,12|0|12,1:2|1:0|1:2,0:0:0:0:
500,273,59717,2,0,L|505:317,3,38.5000011749268,8|0|8|0,0:0|1:0|1:0|1:0,0:0:0:0:
497,349,60024,1,8,1:0:0:0:
395,313,60178,6,0,L|315:322,1,77.0000023498536,4|2,1:2|0:0,0:0:0:0:
221,350,60486,2,0,P|216:308|232:270,1,77.0000023498536,8|2,1:0|0:0,0:0:0:0:
289,207,60794,1,0,1:0:0:0:
289,207,60947,1,0,1:0:0:0:
238,129,61101,1,8,1:0:0:0:
145,183,61255,6,0,L|61:172,1,77.0000023498536,4|0,1:2|0:0,0:0:0:0:
19,76,61563,2,0,B|98:66,1,77.0000023498536,0|8,1:0|1:0,0:0:0:0:
186,7,61871,2,0,B|229:12|229:12|272:53|272:53|324:60,1,154.000004699707,4|2,1:2|1:0,0:0:0:0:
421,17,62332,2,0,B|438:56|438:56|426:96,1,77.0000023498536,8|0,1:0|0:0,0:0:0:0:
359,172,62640,6,0,L|279:181,2,77.0000023498536,4|0|8,1:2|0:0|1:0,0:0:0:0:
453,217,63101,1,2,0:0:0:0:
453,217,63255,2,0,L|443:296,1,77.0000023498536,0|2,1:0|1:0,0:0:0:0:
378,355,63563,1,8,1:0:0:0:
294,286,63717,6,0,B|250:291|250:291|211:336|211:336|159:342,1,154.000004699707,6|2,1:2|1:0,0:0:0:0:
66,373,64178,2,0,L|56:293,1,77.0000023498536,8|2,1:0|0:0,0:0:0:0:
5,209,64486,2,0,L|9:169,3,38.5000011749268,8|8|8|8,0:1|0:1|0:1|0:1,0:0:0:0:
36,142,64794,2,0,L|30:98,3,38.5000011749268,8|8|8|8,1:0|1:0|1:0|1:0,0:0:0:0:
25,65,65101,6,0,P|58:51|98:57,1,77.0000023498536,4|2,1:2|0:0,0:0:0:0:
165,132,65409,2,0,P|196:146|237:139,1,77.0000023498536,8|2,1:0|0:0,0:0:0:0:
314,84,65717,1,0,1:0:0:0:
314,84,65871,1,0,1:0:0:0:
390,135,66024,1,8,1:0:0:0:
318,216,66178,6,0,B|303:334|303:334|333:318,1,154.000004699707,4|0,1:2|1:0,0:0:0:0:
410,266,66640,1,8,1:0:0:0:
503,320,66794,2,0,L|512:240,1,77.0000023498536,4|0,1:2|0:0,0:0:0:0:
504,135,67101,2,0,P|474:158|436:160,1,77.0000023498536,0|8,1:0|1:0,0:0:0:0:
357,85,67409,1,2,1:2:0:0:
270,150,67563,6,0,L|260:229,2,77.0000023498536,4|2|8,1:2|1:0|1:0,0:0:0:0:
224,69,68024,1,2,0:0:0:0:
206,66,68101,1,2,0:0:0:0:
189,64,68178,1,0,1:0:0:0:
110,112,68332,2,0,P|109:146|131:186,1,77.0000023498536,10|0,1:0|1:0,0:0:0:0:
173,266,68640,6,0,B|145:237|145:237|30:251,2,154.000004699707,12|8|12,1:2|1:0|1:2,0:0:0:0:
222,344,69409,1,8,1:0:0:0:
301,296,69563,1,8,1:0:0:0:
357,369,69717,2,0,L|396:373,3,38.5000011749268,8|0|8|8,1:0|1:0|1:0|1:0,0:0:0:0:
432,381,70024,6,0,P|447:347|440:307,1,77.0000023498536,4|2,1:2|0:0,0:0:0:0:
392,220,70332,2,0,L|308:209,1,77.0000023498536,8|2,1:0|0:0,0:0:0:0:
238,260,70640,1,0,1:0:0:0:
238,260,70794,1,2,1:0:0:0:
181,187,70947,1,8,1:0:0:0:
98,256,71101,6,0,L|87:337,1,77.0000023498536,4|0,1:2|0:0,0:0:0:0:
14,252,71409,2,0,L|3:172,1,77.0000023498536,0|8,1:2|1:0,0:0:0:0:
25,61,71717,2,0,B|71:66|71:66|109:109|109:109|160:116,1,154.000004699707,4|2,1:2|1:0,0:0:0:0:
240,71,72178,1,8,1:0:0:0:
301,139,72332,1,8,1:0:0:0:
377,87,72486,6,0,P|413:78|497:152,2,154.000004699707,4|8|0,1:2|1:0|1:0,0:0:0:0:
301,139,73255,1,2,1:0:0:0:
301,139,73409,1,8,0:1:0:0:
323,228,73563,1,2,1:0:0:0:
248,306,73717,6,0,L|410:325,1,154.000004699707,4|8,1:2|1:0,0:0:0:0:
485,362,74178,2,0,B|497:326|497:326|483:289,1,77.0000023498536,2|10,1:0|1:0,0:0:0:0:
436,208,74486,1,10,1:0:0:0:
490,133,74640,2,0,L|495:89,3,38.5000011749268,10|8|10|8,1:0|1:0|1:0|1:0,0:0:0:0:
498,59,74947,1,4,1:2:0:0:
256,192,75101,12,4,77409,1:2:0:0:
132,281,79885,6,0,B|88:286|88:286|52:322|52:322|8:328,2,140,4|8|0,1:2|1:0|1:0,0:0:0:0:
217,342,80654,1,2,1:0:0:0:
297,274,80808,1,8,1:0:0:0:
382,345,80961,6,0,B|357:317|357:317|370:210,1,140,4|2,1:2|1:0,0:0:0:0:
412,118,81423,1,8,1:0:0:0:
336,45,81577,2,0,P|254:45|214:115,1,140,4|2,1:2|1:0,0:0:0:0:
179,182,82038,2,0,L|187:253,1,70,8|2,1:0|0:0,0:0:0:0:
207,348,82346,6,0,B|167:352|167:352|140:339,1,70,4|0,1:2|1:0,0:0:0:0:
62,277,82654,2,0,L|53:207,1,70,8|2,1:0|1:2,0:0:0:0:
8,126,82961,1,8,1:0:0:0:
8,126,83115,1,2,1:2:0:0:
73,53,83269,1,8,1:0:0:0:
158,100,83423,6,0,L|296:82,2,140,12|8|8,1:2|1:2|1:0,0:0:0:0:
51,264,84346,1,8,1:0:0:0:
53,281,84423,1,0,1:0:0:0:
55,298,84500,2,0,P|84:316|134:307,1,70,2|0,1:0|1:0,0:0:0:0:
205,241,84808,6,0,B|176:268|176:268|188:367,2,140,4|8|0,1:2|1:0|1:0,0:0:0:0:
297,191,85577,1,2,1:0:0:0:
362,272,85731,1,8,1:1:0:0:
458,215,85885,6,0,B|463:167|463:167|436:127|436:127|441:84,1,140,4|2,1:2|1:0,0:0:0:0:
372,4,86346,1,8,1:1:0:0:
291,71,86500,2,0,L|215:80,1,70,4|0,1:2|1:0,0:0:0:0:
158,163,86808,2,0,L|233:172,1,70,2|8,1:2|1:1,0:0:0:0:
316,227,87115,1,2,1:2:0:0:
263,326,87269,6,0,B|235:301|235:301|132:313,1,140,4|8,1:2|1:0,0:0:0:0:
38,359,87731,2,0,P|22:325|29:287,1,70,2|0,0:0|1:0,0:0:0:0:
75,201,88038,2,0,L|146:192,1,70,2|8,0:0|1:0,0:0:0:0:
256,209,88346,6,0,B|288:145|288:145|268:79,1,140,4|2,1:2|1:2,0:0:0:0:
190,8,88808,2,0,L|118:16,1,70,8|2,1:0|1:2,0:0:0:0:
36,78,89115,2,0,L|31:113,3,35,8|8|2|8,1:0|1:0|1:0|1:0,0:0:0:0:
54,138,89423,2,0,L|58:173,3,35,8|8|10|10,0:1|1:0|1:0|1:0,0:0:0:0:
45,205,89731,6,0,P|76:224|124:214,1,70,4|2,1:2|0:0,0:0:0:0:
194,162,90038,2,0,P|223:143|257:144,1,70,8|2,1:0|0:0,0:0:0:0:
332,218,90346,1,0,1:0:0:0:
417,157,90500,2,0,L|486:165,1,70,2|8,1:2|1:0,0:0:0:0:
411,59,90808,6,0,L|268:41,1,140,4|2,1:2|1:0,0:0:0:0:
171,10,91269,1,8,1:1:0:0:
108,94,91423,2,0,L|116:165,1,70,2|0,0:0|1:0,0:0:0:0:
196,232,91731,2,0,L|187:303,1,70,2|8,0:0|1:1,0:0:0:0:
263,157,92038,6,0,P|294:142|342:147,1,70,2|4,0:0|1:2,0:0:0:0:
432,165,92346,1,8,1:1:0:0:
434,182,92423,1,8,1:1:0:0:
437,200,92500,2,0,L|445:271,1,70,10|10,1:0|0:1,0:0:0:0:
481,368,92808,1,2,1:0:0:0:
376,373,92961,2,0,P|345:350|312:348,1,70,10|0,1:1|0:0,0:0:0:0:
220,376,93269,6,0,B|247:347|247:347|260:243,2,140,8|8|8,1:0|0:0|0:0,0:0:0:0:
131,333,94038,1,10,1:0:0:0:
38,366,94192,1,8,0:0:0:0:
21,364,94269,1,8,0:0:0:0:
4,362,94346,2,0,L|-3:310,3,35,2|8|0|0,0:1|0:1|1:0|1:0,0:0:0:0:
18,297,94654,6,0,L|35:158,1,140,6|10,0:0|0:1,0:0:0:0:
158,5,95269,2,0,P|187:27|228:32,1,70,2|2,1:0|1:0,0:0:0:0:
321,4,95577,1,8,1:1:0:0:
331,108,95731,6,0,L|321:183,1,70,4|0,1:2|0:0,0:0:0:0:
221,208,96038,1,2,0:0:0:0:
224,225,96115,1,2,0:0:0:0:
226,243,96192,2,0,L|234:314,1,70,8|2,1:1|0:0,0:0:0:0:
312,383,96500,2,0,P|353:357|372:302,2,105,2|2|10,1:0|1:0|1:0,0:0:0:0:
206,383,97115,6,0,L|134:374,1,70,4|0,1:2|0:0,0:0:0:0:
30,380,97423,2,0,P|33:339|47:310,1,70,8|2,1:1|0:0,0:0:0:0:
133,253,97731,1,2,1:0:0:0:
133,253,97885,1,0,1:0:0:0:
88,166,98038,1,8,1:0:0:0:
165,106,98192,6,0,L|236:114,1,70,6|0,1:2|0:0,0:0:0:0:
355,90,98500,1,4,1:2:0:0:
355,90,98654,1,4,1:2:0:0:
408,278,98961,2,0,L|372:282,3,35,8|8|10|8,0:1|0:1|0:1|0:1,0:0:0:0:
345,304,99269,2,0,L|309:299,3,35,8|8|10|8,1:0|1:0|1:0|1:0,0:0:0:0:
271,292,99577,6,0,L|261:212,1,77.0000023498536,4|0,1:2|0:0,0:0:0:0:
277,116,99885,2,0,P|242:113|205:132,1,77.0000023498536,8|0,1:1|0:0,0:0:0:0:
155,210,100192,1,0,1:0:0:0:
155,210,100346,1,2,1:0:0:0:
80,154,100500,1,8,1:1:0:0:
7,233,100654,6,0,L|17:310,1,77.0000023498536,4|0,1:2|0:0,0:0:0:0:
101,376,100961,2,0,L|109:295,1,77.0000023498536,0|8,1:0|1:0,0:0:0:0:
181,218,101269,2,0,B|186:262|186:262|227:306|227:306|232:354,1,154.000004699707,4|0,1:2|1:0,0:0:0:0:
338,381,101731,1,8,1:1:0:0:
429,220,102038,6,0,L|506:230,2,77.0000023498536,4|2|8,1:2|1:2|1:0,0:0:0:0:
343,199,102500,1,2,0:0:0:0:
343,199,102654,2,0,L|333:121,1,77.0000023498536,0|2,1:0|0:0,0:0:0:0:
331,30,102961,1,8,1:0:0:0:
239,16,103115,6,0,B|192:27|192:27|154:74|154:74|100:87,2,154.000004699707,12|0|12,1:2|1:0|1:2,0:0:0:0:
440,94,104038,2,0,L|432:147,3,38.5000011749268,8|0|8|8,1:2|1:0|1:0|1:0,0:0:0:0:
447,169,104346,1,8,1:0:0:0:
402,258,104500,6,0,B|363:250|363:250|330:266,1,77.0000023498536,4|2,1:2|0:0,0:0:0:0:
246,323,104808,2,0,B|227:292|227:292|233:252,1,77.0000023498536,8|2,1:1|0:0,0:0:0:0:
194,173,105115,1,0,1:0:0:0:
194,173,105269,1,0,1:0:0:0:
114,220,105423,1,8,1:1:0:0:
38,142,105577,6,0,L|48:58,1,77.0000023498536,4|0,1:2|0:0,0:0:0:0:
138,6,105885,2,0,L|148:89,1,77.0000023498536,0|8,1:0|1:0,0:0:0:0:
194,173,106192,2,0,B|224:135|224:135|331:122,1,154.000004699707,4|2,1:2|1:0,0:0:0:0:
428,79,106654,2,0,P|439:111|434:155,1,77.0000023498536,8|0,1:1|0:0,0:0:0:0:
368,238,106961,6,0,L|284:227,2,77.0000023498536,4|0|8,1:2|0:0|1:1,0:0:0:0:
422,319,107423,1,2,0:0:0:0:
422,319,107577,2,0,P|454:318|491:288,1,77.0000023498536,0|2,1:0|1:0,0:0:0:0:
509,200,107885,1,8,1:0:0:0:
433,129,108038,6,0,L|278:148,1,154.000004699707,6|2,1:2|1:0,0:0:0:0:
189,191,108500,2,0,L|179:111,1,77.0000023498536,8|2,1:1|0:0,0:0:0:0:
85,78,108808,2,0,L|79:121,3,38.5000011749268,8|8|8|8,0:1|0:1|0:1|0:1,0:0:0:0:
52,142,109115,2,0,L|57:185,3,38.5000011749268,8|8|8|8,1:0|1:0|1:0|1:0,0:0:0:0:
84,207,109423,6,0,L|74:286,1,77.0000023498536,4|2,1:2|0:0,0:0:0:0:
133,365,109731,2,0,L|212:355,1,77.0000023498536,8|2,1:1|0:0,0:0:0:0:
298,324,110038,1,0,1:0:0:0:
298,324,110192,1,2,1:0:0:0:
281,233,110346,1,8,1:1:0:0:
369,171,110500,6,0,B|316:164|316:164|280:124|280:124|227:118,1,154.000004699707,4|0,1:2|1:0,0:0:0:0:
164,180,110961,1,8,1:0:0:0:
60,147,111115,2,0,L|51:68,1,77.0000023498536,4|0,1:2|0:0,0:0:0:0:
138,6,111423,2,0,B|168:30|168:30|210:30,1,77.0000023498536,0|8,1:0|1:1,0:0:0:0:
298,15,111731,1,2,1:2:0:0:
359,94,111885,6,0,L|442:104,2,77.0000023498536,4|10|0,1:2|1:0|1:0,0:0:0:0:
278,139,112346,1,2,0:0:0:0:
275,157,112423,1,10,1:0:0:0:
273,174,112500,1,0,1:0:0:0:
287,265,112654,2,0,P|319:280|360:274,1,77.0000023498536,10|0,1:0|1:0,0:0:0:0:
432,218,112961,6,0,B|462:197|462:197|448:316,2,154.000004699707,12|0|12,1:2|1:0|1:2,0:0:0:0:
361,157,113731,1,0,1:0:0:0:
411,79,113885,1,8,0:0:0:0:
340,20,114038,2,0,L|300:24,3,38.5000011749268,0|0|8|8,1:0|1:0|1:0|1:0,0:0:0:0:
270,48,114346,6,0,L|188:38,1,77.0000023498536,4|2,1:2|0:0,0:0:0:0:
93,24,114654,2,0,B|89:63|89:63|109:95,1,77.0000023498536,8|2,1:1|0:0,0:0:0:0:
189,150,114961,1,0,1:0:0:0:
189,150,115115,1,2,1:0:0:0:
128,220,115269,1,8,1:1:0:0:
200,300,115423,6,0,L|190:379,1,77.0000023498536,4|0,1:2|0:0,0:0:0:0:
291,252,115731,2,0,L|281:331,1,77.0000023498536,0|8,1:0|1:0,0:0:0:0:
377,230,116038,2,0,L|395:73,1,154.000004699707,4|2,1:2|1:0,0:0:0:0:
333,7,116500,2,0,P|306:35|263:42,1,77.0000023498536,8|8,1:1|1:2,0:0:0:0:
180,16,116808,6,0,L|167:113,1,77.0000023498536,4|10,1:2|1:1,0:0:0:0:
105,158,117115,1,10,1:0:0:0:
107,175,117192,1,2,0:0:0:0:
109,192,117269,2,0,L|118:279,1,77.0000023498536,8|10,1:0|1:0,0:0:0:0:
183,344,117577,1,2,1:1:0:0:
279,318,117731,1,8,1:0:0:0:
286,218,117885,1,4,1:2:0:0:
256,192,118038,12,2,120038,0:0:0:0:
