osu file format v14

[General]
AudioFilename: audio.mp3
AudioLeadIn: 0
PreviewTime: 54947
Countdown: 0
SampleSet: Soft
StackLeniency: 0.7
Mode: 0
LetterboxInBreaks: 0
WidescreenStoryboard: 1

[Editor]
DistanceSpacing: 1.1
BeatDivisor: 4
GridSize: 4
TimelineZoom: 2.1

[Metadata]
Title:Sugar Coaster Girl
TitleUnicode:Sugar Coaster Girl
Artist:Citrus and Ocean Colour
ArtistUnicode:Citrus and Ocean Colour
Creator:Enon
Version:bakery's Insane
Source:pop'n music éclale
Tags:eclale popn lively rock japanese video game pop Tachinon TEA tell Suetsugu Kanon RIE♥chan Cycopton Wanpachi laplus asapbakery ChocoMochi silverin0 seegiirino Down ポップンミュジック エクラル bemani komani
BeatmapID:3632783
BeatmapSetID:1774229

[Difficulty]
HPDrainRate:5
CircleSize:4
OverallDifficulty:8
ApproachRate:9
SliderMultiplier:1.8
SliderTickRate:1

[Events]
//Background and Video events
0,0,"Background.jpg",0,0
//Break Periods
//Storyboard Layer 0 (Background)
//Storyboard Layer 1 (Fail)
//Storyboard Layer 2 (Pass)
//Storyboard Layer 3 (Foreground)
//Storyboard Layer 4 (Overlay)
//Storyboard Sound Samples

[TimingPoints]
-129,307.692307692308,4,2,1,70,1,0
1101,-133.333333333333,4,2,1,70,0,0
5101,-100,4,2,1,70,0,0
6255,-100,4,2,1,5,0,0
6332,-100,4,2,1,70,0,0
10947,-100,4,2,1,80,0,0
12255,-100,4,2,1,5,0,0
12332,-100,4,2,1,80,0,0
12871,-100,4,2,1,5,0,0
12947,-100,4,2,1,80,0,0
16101,-100,4,2,1,5,0,0
16178,-100,4,2,1,80,0,0
16409,-100,4,2,1,5,0,0
16486,-100,4,2,1,80,0,0
18255,-100,4,2,1,5,0,0
18332,-100,4,2,1,80,0,0
20794,-133.333333333333,4,2,1,70,0,0
23486,-133.333333333333,4,2,1,5,0,0
23563,-133.333333333333,4,2,1,70,0,0
25563,-80,4,2,1,70,0,0
25794,-80,4,2,1,5,0,0
25871,-100,4,2,1,70,0,0
26409,-100,4,2,1,5,0,0
26486,-100,4,2,1,70,0,0
27024,-100,4,2,1,5,0,0
27101,-100,4,2,1,70,0,0
27332,-100,4,2,1,5,0,0
27409,-100,4,2,1,70,0,0
27640,-100,4,2,1,5,0,0
27717,-100,4,2,1,70,0,0
28178,-133.333333333333,4,2,1,70,0,0
30871,-133.333333333333,4,2,1,5,0,0
30947,-133.333333333333,4,2,1,70,0,0
32947,-80,4,2,1,70,0,0
33178,-80,4,2,1,5,0,0
33255,-100,4,2,1,70,0,0
33794,-100,4,2,1,5,0,0
33871,-100,4,2,1,70,0,0
34409,-100,4,2,1,5,0,0
34486,-100,4,2,1,70,0,0
35024,-100,4,2,1,5,0,0
35101,-100,4,2,1,70,0,0
40717,-100,4,2,1,5,0,0
40794,-100,4,2,1,70,0,0
41024,-100,4,2,1,5,0,0
41101,-100,4,2,1,70,0,0
43024,-100,4,2,1,5,0,0
43101,-100,4,2,1,70,0,0
49332,-100,4,2,1,5,0,0
49409,-100,4,2,1,70,0,0
52794,-80,4,2,1,70,0,0
54947,-200,4,2,1,70,0,0
55178,-200,4,2,1,5,0,0
55255,-76.9230769230769,4,2,1,100,0,1
67024,-76.9230769230769,4,2,1,5,0,1
67101,-76.9230769230769,4,2,1,100,0,1
71947,-76.9230769230769,4,2,1,5,0,1
72024,-76.9230769230769,4,2,1,100,0,1
74947,-133.333333333333,4,2,1,70,0,0
77409,-100,4,2,1,70,0,0
79885,307.692307692308,4,2,1,80,1,0
79885,-83.3333333333333,4,2,1,80,0,0
85346,-83.3333333333333,4,2,1,5,0,0
85423,-83.3333333333333,4,2,1,80,0,0
85500,-83.3333333333333,4,2,1,5,0,0
85577,-83.3333333333333,4,2,1,80,0,0
97346,-83.3333333333333,4,2,0,80,0,0
97423,-83.3333333333333,4,2,1,80,0,0
99269,-200,4,2,1,80,0,0
99577,-76.9230769230769,4,2,1,100,0,1
111346,-76.9230769230769,4,2,1,5,0,1
111423,-76.9230769230769,4,2,1,100,0,1
116269,-76.9230769230769,4,2,1,5,0,1
116346,-76.9230769230769,4,2,1,100,0,1
117885,-133.333333333333,4,2,1,90,0,0
118038,-133.333333333333,4,2,1,50,0,0

[Colours]
Combo1 : 17,254,176
Combo2 : 173,255,95
Combo3 : 255,88,100
Combo4 : 255,94,55

[HitObjects]
79,137,1101,6,0,P|108:198|117:283,1,135.000005149842,4|0,1:2|1:0,0:0:0:0:
38,258,1563,2,0,P|33:223|17:185,1,67.5000025749208,0|0,0:0|1:0,0:0:0:0:
145,93,1871,1,0,0:0:0:0:
145,93,2024,1,0,1:0:0:0:
285,144,2178,6,0,P|257:178|165:136,1,135.000005149842,8|0,2:1|0:0,0:0:0:0:
213,57,2640,1,0,1:0:0:0:
323,16,2794,2,0,P|294:77|285:162,1,135.000005149842,8|0,2:1|0:0,0:0:0:0:
402,225,3255,1,0,1:0:0:0:
360,155,3409,2,0,P|363:135|368:115,2,33.7500012874604,8|8|4,2:1|2:1|1:2,0:0:0:0:
244,299,3871,5,0,1:0:0:0:
317,321,4024,1,0,0:0:0:0:
384,288,4178,2,0,P|399:257|400:212,2,67.5000025749208,0|0|0,1:0|0:0|1:0,0:0:0:0:
244,299,4640,2,0,P|183:270|98:261,1,135.000005149842,8|0,2:1|0:0,0:0:0:0:
42,365,5101,2,0,P|107:354|120:316,1,90,0|8,1:0|2:1,0:0:0:0:
16,205,5409,1,0,1:0:0:0:
18,227,5486,1,8,0:1:0:0:
20,249,5563,1,8,2:1:0:0:
23,271,5640,1,8,2:1:0:0:
26,293,5717,1,2,1:0:0:0:
26,293,6024,6,0,P|36:236|53:141,1,135,4|0,1:2|0:0,0:0:0:0:
6,97,6332,1,0,1:0:0:0:
6,97,6486,1,0,1:0:0:0:
126,149,6640,1,0,1:0:0:0:
126,149,6794,1,0,1:0:0:0:
91,76,6947,1,0,1:0:0:0:
91,76,7101,5,0,1:0:0:0:
176,63,7255,1,0,1:0:0:0:
186,76,7409,1,2,1:0:0:0:
242,159,7563,1,0,1:0:0:0:
252,149,7717,5,2,1:0:0:0:
334,122,7871,1,2,1:0:0:0:
359,202,8024,1,2,1:0:0:0:
445,236,8178,1,2,1:0:0:0:
445,329,8332,1,4,1:2:0:0:
445,329,8640,5,0,1:0:0:0:
380,286,8794,1,0,1:0:0:0:
323,342,8947,1,8,1:0:0:0:
270,274,9101,1,0,1:0:0:0:
188,333,9255,1,10,1:0:0:0:
122,245,9409,1,8,1:0:0:0:
26,339,9563,6,0,P|84:344|118:289,1,90,10|4,1:0|1:2,0:0:0:0:
47,195,9871,1,10,1:0:0:0:
44,214,9947,1,8,1:0:0:0:
41,234,10024,1,8,1:0:0:0:
106,325,10178,1,10,1:0:0:0:
180,192,10332,5,8,2:1:0:0:
177,172,10409,1,8,2:1:0:0:
174,153,10486,1,10,2:1:0:0:
172,137,10563,1,8,2:1:0:0:
169,117,10640,1,8,2:1:0:0:
241,49,10794,1,10,2:1:0:0:
408,135,10947,6,0,B|415:186|377:218|377:218|330:257|339:324,1,180,6|8,1:2|2:1,0:0:0:0:
441,377,11409,2,0,P|448:331|403:280,1,90,2|0,0:0|1:0,0:0:0:0:
331,152,11717,2,0,P|310:113|317:69,1,90,2|8,1:0|1:0,0:0:0:0:
512,69,12024,6,0,P|409:49|365:-1,1,135,4|0,1:2|0:0,0:0:0:0:
371,10,12332,1,2,1:0:0:0:
0,69,12640,2,0,P|103:49|147:-1,1,135,4|0,1:2|0:0,0:0:0:0:
141,10,12947,1,2,0:0:0:0:
235,122,13101,1,8,2:1:0:0:
204,209,13255,1,2,0:0:0:0:
204,209,13332,1,8,1:0:0:0:
204,209,13409,2,0,P|224:121|240:88,1,90,4|2,1:2|0:0,0:0:0:0:
280,213,13717,5,8,1:0:0:0:
158,273,13871,1,2,0:0:0:0:
131,203,14024,1,2,1:0:0:0:
242,278,14178,1,2,1:2:0:0:
164,384,14332,1,10,1:0:0:0:
87,295,14486,5,12,0:0:0:0:
409,384,14794,1,12,0:0:0:0:
186,29,15101,5,12,0:0:0:0:
508,118,15409,2,0,P|490:154|484:179,1,45,12|0,0:0|0:0,0:0:0:0:
411,189,15563,2,0,P|427:224|435:250,1,45,8|0,1:0|0:0,0:0:0:0:
463,305,15717,1,0,1:0:0:0:
454,309,15794,1,0,0:0:0:0:
446,313,15871,6,0,P|384:305|326:379,1,135,4|0,1:2|0:0,0:0:0:0:
248,346,16178,2,0,P|186:354|128:280,1,135,8|0,2:1|0:0,0:0:0:0:
123,288,16486,5,0,1:0:0:0:
273,278,16640,1,2,0:0:0:0:
180,169,16794,1,8,2:1:0:0:
288,277,16947,2,0,P|311:161|334:93,1,180,4|0,0:0|1:0,0:0:0:0:
268,27,17409,5,8,1:0:0:0:
180,169,17563,2,0,P|223:179|266:194,1,90,4|0,1:0|0:0,0:0:0:0:
330,102,17871,1,0,1:0:0:0:
200,68,18024,2,0,P|114:41|45:28,1,135,8|8,0:1|0:1,0:0:0:0:
41,29,18332,6,0,P|55:74|61:131,1,90,4|2,0:0|1:2,0:0:0:0:
148,262,18640,1,8,0:1:0:0:
12,238,18794,2,0,P|58:231|82:177,1,90,2|8,1:2|0:1,0:0:0:0:
72,192,19101,1,8,1:0:0:0:
61,314,19255,1,8,0:1:0:0:
135,351,19409,6,0,P|140:301|150:249,1,90,6|0,1:2|0:0,0:0:0:0:
81,197,19717,1,4,1:2:0:0:
278,207,19871,6,0,P|285:251|290:296,1,90,4|0,1:2|0:0,0:0:0:0:
291,312,20332,5,8,0:1:0:0:
294,332,20409,1,8,0:1:0:0:
299,349,20486,2,0,P|341:373|361:368,1,45,8|8,0:1|0:1,0:0:0:0:
411,361,20640,2,0,P|435:319|430:299,1,45,8|8,0:1|0:1,0:0:0:0:
429,298,20794,6,0,P|415:260|370:235,1,67.5000025749208,4|0,0:0|0:0,0:0:0:0:
334,112,21101,2,0,P|346:150|391:180,1,67.5000025749208,8|0,0:1|0:0,0:0:0:0:
422,101,21409,5,0,1:0:0:0:
509,119,21563,2,0,P|499:150|475:174,1,67.5000025749208,0|8,1:0|0:1,0:0:0:0:
364,32,21871,2,0,P|455:17|494:47,1,135.000005149842,0|0,1:0|1:0,0:0:0:0:
422,101,22332,1,8,0:1:0:0:
292,51,22486,2,0,P|260:41|227:43,1,67.5000025749208,2|0,0:0|1:0,0:0:0:0:
180,131,22794,2,0,P|212:121|245:122,1,67.5000025749208,0|8,1:0|0:1,0:0:0:0:
88,78,23101,6,0,P|103:145|108:255,1,168.750006437302,2|0,0:0|0:0,0:0:0:0:
96,267,23563,2,0,P|54:275|18:245,1,67.5000025749208,8|0,0:1|0:0,0:0:0:0:
202,202,23871,6,0,P|187:269|180:338,1,135.000005149842,0|8,1:0|0:1,0:0:0:0:
336,266,24332,2,0,P|304:254|273:263,1,67.5000025749208,2|0,1:0|0:0,0:0:0:0:
241,384,24640,1,8,0:0:0:0:
302,337,24794,1,8,0:1:0:0:
368,384,24947,2,0,P|390:338|380:311,1,67.5000025749208,8|8,1:2|1:0,0:0:0:0:
327,182,25255,5,2,0:1:0:0:
470,306,25409,1,10,1:0:0:0:
481,302,25486,1,0,1:0:0:0:
489,293,25563,6,0,B|506:241|479:208|479:208|447:165|469:120,1,168.75,4|0,1:2|0:0,0:0:0:0:
470,125,25871,1,2,1:1:0:0:
512,0,26024,1,8,1:0:0:0:
354,0,26178,6,0,P|374:55|390:157,1,135,4|0,1:2|0:0,0:0:0:0:
377,140,26486,1,2,1:1:0:0:
202,19,26640,1,8,1:0:0:0:
43,123,26794,6,0,P|107:115|133:55,1,135,4|0,1:2|0:0,0:0:0:0:
202,19,27101,2,0,P|191:111|230:134,1,135,2|0,1:1|0:0,0:0:0:0:
211,208,27409,2,0,P|136:153|96:175,1,135,4|0,1:2|0:0,0:0:0:0:
94,179,27717,5,2,1:0:0:0:
30,331,27871,1,8,0:1:0:0:
61,325,27947,1,0,1:0:0:0:
94,326,28024,1,2,1:0:0:0:
126,329,28101,1,8,1:0:0:0:
157,335,28178,6,0,P|220:347|245:359,1,67.5000025749208,4|0,1:2|0:0,0:0:0:0:
428,294,28486,2,0,P|365:306|340:318,1,67.5000025749208,8|0,0:1|0:0,0:0:0:0:
299,376,28794,1,0,1:0:0:0:
383,221,28947,2,0,P|356:184|319:176,1,67.5000025749208,0|8,1:0|1:0,0:0:0:0:
286,300,29255,2,0,P|271:220|251:158,1,135.000005149842,0|0,1:0|1:0,0:0:0:0:
178,146,29717,5,8,0:1:0:0:
349,62,29871,2,0,P|333:91|304:108,1,67.5000025749208,0|0,0:0|1:0,0:0:0:0:
178,146,30178,2,0,P|148:130|131:101,1,67.5000025749208,0|8,1:0|0:1,0:0:0:0:
58,58,30486,6,0,B|107:34|142:60|142:60|175:86|217:69,1,168.750006437302,2|0,0:0|0:0,0:0:0:0:
229,65,30947,2,0,P|260:46|268:4,1,67.5000025749208,8|2,0:1|0:0,0:0:0:0:
50,136,31255,2,0,P|69:200|80:267,1,135.000005149842,0|8,1:0|1:0,0:0:0:0:
0,380,31717,2,0,P|19:345|59:332,1,67.5000025749208,2|0,1:0|0:0,0:0:0:0:
190,383,32024,1,8,1:0:0:0:
123,334,32178,1,8,1:0:0:0:
156,258,32332,2,0,P|184:274|198:304,1,67.5000025749208,8|8,0:0|0:0,0:0:0:0:
388,381,32640,5,2,1:0:0:0:
264,349,32794,1,10,1:0:0:0:
357,135,32947,2,0,P|337:199|322:300,1,168.75,4|0,1:2|0:0,0:0:0:0:
330,317,33255,5,2,1:0:0:0:
419,188,33409,1,8,1:0:0:0:
241,213,33563,2,0,P|186:184|176:107,1,135,4|0,1:2|0:0,0:0:0:0:
178,106,33871,5,2,1:0:0:0:
337,206,34024,1,8,1:0:0:0:
433,6,34178,2,0,P|349:17|268:40,1,135,4|0,1:2|0:0,0:0:0:0:
302,39,34486,5,2,1:0:0:0:
178,106,34640,1,8,1:0:0:0:
99,9,34794,2,0,P|34:20|2:77,1,135,4|0,0:2|0:0,0:0:0:0:
0,91,35101,5,2,1:0:0:0:
63,188,35255,1,8,0:1:0:0:
49,182,35332,1,0,1:0:0:0:
33,177,35409,1,8,2:1:0:0:
18,172,35486,1,8,0:1:0:0:
3,169,35563,6,0,P|27:244|52:357,1,180,4|8,1:2|2:1,0:0:0:0:
179,310,36178,6,0,P|162:351|124:372,2,90,0|0|8,1:0|1:0|1:0,0:0:0:0:
154,161,36640,2,0,P|223:243|312:225,1,180,2|0,1:0|1:0,0:0:0:0:
331,174,37101,1,8,1:0:0:0:
289,352,37255,2,0,P|336:301|390:299,1,90,0|0,1:0|0:0,0:0:0:0:
417,254,37563,2,0,P|454:278|472:318,1,90,0|8,1:0|1:0,0:0:0:0:
405,133,37871,5,4,1:2:0:0:
309,93,38178,5,0,1:0:0:0:
415,142,38332,1,0,1:0:0:0:
415,142,38486,1,10,1:0:0:0:
387,43,38640,1,0,1:0:0:0:
304,110,38794,1,10,1:1:0:0:
420,154,38947,1,8,1:1:0:0:
220,23,39101,5,4,1:2:0:0:
213,31,39255,2,0,P|225:74|233:134,2,90,2|0|8,0:0|1:0|1:0,0:0:0:0:
300,8,39717,1,10,1:0:0:0:
374,48,39871,1,0,1:0:0:0:
407,132,40024,1,10,1:1:0:0:
407,132,40101,1,2,1:0:0:0:
407,132,40178,5,8,1:1:0:0:
387,43,40332,1,10,1:0:0:0:
220,23,40486,6,0,P|201:79|182:165,1,135,4|0,1:2|0:0,0:0:0:0:
146,229,40794,2,0,P|105:184|41:125,1,135,8|0,1:0|0:0,0:0:0:0:
32,134,41101,1,0,1:0:0:0:
138,30,41255,2,0,P|94:41|50:50,1,90,0|8,1:0|1:0,0:0:0:0:
68,289,41563,6,0,B|118:294|146:256|146:256|176:217|236:227,1,180,0|0,1:0|1:0,0:0:0:0:
323,373,42024,1,8,1:0:0:0:
240,384,42178,2,0,P|208:344|214:296,1,90,0|0,1:0|0:0,0:0:0:0:
368,254,42486,2,0,P|328:286|280:280,1,90,0|8,1:0|1:0,0:0:0:0:
303,161,42794,6,0,P|368:175|460:214,1,135,0|0,1:0|0:0,0:0:0:0:
448,211,43101,1,2,1:0:0:0:
410,101,43255,1,8,1:0:0:0:
502,37,43409,1,10,1:0:0:0:
512,164,43563,1,0,1:0:0:0:
313,33,43717,6,0,P|339:28|369:29,1,45,10|0,1:0|0:0,0:0:0:0:
451,116,43871,2,0,P|426:105|397:98,1,45,8|0,1:0|0:0,0:0:0:0:
220,145,44024,2,0,P|225:69|325:37,1,180,4|0,1:2|1:0,0:0:0:0:
302,177,44486,1,8,1:0:0:0:
140,250,44640,2,0,P|182:234|226:226,1,90,10|0,1:0|1:0,0:0:0:0:
84,341,44947,1,10,1:1:0:0:
79,330,45024,1,0,1:0:0:0:
73,319,45101,1,8,1:1:0:0:
5,202,45255,1,2,1:0:0:0:
13,179,45332,1,8,1:1:0:0:
19,161,45409,6,0,P|78:161|112:198,1,90,4|0,1:2|0:0,0:0:0:0:
210,310,45717,2,0,P|253:315|291:292,1,90,8|0,1:0|0:0,0:0:0:0:
448,211,46024,1,0,1:0:0:0:
389,270,46178,2,0,P|373:312|365:356,1,90,0|8,1:0|1:0,0:0:0:0:
217,134,46486,2,0,P|300:138|329:233,1,180,0|0,1:0|1:0,0:0:0:0:
73,319,46947,5,8,1:0:0:0:
167,202,47101,2,0,P|211:210|253:225,1,90,0|0,1:0|0:0,0:0:0:0:
159,279,47409,1,0,1:0:0:0:
19,161,47563,1,8,1:0:0:0:
130,66,47717,2,0,P|107:143|86:257,1,180,0|0,1:0|0:0,0:0:0:0:
0,346,48178,5,0,1:0:0:0:
0,346,48332,1,10,1:0:0:0:
0,346,48486,1,0,1:1:0:0:
88,240,48640,5,10,1:1:0:0:
19,161,48794,1,8,1:0:0:0:
211,47,48947,6,0,B|275:35|313:84|313:84|348:132|412:126,1,225,4|0,1:2|0:0,0:0:0:0:
421,123,49409,2,0,P|466:90|473:24,1,90,12|0,1:2|0:0,0:0:0:0:
390,22,49717,1,0,1:0:0:0:
235,126,49871,1,10,1:1:0:0:
236,140,49947,1,0,1:0:0:0:
239,155,50024,1,10,1:1:0:0:
242,170,50101,1,0,1:0:0:0:
246,184,50178,1,10,1:0:0:0:
368,276,50332,6,0,P|336:196|275:189,1,90,4|0,1:2|0:0,0:0:0:0:
246,184,50640,2,0,P|201:186|167:214,1,90,8|0,1:0|0:0,0:0:0:0:
368,276,50947,1,0,1:0:0:0:
236,263,51101,1,0,1:0:0:0:
287,384,51255,5,8,1:0:0:0:
51,379,51409,2,0,P|128:356|242:335,1,180,0|0,1:0|1:0,0:0:0:0:
447,241,51871,5,8,1:0:0:0:
436,323,52024,2,0,P|401:350|357:353,1,90,2|0,1:0|0:0,0:0:0:0:
167,214,52332,2,0,P|132:186|88:183,1,90,2|8,1:0|1:0,0:0:0:0:
36,240,52640,1,2,0:1:0:0:
112,105,52794,5,4,1:2:0:0:
208,24,52947,1,8,1:0:0:0:
243,182,53101,2,0,P|252:127|267:73,1,112.5,10|2,1:0|1:0,0:0:0:0:
155,315,53409,5,8,1:0:0:0:
88,182,53563,1,10,1:0:0:0:
243,182,53717,1,0,1:0:0:0:
155,315,53871,1,4,1:2:0:0:
150,328,54178,5,4,1:2:0:0:
299,302,54332,1,4,1:2:0:0:
299,302,54947,6,0,P|333:294|353:256,1,67.5,2|0,0:0|0:0,0:0:0:0:
336,189,55255,6,0,P|273:202|206:228,1,116.999994644165,4|2,1:2|0:0,0:0:0:0:
107,142,55563,2,0,P|154:113|202:142,1,116.999994644165,8|2,1:0|0:0,0:0:0:0:
212,308,55871,2,0,P|157:288|100:277,1,116.999994644165,0|0,1:0|1:0,0:0:0:0:
83,288,56178,1,8,1:0:0:0:
241,384,56332,6,0,P|292:353|298:297,1,116.999994644165,4|0,1:2|0:0,0:0:0:0:
60,206,56640,2,0,P|11:175|0:119,1,116.999994644165,0|8,1:0|1:0,0:0:0:0:
223,219,56947,2,0,B|278:239|328:196|328:196|386:144|438:158,1,233.999989288331,4|0,1:2|1:0,0:0:0:0:
437,175,57409,1,8,1:0:0:0:
512,265,57563,1,0,1:2:0:0:
295,238,57717,5,4,1:2:0:0:
362,206,57871,1,2,1:2:0:0:
420,333,58024,5,8,1:0:0:0:
358,290,58178,1,2,1:2:0:0:
437,175,58332,5,0,1:0:0:0:
430,250,58486,1,2,1:2:0:0:
362,206,58640,1,8,1:0:0:0:
512,190,58794,5,12,1:2:0:0:
22,200,59101,1,0,1:0:0:0:
512,190,59409,1,12,1:2:0:0:
261,349,59717,1,8,0:0:0:0:
258,358,59794,1,0,1:0:0:0:
255,368,59871,1,8,1:0:0:0:
22,200,60178,6,0,B|22:163|46:142|46:142|71:165|123:160,1,116.999994644165,4|2,1:2|0:0,0:0:0:0:
224,177,60486,2,0,B|187:177|166:153|166:153|189:128|184:76,1,116.999994644165,8|2,1:0|0:0,0:0:0:0:
324,159,60794,2,0,P|216:115|103:87,1,233.999989288331,0|8,1:0|1:0,0:0:0:0:
24,216,61255,6,0,P|58:258|123:207,1,116.999994644165,4|0,1:2|0:0,0:0:0:0:
128,0,61563,2,0,P|86:34|137:99,1,116.999994644165,0|8,1:0|1:0,0:0:0:0:
112,242,61871,2,0,P|85:129|41:21,1,233.999989288331,4|2,1:2|1:0,0:0:0:0:
25,214,62332,2,0,P|10:273|0:328,1,116.999994644165,8|0,1:0|0:0,0:0:0:0:
298,256,62640,6,0,P|226:242|189:261,1,116.999994644165,4|0,1:2|0:0,0:0:0:0:
336,384,62947,1,8,1:0:0:0:
370,303,63101,1,2,0:0:0:0:
183,170,63255,5,0,1:0:0:0:
250,331,63409,1,2,1:0:0:0:
196,170,63563,1,8,1:0:0:0:
76,320,63717,2,0,B|127:352|183:289|183:289|227:233|299:273,1,233.999989288331,6|2,1:2|1:0,0:0:0:0:
459,345,64178,2,0,P|385:335|375:269,1,116.999994644165,8|2,1:0|0:0,0:0:0:0:
512,141,64486,5,8,0:1:0:0:
497,156,64563,1,8,0:1:0:0:
485,173,64640,1,8,0:1:0:0:
478,190,64717,1,8,0:1:0:0:
472,211,64794,2,0,P|462:242|459:278,2,58.4999973220826,8|8|8,1:0|1:0|1:0,0:0:0:0:
378,67,65101,6,0,P|324:102|324:161,1,116.999994644165,4|2,1:2|0:0,0:0:0:0:
347,224,65409,2,0,P|401:189|401:130,1,116.999994644165,8|2,1:0|0:0,0:0:0:0:
282,32,65717,2,0,P|210:37|134:55,1,116.999994644165,0|0,1:0|1:0,0:0:0:0:
231,121,66024,1,8,1:0:0:0:
92,3,66178,6,0,P|35:4|0:48,1,116.999994644165,4|0,1:2|0:0,0:0:0:0:
161,240,66486,2,0,P|217:239|253:195,1,116.999994644165,0|8,1:0|1:0,0:0:0:0:
41,126,66794,2,0,P|139:125|253:133,1,175.499991966248,4|0,1:2|0:0,0:0:0:0:
231,121,67101,5,0,1:0:0:0:
102,86,67255,1,8,1:0:0:0:
166,45,67409,1,2,1:2:0:0:
68,240,67563,6,0,P|25:201|28:142,1,116.999994644165,4|2,1:2|1:0,0:0:0:0:
153,248,67871,1,8,1:0:0:0:
55,354,68024,1,2,0:0:0:0:
52,364,68101,1,2,0:0:0:0:
49,374,68178,1,0,1:0:0:0:
234,248,68332,1,10,1:0:0:0:
45,381,68640,5,12,1:2:0:0:
512,190,68947,1,8,1:0:0:0:
45,381,69255,1,12,1:2:0:0:
512,190,69563,1,8,1:0:0:0:
497,200,69640,1,0,1:0:0:0:
477,204,69717,2,0,P|417:195|391:123,1,116.999994644165,8|8,1:0|1:0,0:0:0:0:
497,17,70024,6,0,P|474:73|460:128,1,116.999994644165,4|2,1:2|0:0,0:0:0:0:
265,302,70332,2,0,P|250:245|228:191,1,116.999994644165,8|2,1:0|0:0,0:0:0:0:
339,5,70640,2,0,B|359:48|331:94|331:94|288:164|336:225,1,233.999989288331,0|8,1:0|1:0,0:0:0:0:
439,353,71101,6,0,P|408:306|352:300,1,116.999994644165,4|0,1:2|0:0,0:0:0:0:
179,358,71409,2,0,P|235:350|265:297,1,116.999994644165,0|8,1:2|1:0,0:0:0:0:
9,325,71717,2,0,P|70:302|196:271,1,175.499991966248,4|0,1:2|0:0,0:0:0:0:
177,262,72024,1,2,1:0:0:0:
26,192,72178,1,8,1:0:0:0:
176,274,72332,1,8,1:0:0:0:
266,47,72486,6,0,P|185:44|152:178,2,233.999989288331,4|8|0,1:2|1:0|1:0,0:0:0:0:
335,224,73255,1,2,1:0:0:0:
222,124,73409,1,8,0:1:0:0:
414,54,73563,1,2,1:0:0:0:
474,228,73717,6,0,P|366:211|355:103,1,233.999989288331,4|8,1:2|1:0,0:0:0:0:
493,89,74178,1,2,1:0:0:0:
481,327,74332,1,10,1:0:0:0:
431,150,74486,5,10,1:0:0:0:
361,384,74640,1,10,1:0:0:0:
321,371,74717,1,8,1:0:0:0:
288,363,74794,1,10,1:0:0:0:
252,352,74871,1,8,1:0:0:0:
214,342,74947,6,0,B|36:275|61:73|189:23|321:29|442:34|462:314|303:348|173:283|194:179,1,810.000030899049,4|0,1:2|1:0,0:0:0:0:
190,0,77409,6,0,P|210:39|231:100,1,90,4|0,1:2|0:0,0:0:0:0:
322,56,77717,1,0,1:0:0:0:
311,82,77871,1,0,1:0:0:0:
303,107,78024,2,0,P|289:149|280:193,1,90,2|0,1:0|1:0,0:0:0:0:
260,267,78332,2,0,P|219:250|202:210,1,90,0|2,1:0|1:0,0:0:0:0:
280,193,78640,5,0,1:0:0:0:
299,341,78794,1,10,1:0:0:0:
357,188,78947,5,8,1:0:0:0:
376,336,79101,1,10,1:0:0:0:
436,181,79255,5,10,1:0:0:0:
475,341,79409,1,10,1:0:0:0:
484,331,79486,1,8,1:0:0:0:
492,318,79563,2,0,P|448:272|395:283,1,90,10|10,1:0|1:0,0:0:0:0:
129,311,79885,6,0,B|184:292|227:284|227:284|235:276|235:276|287:264|350:270,1,215.999993408203,4|8,1:2|1:0,0:0:0:0:
170,372,80346,2,0,B|116:356|116:356|111:352|111:352|25:341,1,107.999996704102,2|0,0:0|0:0,0:0:0:0:
68,192,80654,1,2,1:0:0:0:
130,231,80808,1,8,1:0:0:0:
61,270,80961,6,0,P|14:254|5:163,1,107.999996704102,4|0,1:2|0:0,0:0:0:0:
196,161,81269,2,0,P|180:208|89:217,1,107.999996704102,2|8,1:0|1:0,0:0:0:0:
0,104,81577,2,0,B|50:99|102:111|102:111|110:119|110:119|153:127|208:146,1,215.999993408203,4|2,1:2|1:0,0:0:0:0:
295,47,82038,1,8,1:0:0:0:
295,47,82346,5,4,1:2:0:0:
279,153,82500,1,0,1:0:0:0:
383,174,82654,1,8,1:0:0:0:
399,68,82808,1,2,1:2:0:0:
295,47,82961,2,0,P|255:37|186:32,2,107.999996704102,8|2|8,1:0|1:2|1:0,0:0:0:0:
469,16,83423,5,12,1:2:0:0:
375,354,83731,1,8,1:2:0:0:
469,16,84038,1,8,1:0:0:0:
375,354,84346,1,8,1:0:0:0:
381,366,84423,1,0,1:0:0:0:
387,380,84500,1,2,1:0:0:0:
465,279,84654,1,0,1:0:0:0:
350,246,84808,2,0,B|300:253|246:271,1,107.999996704102,4|0,1:2|0:0,0:0:0:0:
164,384,85115,6,0,P|229:371|243:272,1,161.999995056153,8|0,1:0|0:0,0:0:0:0:
245,271,85423,2,0,P|223:249|174:238,1,53.9999983520508,0|0,1:0|0:0,0:0:0:0:
1,286,85577,2,0,P|43:337|107:306,1,107.999996704102,2|8,1:0|1:1,0:0:0:0:
179,61,85885,6,0,B|158:115|147:166|147:166|140:171|140:171|129:220|119:281,1,215.999993408203,4|2,1:2|1:0,0:0:0:0:
185,312,86346,1,8,1:1:0:0:
49,219,86500,2,0,B|44:191|37:161|37:161|33:158|33:158|27:128|21:115,1,107.999996704102,4|0,1:2|1:0,0:0:0:0:
179,61,86808,1,2,1:2:0:0:
90,79,86961,1,8,1:1:0:0:
310,56,87115,2,0,P|289:104|239:120,1,107.999996704102,2|4,1:2|1:2,0:0:0:0:
374,7,87423,5,2,0:0:0:0:
470,55,87577,1,8,1:0:0:0:
383,193,87731,1,2,0:0:0:0:
366,189,87885,2,0,B|374:133|374:133|379:128|379:128|391:85,2,107.999996704102,0|2|8,1:0|0:0|1:0,0:0:0:0:
512,280,88346,6,0,P|386:274|338:357,1,215.999993408203,4|2,1:2|1:2,0:0:0:0:
360,363,88808,2,0,P|348:296|327:242,1,107.999996704102,8|2,1:0|1:2,0:0:0:0:
164,334,89115,1,8,1:0:0:0:
180,346,89192,1,8,1:0:0:0:
196,349,89269,1,2,1:0:0:0:
214,348,89346,1,8,1:0:0:0:
229,343,89423,2,0,P|252:324|261:284,2,53.9999983520508,8|8|10,0:1|1:0|1:0,0:0:0:0:
221,117,89731,5,4,1:2:0:0:
187,126,89885,1,2,0:0:0:0:
0,244,90038,1,8,1:0:0:0:
71,263,90192,1,2,0:0:0:0:
153,133,90346,1,0,1:0:0:0:
46,89,90500,2,0,P|77:172|93:236,1,107.999996704102,2|8,1:2|1:0,0:0:0:0:
84,338,90808,6,0,P|113:234|153:133,2,215.999993408203,4|2|2,1:2|1:0|1:0,0:0:0:0:
300,190,91731,2,0,P|248:206|198:226,1,107.999996704102,2|8,0:0|1:1,0:0:0:0:
118,63,92038,2,0,P|168:42|219:26,1,107.999996704102,2|4,0:0|1:2,0:0:0:0:
298,106,92346,1,8,1:1:0:0:
299,31,92500,1,10,1:0:0:0:
371,0,92654,1,10,0:1:0:0:
417,61,92808,1,2,1:0:0:0:
376,123,92961,1,10,1:1:0:0:
0,240,93269,5,8,1:0:0:0:
376,123,93577,2,0,P|391:147|401:170,3,53.9999983520508,8|0|2|0,0:0|0:0|0:1|0:0,0:0:0:0:
325,224,93885,2,0,P|308:247|300:271,3,53.9999983520508,8|0|10|0,0:0|0:0|1:1|0:0,0:0:0:0:
368,333,94192,1,8,0:0:0:0:
375,342,94269,1,8,0:0:0:0:
384,347,94346,1,2,0:1:0:0:
394,350,94423,1,8,0:1:0:0:
407,352,94500,1,0,1:0:0:0:
512,280,94654,6,0,P|477:293|445:307,1,53.9999983520508,6|0,0:0|0:0,0:0:0:0:
501,263,94808,2,0,P|477:275|454:290,1,53.9999983520508,2|0,0:0|0:0,0:0:0:0:
300,270,94961,2,0,P|275:259|249:250,1,53.9999983520508,10|0,0:1|0:0,0:0:0:0:
307,261,95115,2,0,P|284:246|256:238,1,53.9999983520508,0|2,0:0|0:0,0:0:0:0:
107,316,95269,2,0,P|81:324|56:334,1,53.9999983520508,2|0,1:0|0:0,0:0:0:0:
126,323,95423,6,0,P|179:331|231:344,1,107.999996704102,2|8,1:0|1:1,0:0:0:0:
397,252,95731,2,0,P|290:247|164:256,1,215.999993408203,4|2,1:2|0:0,0:0:0:0:
173,247,96115,1,2,0:0:0:0:
166,238,96192,1,8,1:1:0:0:
2,282,96346,1,2,0:0:0:0:
107,316,96500,2,0,P|79:240|48:166,2,161.999995056153,2|2|10,1:0|1:0|1:0,0:0:0:0:
135,164,97115,2,0,P|155:108|177:55,1,107.999996704102,4|0,1:2|0:0,0:0:0:0:
0,35,97423,1,8,1:1:0:0:
79,91,97577,1,2,0:0:0:0:
188,37,97731,5,2,1:0:0:0:
321,126,97961,5,2,1:0:0:0:
512,35,98192,5,6,1:2:0:0:
472,173,98500,5,4,1:2:0:0:
512,35,98654,1,4,1:2:0:0:
512,35,98961,5,8,0:1:0:0:
507,42,99038,1,8,0:1:0:0:
502,51,99115,1,10,0:1:0:0:
497,59,99192,1,8,0:1:0:0:
493,67,99269,2,0,L|470:103,3,22.5,8|8|10|8,1:0|1:0|1:0|1:0,0:0:0:0:
394,192,99577,6,0,P|340:178|321:126,1,116.999994644165,4|0,1:2|0:0,0:0:0:0:
184,47,99885,2,0,P|129:60|106:116,1,116.999994644165,8|0,1:1|0:0,0:0:0:0:
200,201,100192,2,0,P|220:146|244:90,1,116.999994644165,0|2,1:0|1:0,0:0:0:0:
312,47,100500,1,8,1:1:0:0:
184,123,100654,2,0,P|206:176|226:231,1,116.999994644165,4|0,1:2|0:0,0:0:0:0:
58,260,100961,6,0,P|71:205|124:186,1,116.999994644165,0|8,1:0|1:0,0:0:0:0:
303,250,101269,2,0,P|193:291|86:339,1,233.999989288331,4|0,1:2|1:0,0:0:0:0:
93,353,101731,1,8,1:1:0:0:
60,263,101885,1,0,1:2:0:0:
185,168,102038,5,4,1:2:0:0:
118,136,102192,1,2,1:2:0:0:
60,263,102346,5,8,1:0:0:0:
122,220,102500,1,2,0:0:0:0:
43,105,102654,5,0,1:0:0:0:
50,180,102808,1,2,0:0:0:0:
118,136,102961,1,8,1:0:0:0:
17,32,103115,5,12,1:2:0:0:
494,134,103423,1,0,1:0:0:0:
17,32,103731,1,12,1:2:0:0:
291,22,104038,1,8,1:2:0:0:
290,32,104115,1,0,1:0:0:0:
289,41,104192,1,8,1:0:0:0:
381,338,104500,6,0,P|378:258|339:248,1,116.999994644165,4|2,1:2|0:0,0:0:0:0:
154,321,104808,2,0,P|234:318|244:279,1,116.999994644165,8|2,1:1|0:0,0:0:0:0:
117,242,105115,2,0,P|227:203|340:172,1,233.999989288331,0|8,1:0|1:1,0:0:0:0:
381,338,105577,6,0,P|339:301|354:248,1,116.999994644165,4|0,1:2|0:0,0:0:0:0:
494,108,105885,2,0,P|483:162|429:175,1,116.999994644165,0|8,1:0|1:0,0:0:0:0:
283,26,106192,2,0,P|327:134|354:247,1,233.999989288331,4|2,1:2|1:0,0:0:0:0:
450,371,106654,6,0,P|460:313|475:256,1,116.999994644165,8|0,1:1|0:0,0:0:0:0:
494,108,106961,2,0,P|452:70|398:87,1,116.999994644165,4|0,1:2|0:0,0:0:0:0:
166,165,107269,1,8,1:1:0:0:
261,207,107423,1,2,0:0:0:0:
270,18,107577,5,0,1:0:0:0:
239,114,107731,1,2,1:0:0:0:
283,26,107885,1,8,1:0:0:0:
56,150,108038,2,0,B|111:118|155:174|155:174|211:237|262:205,1,233.999989288331,6|2,1:2|1:0,0:0:0:0:
283,26,108500,2,0,P|237:59|240:115,1,116.999994644165,8|2,1:1|0:0,0:0:0:0:
257,293,108808,5,8,0:1:0:0:
238,293,108885,1,8,0:1:0:0:
220,295,108961,1,8,0:1:0:0:
202,298,109038,1,8,0:1:0:0:
185,301,109115,2,0,P|154:311|117:325,2,58.4999973220826,8|8|8,1:0|1:0|1:0,0:0:0:0:
481,362,109423,6,0,P|453:312|398:304,1,116.999994644165,4|2,1:2|0:0,0:0:0:0:
226,379,109731,2,0,P|280:363|340:353,1,116.999994644165,8|2,1:1|0:0,0:0:0:0:
494,240,110038,2,0,P|440:224|379:214,1,116.999994644165,0|2,1:0|1:0,0:0:0:0:
316,278,110346,1,8,1:1:0:0:
407,106,110500,6,0,P|351:114|323:164,1,116.999994644165,4|0,1:2|0:0,0:0:0:0:
482,363,110808,2,0,P|447:309|388:309,1,116.999994644165,0|8,1:0|1:0,0:0:0:0:
116,325,111115,2,0,P|221:337|220:242,1,175.499991966248,4|0,1:2|0:0,0:0:0:0:
229,278,111423,5,0,1:0:0:0:
192,206,111577,1,8,1:1:0:0:
253,162,111731,1,2,1:2:0:0:
140,140,111885,6,0,P|82:148|26:165,1,116.999994644165,4|10,1:2|1:0,0:0:0:0:
206,91,112192,1,0,1:0:0:0:
83,53,112346,1,2,0:0:0:0:
77,44,112423,1,10,1:0:0:0:
70,33,112500,1,0,1:0:0:0:
129,252,112654,1,10,1:0:0:0:
486,165,112961,5,12,1:2:0:0:
26,165,113269,1,0,1:0:0:0:
486,165,113577,1,12,1:2:0:0:
26,165,113885,1,8,0:0:0:0:
35,182,113961,1,8,0:0:0:0:
49,191,114038,2,0,P|110:183|137:103,1,116.999994644165,0|8,1:0|1:0,0:0:0:0:
363,104,114346,6,0,P|329:58|272:52,1,116.999994644165,4|2,1:2|0:0,0:0:0:0:
322,243,114654,2,0,P|307:186|285:132,1,116.999994644165,8|2,1:1|0:0,0:0:0:0:
206,224,114961,2,0,B|264:253|313:207|313:207|370:161|421:198,1,233.999989288331,0|8,1:0|1:1,0:0:0:0:
426,374,115423,6,0,P|369:368|338:321,1,116.999994644165,4|0,1:2|0:0,0:0:0:0:
503,235,115731,2,0,P|472:282|415:288,1,116.999994644165,0|8,1:0|1:0,0:0:0:0:
92,280,116038,2,0,P|177:300|259:330,1,175.499991966248,4|0,1:2|0:0,0:0:0:0:
258,346,116346,5,2,1:0:0:0:
315,139,116500,1,8,1:1:0:0:
208,223,116654,2,0,P|263:243|316:210,1,116.999994644165,8|4,1:2|1:2,0:0:0:0:
231,86,116961,5,10,1:1:0:0:
101,186,117115,1,10,1:0:0:0:
101,186,117192,1,2,0:0:0:0:
101,186,117269,1,2,0:0:0:0:
136,25,117423,2,0,P|151:81|161:148,2,116.999994644165,10|2|8,1:0|1:1|1:1,0:0:0:0:
151,299,117885,6,0,B|108:370|63:375|-165:251|74:27|322:160|129:443|368:214|398:192|446:126|402:84|402:84|375:62|340:70|322:106|322:106|310:70|279:64|254:77|254:77|243:83|212:114|245:159|279:161,1,945.000036048891,4|2,1:2|0:0,0:0:0:0:
