osu file format v14

[General]
AudioFilename: audio.mp3
AudioLeadIn: 0
PreviewTime: 54947
Countdown: 0
SampleSet: Soft
StackLeniency: 0.7
Mode: 0
LetterboxInBreaks: 0
WidescreenStoryboard: 1

[Editor]
DistanceSpacing: 1.1
BeatDivisor: 4
GridSize: 32
TimelineZoom: 1

[Metadata]
Title:Sugar Coaster Girl
TitleUnicode:Sugar Coaster Girl
Artist:Citrus and Ocean Colour
ArtistUnicode:Citrus and Ocean Colour
Creator:Enon
Version:Wanpachi's Normal
Source:pop'n music éclale
Tags:eclale popn lively rock japanese video game pop Tachinon TEA tell Suetsugu Kanon RIE♥chan Cycopton Wanpachi laplus asapbakery ChocoMochi silverin0 seegiirino Down ポップンミュジック エクラル bemani komani
BeatmapID:3634065
BeatmapSetID:1774229

[Difficulty]
HPDrainRate:3
CircleSize:3
OverallDifficulty:4
ApproachRate:5
SliderMultiplier:1
SliderTickRate:1

[Events]
//Background and Video events
0,0,"Background.jpg",0,0
//Break Periods
2,77609,78685
//Storyboard Layer 0 (Background)
//Storyboard Layer 1 (Fail)
//Storyboard Layer 2 (Pass)
//Storyboard Layer 3 (Foreground)
//Storyboard Layer 4 (Overlay)
//Storyboard Sound Samples

[TimingPoints]
-129,307.692307692308,4,2,1,70,1,0
1101,-111.111111111111,4,2,1,70,0,0
10947,-100,4,2,1,80,0,0
20794,-111.111111111111,4,2,1,70,0,0
55255,-100,4,2,1,100,0,1
74947,-111.111111111111,4,2,1,70,0,0
79885,307.692307692308,4,2,1,80,1,0
79885,-111.111111111111,4,2,1,80,0,0
97346,-111.111111111111,4,2,0,80,0,0
97423,-111.111111111111,4,2,1,80,0,0
99577,-100,4,2,1,100,0,1
118115,-100,4,2,1,50,0,0

[Colours]
Combo1 : 17,254,176
Combo2 : 173,255,95
Combo3 : 255,88,100
Combo4 : 255,94,55

[HitObjects]
434,330,1101,6,0,B|335:323|366:272|249:258,1,179.999994506836,4|0,1:2|1:0,0:0:0:0:
191,304,2024,1,0,1:0:0:0:
191,304,2178,2,0,P|142:313|79:335,1,89.9999972534181,8|0,2:1|0:0,0:0:0:0:
34,267,2794,2,0,P|16:216|38:168,1,89.9999972534181,8|0,2:1|0:0,0:0:0:0:
59,153,3255,1,0,1:0:0:0:
25,69,3563,6,0,P|109:62|226:40,1,179.999994506836,4|0,1:2|1:0,0:0:0:0:
246,32,4332,1,0,0:0:0:0:
314,90,4640,2,0,P|361:103|396:143,1,89.9999972534181,8|0,2:1|0:0,0:0:0:0:
425,167,5101,1,0,1:0:0:0:
425,167,5255,2,0,P|437:214|420:264,1,89.9999972534181,8|8,2:1|2:1,0:0:0:0:
396,286,5717,1,2,1:0:0:0:
306,296,6024,6,0,P|300:227|288:177,1,89.9999972534181,4|0,1:2|1:0,0:0:0:0:
323,172,6486,1,0,1:0:0:0:
323,172,6640,2,0,L|381:164,2,44.999998626709,0|0|0,1:0|1:0|1:0,0:0:0:0:
272,97,7255,2,0,L|227:90,1,44.999998626709,0|2,1:0|1:0,0:0:0:0:
195,58,7563,2,0,L|150:51,1,44.999998626709,0|2,1:0|1:0,0:0:0:0:
105,43,7871,1,2,1:0:0:0:
44,109,8178,1,2,1:0:0:0:
44,109,8332,6,0,P|69:152|71:202,1,89.9999972534181,4|0,1:2|1:0,0:0:0:0:
50,231,8794,1,0,1:0:0:0:
104,302,9101,2,0,L|108:356,2,44.999998626709,0|10|8,1:0|1:0|1:0,0:0:0:0:
137,271,9563,2,0,P|188:260|237:306,1,89.9999972534181,10|10,1:0|1:0,0:0:0:0:
254,313,10024,1,8,1:0:0:0:
254,313,10178,2,0,P|294:330|336:318,1,89.9999972534181,10|10,1:0|2:1,0:0:0:0:
374,294,10640,1,8,2:1:0:0:
452,232,10947,6,0,P|440:167|431:102,1,100,6|8,1:2|2:1,0:0:0:0:
454,87,11409,1,2,0:0:0:0:
368,35,11717,1,2,1:0:0:0:
286,92,12024,2,0,P|274:152|305:195,1,100,4|2,1:2|1:0,0:0:0:0:
334,219,12486,1,8,1:0:0:0:
334,219,12640,2,0,P|353:263|339:310,1,100,4|2,1:2|0:0,0:0:0:0:
302,344,13101,1,8,2:1:0:0:
215,304,13409,5,4,1:2:0:0:
215,304,13563,2,0,L|221:244,2,50,2|8|2,0:0|1:0|0:0,0:0:0:0:
170,327,14024,2,0,L|176:387,2,50,2|2|10,1:0|1:2|1:0,0:0:0:0:
123,308,14486,1,12,0:0:0:0:
48,240,14794,1,12,0:0:0:0:
52,140,15101,1,12,0:0:0:0:
139,91,15409,2,0,B|169:104|169:104|197:99|197:99|213:112|262:127,1,100,12|0,0:0|1:0,0:0:0:0:
281,115,15871,6,0,P|308:165|296:221,1,100,4|8,1:2|2:1,0:0:0:0:
245,287,16486,2,0,L|184:275,2,50,0|2|8,1:0|0:0|2:1,0:0:0:0:
280,322,16947,2,0,P|330:309|399:305,1,100,4|0,0:0|1:0,0:0:0:0:
428,329,17409,1,10,1:0:0:0:
428,329,17563,2,0,P|432:279|445:230,1,100,4|0,1:0|1:0,0:0:0:0:
477,192,18024,1,8,0:1:0:0:
477,192,18178,1,2,0:0:0:0:
411,116,18486,6,0,L|401:55,2,50,2|8|2,1:2|0:1|1:2,0:0:0:0:
332,178,19101,2,0,L|271:168,1,50,8|8,1:0|0:1,0:0:0:0:
233,157,19409,1,6,1:2:0:0:
220,62,19717,1,4,1:2:0:0:
220,62,19871,1,4,1:2:0:0:
39,262,20794,6,0,P|57:311|69:370,1,89.9999972534181,4|8,1:2|0:1,0:0:0:0:
151,319,21409,2,0,L|156:254,2,44.999998626709,0|0|8,1:0|1:0|0:1,0:0:0:0:
184,349,21871,2,0,P|235:360|296:325,1,89.9999972534181,0|0,1:0|1:0,0:0:0:0:
302,317,22332,1,8,0:1:0:0:
302,317,22486,2,0,P|344:305|387:316,1,89.9999972534181,2|0,0:0|1:0,0:0:0:0:
476,330,23101,6,0,P|468:267|467:222,1,89.9999972534181,2|0,0:0|0:0,0:0:0:0:
440,204,23563,1,8,0:1:0:0:
490,129,23871,2,0,P|482:76|436:28,1,89.9999972534181,0|8,1:0|0:1,0:0:0:0:
424,21,24332,2,0,P|375:38|322:56,1,89.9999972534181,2|8,1:0|0:0,0:0:0:0:
298,70,24794,1,8,0:1:0:0:
243,141,25101,2,0,L|184:132,2,44.999998626709,8|2|10,1:0|0:1|1:0,0:0:0:0:
276,171,25563,6,0,P|292:222|270:283,1,89.9999972534181,4|2,1:2|1:0,0:0:0:0:
231,328,26178,2,0,P|177:335|115:362,1,89.9999972534181,4|2,1:2|1:1,0:0:0:0:
111,377,26640,1,8,1:0:0:0:
111,377,26794,1,4,1:2:0:0:
67,298,27101,2,0,L|70:244,1,44.999998626709,2|8,1:1|1:0,0:0:0:0:
67,207,27409,2,0,P|42:158|40:89,1,89.9999972534181,4|2,1:2|1:0,0:0:0:0:
67,90,27871,2,0,L|121:93,1,44.999998626709,8|2,0:1|1:0,0:0:0:0:
150,69,28178,6,0,P|194:76|222:121,1,89.9999972534181,4|8,1:2|0:1,0:0:0:0:
275,181,28794,2,0,L|336:173,2,44.999998626709,0|0|8,1:0|1:0|1:0,0:0:0:0:
238,207,29255,2,0,P|255:265|258:310,1,89.9999972534181,0|0,1:0|1:0,0:0:0:0:
300,321,29717,1,8,0:1:0:0:
300,321,29871,2,0,P|350:331|407:295,1,89.9999972534181,0|0,0:0|1:0,0:0:0:0:
454,260,30486,6,0,P|459:215|473:172,1,89.9999972534181,2|0,0:0|0:0,0:0:0:0:
502,137,30947,1,8,0:1:0:0:
444,67,31255,2,0,P|395:77|343:83,1,89.9999972534181,0|8,1:0|1:0,0:0:0:0:
313,99,31717,2,0,P|272:62|221:61,1,89.9999972534181,2|8,1:0|1:0,0:0:0:0:
196,71,32178,1,8,1:0:0:0:
196,71,32332,1,8,0:0:0:0:
137,139,32640,2,0,L|146:209,1,44.999998626709,2|10,1:0|1:0,0:0:0:0:
150,227,32947,6,0,P|128:268|130:341,1,89.9999972534181,4|2,1:2|1:0,0:0:0:0:
198,360,33563,2,0,P|239:338|312:340,1,89.9999972534181,4|2,1:2|1:0,0:0:0:0:
323,351,34024,1,8,1:0:0:0:
323,351,34178,1,4,1:2:0:0:
381,282,34486,2,0,L|373:220,1,44.999998626709,2|8,1:0|1:0,0:0:0:0:
341,207,34794,2,0,P|310:163|323:101,1,89.9999972534181,4|2,0:2|1:0,0:0:0:0:
331,88,35255,1,8,0:1:0:0:
407,41,35563,6,0,P|419:90|440:145,1,89.9999972534181,4|8,1:2|2:1,0:0:0:0:
491,195,36178,2,0,P|476:237|465:281,1,89.9999972534181,0|8,1:0|1:0,0:0:0:0:
450,324,36640,2,0,P|405:293|330:307,1,134.999995880127,2|8,1:0|1:0,0:0:0:0:
293,333,37255,1,0,1:0:0:0:
224,274,37563,1,0,1:0:0:0:
150,325,37871,6,0,P|95:307|43:297,1,89.9999972534181,4|0,1:2|1:0,0:0:0:0:
39,262,38332,2,0,P|13:220|27:170,1,89.9999972534181,0|0,1:0|1:0,0:0:0:0:
79,114,38948,1,8,1:1:0:0:
166,135,39255,2,0,B|232:139|225:88|304:93,1,134.999995880127,2|10,1:0|1:0,0:0:0:0:
331,113,39871,1,0,1:0:0:0:
331,113,40024,2,0,P|387:108|416:68,1,89.9999972534181,10|10,1:1|1:0,0:0:0:0:
447,62,40486,6,0,P|456:114|481:184,1,89.9999972534181,4|8,1:2|1:0,0:0:0:0:
499,233,41101,1,0,1:0:0:0:
499,233,41255,2,0,L|486:287,1,44.999998626709,0|8,1:0|1:0,0:0:0:0:
472,319,41563,2,0,P|428:297|370:310,1,89.9999972534181,0|0,1:0|1:0,0:0:0:0:
353,327,42024,1,8,1:0:0:0:
353,327,42178,2,0,P|308:329|269:308,1,89.9999972534181,0|0,1:0|1:0,0:0:0:0:
241,272,42640,1,8,1:0:0:0:
208,188,42947,6,0,B|192:101|269:123|254:10,1,179.999994506836,4|0,1:2|1:0,0:0:0:0:
214,1,43717,2,0,L|155:15,1,44.999998626709,10|8,1:0|1:0,0:0:0:0:
128,28,44024,2,0,P|74:35|39:80,1,89.9999972534181,4|0,1:2|1:0,0:0:0:0:
37,101,44486,1,8,1:0:0:0:
71,184,44794,2,0,L|65:246,1,44.999998626709,0|10,1:0|1:1,0:0:0:0:
40,265,45101,2,0,L|46:327,1,44.999998626709,8|2,1:1|1:0,0:0:0:0:
82,334,45409,6,0,P|131:324|181:352,1,89.9999972534181,4|8,1:2|1:0,0:0:0:0:
245,293,46024,2,0,L|252:234,2,44.999998626709,0|0|8,1:0|1:0|1:0,0:0:0:0:
276,325,46486,2,0,P|321:305|430:302,1,134.999995880127,0|8,1:0|1:0,0:0:0:0:
443,322,47101,1,0,1:0:0:0:
499,251,47409,2,0,L|491:194,1,44.999998626709,0|8,1:0|1:0,0:0:0:0:
469,167,47717,1,0,1:0:0:0:
469,167,47871,6,0,P|495:113|499:51,1,89.9999972534181,4|0,1:2|1:0,0:0:0:0:
468,51,48332,2,0,L|405:42,1,44.999998626709,10|0,1:0|1:1,0:0:0:0:
390,75,48640,2,0,L|327:84,1,44.999998626709,10|8,1:1|1:0,0:0:0:0:
301,71,48947,2,0,P|275:112|278:168,1,89.9999972534181,4|0,1:2|1:0,0:0:0:0:
303,185,49409,1,12,1:2:0:0:
259,263,49717,1,0,1:0:0:0:
259,263,49871,2,0,L|186:258,1,44.999998626709,10|10,1:1|1:1,0:0:0:0:
172,277,50178,1,10,1:0:0:0:
172,277,50332,6,0,P|100:286|93:184,1,179.999994506836,4|0,1:2|1:0,0:0:0:0:
109,162,51101,2,0,L|102:108,1,44.999998626709,0|8,1:0|1:0,0:0:0:0:
125,77,51409,2,0,B|208:62|181:103|274:91,1,134.999995880127,0|8,1:0|1:0,0:0:0:0:
297,74,52024,1,2,1:0:0:0:
377,114,52332,2,0,L|389:172,1,44.999998626709,2|8,1:0|1:0,0:0:0:0:
425,181,52640,1,2,0:1:0:0:
425,181,52794,6,0,P|402:227|404:287,1,89.9999972534181,4|10,1:2|1:0,0:0:0:0:
421,304,53255,2,0,P|376:308|337:329,1,89.9999972534181,2|10,1:0|1:0,0:0:0:0:
307,363,53717,1,0,1:0:0:0:
307,363,53871,1,4,1:2:0:0:
231,313,54178,1,4,1:2:0:0:
231,313,54332,1,4,1:2:0:0:
316,75,55255,5,4,1:2:0:0:
226,32,55563,1,8,1:0:0:0:
140,83,55871,2,0,P|134:151|109:206,1,100,0|8,1:0|1:0,0:0:0:0:
87,216,56332,1,4,1:2:0:0:
130,306,56640,2,0,L|193:300,1,50,0|8,1:0|1:0,0:0:0:0:
214,264,56947,2,0,P|284:271|310:318,1,100,4|0,1:2|1:0,0:0:0:0:
398,329,57563,1,0,1:2:0:0:
398,329,57717,6,0,L|410:256,1,50,4|2,1:2|1:2,0:0:0:0:
445,248,58024,2,0,L|433:175,1,50,8|2,1:0|1:2,0:0:0:0:
395,169,58332,2,0,L|407:96,1,50,0|2,1:0|1:2,0:0:0:0:
345,37,58794,1,12,1:2:0:0:
273,105,59101,1,0,1:0:0:0:
172,106,59409,1,12,1:2:0:0:
86,64,59717,1,8,0:0:0:0:
86,64,59871,2,0,L|73:122,1,50,8|8,1:0|1:0,0:0:0:0:
40,149,60178,5,4,1:2:0:0:
117,211,60486,1,8,1:0:0:0:
206,163,60794,2,0,P|258:171|295:222,1,100,0|8,1:0|1:0,0:0:0:0:
316,244,61255,1,4,1:2:0:0:
258,326,61563,2,0,L|206:320,1,50,0|8,1:0|1:0,0:0:0:0:
167,290,61871,2,0,P|124:317|67:309,1,100,4|2,1:2|1:0,0:0:0:0:
40,279,62332,1,8,1:0:0:0:
26,179,62640,6,0,L|38:123,1,50,4|0,1:2|0:0,0:0:0:0:
51,82,62947,2,0,L|106:70,1,50,8|2,1:0|0:0,0:0:0:0:
149,61,63255,2,0,L|161:116,2,50,0|2|8,1:0|1:0|1:0,0:0:0:0:
186,27,63717,1,6,1:2:0:0:
259,94,64024,1,2,1:0:0:0:
259,94,64178,1,8,1:0:0:0:
220,186,64486,2,0,L|232:241,1,50,8|8,0:1|0:1,0:0:0:0:
207,280,64794,2,0,L|219:335,1,50,8|8,1:0|1:0,0:0:0:0:
259,355,65101,5,4,1:2:0:0:
333,288,65409,1,8,1:0:0:0:
405,356,65717,2,0,P|433:311|430:260,1,100,0|8,1:0|1:0,0:0:0:0:
405,222,66178,1,4,1:2:0:0:
461,140,66486,2,0,L|465:81,1,50,0|8,1:0|1:0,0:0:0:0:
432,52,66794,2,0,P|380:48|346:92,1,100,4|0,1:2|1:0,0:0:0:0:
342,130,67255,1,8,1:0:0:0:
285,211,67563,6,0,L|293:272,1,50,4|2,1:2|1:0,0:0:0:0:
256,296,67871,2,0,L|195:304,1,50,8|2,1:0|0:0,0:0:0:0:
170,267,68178,2,0,L|109:259,1,50,0|10,1:0|1:0,0:0:0:0:
36,203,68640,1,12,1:2:0:0:
61,106,68947,1,8,1:0:0:0:
158,85,69255,1,12,1:2:0:0:
243,138,69563,1,8,1:0:0:0:
243,138,69717,2,0,L|236:194,1,50,8|8,1:0|1:0,0:0:0:0:
224,235,70024,5,4,1:2:0:0:
304,294,70332,1,8,1:0:0:0:
395,253,70640,2,0,P|415:203|403:145,1,100,0|8,1:0|1:0,0:0:0:0:
375,122,71101,1,4,1:2:0:0:
292,65,71409,2,0,L|222:78,1,50,0|8,1:2|1:0,0:0:0:0:
204,106,71717,2,0,P|152:82|101:100,1,100,4|2,1:2|1:0,0:0:0:0:
75,123,72178,2,0,L|87:199,1,50,8|8,1:0|1:0,0:0:0:0:
114,211,72486,6,0,P|95:272|86:323,1,100,4|8,1:2|1:0,0:0:0:0:
178,351,73101,2,0,P|215:308|278:304,1,100,0|8,1:0|0:1,0:0:0:0:
302,317,73563,1,2,1:0:0:0:
302,317,73717,2,0,P|358:305|426:282,1,100,4|8,1:2|1:0,0:0:0:0:
446,307,74178,2,0,P|432:259|422:210,1,100,2|10,1:0|1:0,0:0:0:0:
441,163,74640,1,10,1:0:0:0:
392,86,74947,5,4,1:2:0:0:
256,192,75101,12,4,77409,1:2:0:0:
477,95,79885,6,0,P|417:69|370:62,1,89.9999972534181,4|8,1:2|1:0,0:0:0:0:
357,36,80346,2,0,P|299:50|276:101,1,89.9999972534181,2|2,0:0|1:0,0:0:0:0:
264,116,80808,1,8,1:0:0:0:
264,116,80961,1,4,1:2:0:0:
293,201,81269,2,0,L|284:258,1,44.999998626709,2|8,1:0|1:0,0:0:0:0:
260,282,81577,2,0,B|190:299|199:251|102:274,1,134.999995880127,4|8,1:2|1:0,0:0:0:0:
73,197,82346,6,0,L|-8:213,2,44.999998626709,4|0|8,1:2|1:0|1:0,0:0:0:0:
103,163,82808,2,0,L|184:179,2,44.999998626709,2|8|2,1:2|1:0|1:2,0:0:0:0:
75,127,83269,1,8,1:0:0:0:
75,127,83423,1,12,1:2:0:0:
109,43,83731,1,8,1:2:0:0:
198,31,84038,1,8,1:0:0:0:
262,93,84346,1,8,1:0:0:0:
262,93,84500,2,0,L|253:159,1,44.999998626709,2|0,1:0|1:0,0:0:0:0:
248,182,84808,5,4,1:2:0:0:
230,270,85115,2,0,P|295:280|335:303,1,89.9999972534181,8|0,1:0|1:0,0:0:0:0:
352,318,85577,1,2,1:0:0:0:
428,269,85885,2,0,P|456:225|452:179,1,89.9999972534181,4|2,1:2|1:0,0:0:0:0:
477,146,86346,1,8,1:1:0:0:
477,146,86500,2,0,P|452:99|411:80,1,89.9999972534181,4|2,1:2|1:2,0:0:0:0:
376,78,86961,1,8,1:1:0:0:
304,132,87269,5,4,1:2:0:0:
304,132,87423,2,0,L|311:185,2,44.999998626709,2|8|2,0:0|1:0|0:0,0:0:0:0:
264,110,87885,1,0,1:0:0:0:
264,110,88038,1,2,0:0:0:0:
182,149,88346,2,0,P|85:150|69:142,1,89.9999972534181,4|2,1:2|1:2,0:0:0:0:
65,117,88808,1,8,1:0:0:0:
9,187,89115,2,0,L|22:251,1,44.999998626709,8|2,1:0|1:0,0:0:0:0:
56,254,89423,2,0,L|69:318,1,44.999998626709,8|10,0:1|1:0,0:0:0:0:
109,323,89731,5,4,1:2:0:0:
109,323,89885,2,0,L|96:387,2,44.999998626709,2|8|2,0:0|1:0|0:0,0:0:0:0:
147,299,90346,2,0,L|155:254,1,44.999998626709,0|2,1:0|1:2,0:0:0:0:
200,176,90808,2,0,P|181:123|207:61,1,89.9999972534181,4|2,1:2|1:0,0:0:0:0:
220,60,91269,1,8,1:1:0:0:
220,60,91423,2,0,P|270:78|327:81,1,89.9999972534181,2|2,1:0|0:0,0:0:0:0:
385,39,92038,6,0,P|429:44|471:60,1,89.9999972534181,2|8,0:0|1:1,0:0:0:0:
494,99,92500,2,0,L|480:152,1,44.999998626709,10|10,1:0|0:1,0:0:0:0:
454,178,92808,1,2,1:0:0:0:
454,178,92961,1,10,1:1:0:0:
477,264,93269,1,8,1:0:0:0:
388,247,93577,1,8,0:0:0:0:
303,278,93885,1,8,0:0:0:0:
237,338,94192,1,8,0:0:0:0:
151,233,94654,6,0,B|168:193|163:146|163:146|192:111|192:111|189:65,1,179.999994506836,6|2,0:0|1:0,0:0:0:0:
182,20,95423,1,2,1:0:0:0:
92,25,95731,2,0,B|59:64|63:108,1,89.9999972534181,4|2,1:2|0:0,0:0:0:0:
80,149,96192,1,8,1:1:0:0:
65,237,96500,2,0,P|32:248|-5:257,2,67.4999979400635,2|2|10,1:0|1:0|1:0,0:0:0:0:
104,257,97115,6,0,L|168:270,1,44.999998626709,4|0,1:2|0:0,0:0:0:0:
193,271,97423,1,8,1:1:0:0:
268,319,97731,2,0,P|257:352|248:389,2,67.4999979400635,2|2|6,1:0|1:0|1:2,0:0:0:0:
339,264,98500,1,4,1:2:0:0:
339,264,98654,1,4,1:2:0:0:
418,304,98961,2,0,L|431:255,1,44.999998626709,8|10,0:1|0:1,0:0:0:0:
461,228,99269,2,0,L|474:179,1,44.999998626709,8|10,1:0|1:0,0:0:0:0:
436,148,99577,5,4,1:2:0:0:
475,55,99885,1,8,1:1:0:0:
391,1,100192,2,0,P|337:16|303:70,1,100,0|8,1:0|1:1,0:0:0:0:
270,81,100654,1,4,1:2:0:0:
319,167,100961,2,0,L|307:236,1,50,0|8,1:0|1:0,0:0:0:0:
344,253,101269,2,0,P|291:266|232:299,1,100,4|0,1:2|1:0,0:0:0:0:
207,312,101731,1,8,1:1:0:0:
111,281,102038,6,0,L|97:211,1,50,4|2,1:2|1:2,0:0:0:0:
65,196,102346,2,0,L|51:126,1,50,8|2,1:0|0:0,0:0:0:0:
90,111,102654,2,0,L|76:41,1,50,0|2,1:0|0:0,0:0:0:0:
168,14,103115,1,12,1:2:0:0:
215,101,103423,1,0,1:0:0:0:
302,149,103731,1,12,1:2:0:0:
398,123,104038,1,8,1:2:0:0:
398,123,104192,2,0,L|474:135,1,50,8|8,1:0|1:0,0:0:0:0:
496,141,104500,5,4,1:2:0:0:
509,240,104808,1,8,1:1:0:0:
424,293,105115,2,0,P|374:280|302:278,1,100,0|8,1:0|1:1,0:0:0:0:
276,286,105577,1,4,1:2:0:0:
223,201,105885,2,0,L|234:140,1,50,0|8,1:0|1:0,0:0:0:0:
262,111,106192,2,0,P|257:43|210:23,1,100,4|2,1:2|1:0,0:0:0:0:
184,25,106654,1,8,1:1:0:0:
98,76,106961,6,0,L|89:125,1,50,4|0,1:2|0:0,0:0:0:0:
75,173,107269,1,8,1:1:0:0:
133,254,107577,1,0,1:0:0:0:
133,254,107731,2,0,L|141:303,1,50,2|8,1:0|1:0,0:0:0:0:
182,332,108038,2,0,P|236:319|295:363,1,100,6|2,1:2|1:0,0:0:0:0:
310,372,108500,1,8,1:1:0:0:
398,324,108808,2,0,L|406:264,1,50,8|8,0:1|0:1,0:0:0:0:
443,243,109115,2,0,L|436:193,1,50,8|8,1:0|1:0,0:0:0:0:
461,149,109423,5,4,1:2:0:0:
365,118,109731,1,8,1:1:0:0:
307,199,110038,2,0,P|260:216|211:207,1,100,0|8,1:0|1:1,0:0:0:0:
164,190,110500,1,4,1:2:0:0:
71,228,110808,2,0,L|58:162,1,50,0|8,1:0|1:0,0:0:0:0:
27,142,111115,2,0,P|51:90|60:23,1,100,4|0,1:2|1:0,0:0:0:0:
100,19,111577,1,8,1:1:0:0:
169,90,111885,6,0,P|226:78|267:24,1,100,4|0,1:2|1:0,0:0:0:0:
280,6,112346,1,2,0:0:0:0:
365,58,112654,2,0,L|433:52,1,50,10|0,1:0|1:0,0:0:0:0:
464,48,112961,1,12,1:2:0:0:
493,143,113269,1,0,1:0:0:0:
422,213,113577,1,12,1:2:0:0:
451,308,113885,1,8,0:0:0:0:
451,308,114038,2,0,L|378:298,1,50,0|8,1:0|1:0,0:0:0:0:
352,314,114346,5,4,1:2:0:0:
267,260,114654,1,8,1:1:0:0:
309,169,114961,2,0,P|304:100|276:51,1,100,0|8,1:0|1:1,0:0:0:0:
248,46,115423,1,4,1:2:0:0:
147,44,115731,2,0,L|86:65,1,50,0|8,1:0|1:0,0:0:0:0:
51,47,116038,2,0,P|74:123|72:185,1,100,4|2,1:2|1:0,0:0:0:0:
48,185,116500,1,8,1:1:0:0:
48,185,116654,6,0,B|122:179|110:229|201:236,1,150,8|10,1:2|1:0,0:0:0:0:
229,209,117269,1,2,0:0:0:0:
289,288,117577,2,0,L|362:302,1,50,2|8,1:1|1:0,0:0:0:0:
387,305,117885,1,4,1:2:0:0:
387,305,118038,1,0,0:0:0:0:
256,192,118192,12,2,120038,0:0:0:0:
