osu file format v14

[General]
AudioFilename: audio.mp3
AudioLeadIn: 0
PreviewTime: 54947
Countdown: 0
SampleSet: Soft
StackLeniency: 0.1
Mode: 0
LetterboxInBreaks: 0
WidescreenStoryboard: 0

[Editor]
DistanceSpacing: 1.1
BeatDivisor: 4
GridSize: 4
TimelineZoom: 2.1

[Metadata]
Title:Sugar Coaster Girl
TitleUnicode:Sugar Coaster Girl
Artist:Citrus and Ocean Colour
ArtistUnicode:Citrus and Ocean Colour
Creator:Enon
Version:Hello! and say Good-bye!
Source:pop'n music éclale
Tags:eclale popn lively rock japanese video game pop Tachinon TEA tell Suetsugu Kanon RIE♥chan Cycopton Wanpachi laplus asapbakery ChocoMochi silverin0 seegiirino Down ポップンミュジック エクラル bemani komani
BeatmapID:3632777
BeatmapSetID:1774229

[Difficulty]
HPDrainRate:6
CircleSize:3.2
OverallDifficulty:9
ApproachRate:9.6
SliderMultiplier:2.2
SliderTickRate:1

[Events]
//Background and Video events
0,0,"Background.jpg",0,0
//Break Periods
//Storyboard Layer 0 (Background)
//Storyboard Layer 1 (Fail)
//Storyboard Layer 2 (Pass)
//Storyboard Layer 3 (Foreground)
//Storyboard Layer 4 (Overlay)
//Storyboard Sound Samples

[TimingPoints]
-129,307.692307692308,4,2,1,80,1,0
0,-200,4,2,1,80,0,0
1101,-125,4,2,1,80,0,0
2178,-100,4,2,1,80,0,0
3563,-125,4,2,1,80,0,0
4640,-100,4,2,1,80,0,0
6024,-125,4,2,1,80,0,0
8332,-100,4,2,1,80,0,0
9563,-83.3333333333333,4,2,1,80,0,0
11178,-83.3333333333333,4,2,1,5,0,0
11255,-83.3333333333333,4,2,1,80,0,0
11332,-83.3333333333333,4,2,1,5,0,0
11409,-83.3333333333333,4,2,1,80,0,0
11640,-83.3333333333333,4,2,1,5,0,0
11717,-83.3333333333333,4,2,1,80,0,0
11947,-83.3333333333333,4,2,1,5,0,0
12024,-83.3333333333333,4,2,1,80,0,0
12640,-66.6666666666667,4,2,1,80,0,0
14486,-100,4,2,1,80,0,0
14717,-100,4,2,1,5,0,0
14794,-100,4,2,1,80,0,0
15024,-100,4,2,1,5,0,0
15101,-100,4,2,1,80,0,0
15332,-100,4,2,1,5,0,0
15409,-100,4,2,1,80,0,0
15486,-100,4,2,1,5,0,0
15563,-100,4,2,1,80,0,0
15717,-83.3333333333333,4,2,1,80,0,0
16101,-83.3333333333333,4,2,1,5,0,0
16178,-83.3333333333333,4,2,1,80,0,0
16409,-83.3333333333333,4,2,1,5,0,0
16486,-83.3333333333333,4,2,1,80,0,0
17178,-83.3333333333333,4,2,1,5,0,0
17255,-83.3333333333333,4,2,1,80,0,0
17332,-83.3333333333333,4,2,1,5,0,0
17409,-83.3333333333333,4,2,1,80,0,0
19640,-83.3333333333333,4,2,1,5,0,0
19717,-83.3333333333333,4,2,1,80,0,0
19794,-83.3333333333333,4,2,1,5,0,0
19871,-83.3333333333333,4,2,1,80,0,0
20794,-90.9090909090909,4,2,1,70,0,0
21024,-90.9090909090909,4,2,1,5,0,0
21101,-90.9090909090909,4,2,1,70,0,0
21332,-90.9090909090909,4,2,1,5,0,0
21409,-90.9090909090909,4,2,1,70,0,0
22101,-90.9090909090909,4,2,1,5,0,0
22178,-90.9090909090909,4,2,1,70,0,0
22717,-90.9090909090909,4,2,1,5,0,0
22794,-90.9090909090909,4,2,1,70,0,0
22871,-90.9090909090909,4,2,1,5,0,0
22947,-90.9090909090909,4,2,1,70,0,0
23486,-90.9090909090909,4,2,1,5,0,0
23563,-90.9090909090909,4,2,1,70,0,0
24563,-90.9090909090909,4,2,1,5,0,0
24640,-90.9090909090909,4,2,1,70,0,0
24717,-90.9090909090909,4,2,1,5,0,0
24794,-90.9090909090909,4,2,1,70,0,0
25563,-66.6666666666667,4,2,1,70,0,0
25794,-66.6666666666667,4,2,1,5,0,0
25871,-66.6666666666667,4,2,1,70,0,0
25947,-66.6666666666667,4,2,1,5,0,0
26024,-66.6666666666667,4,2,1,70,0,0
26101,-66.6666666666667,4,2,1,5,0,0
26178,-66.6666666666667,4,2,1,70,0,0
26409,-66.6666666666667,4,2,1,5,0,0
26486,-66.6666666666667,4,2,1,70,0,0
26563,-66.6666666666667,4,2,1,5,0,0
26640,-66.6666666666667,4,2,1,70,0,0
27024,-66.6666666666667,4,2,1,5,0,0
27101,-66.6666666666667,4,2,1,70,0,0
27178,-66.6666666666667,4,2,1,5,0,0
27255,-66.6666666666667,4,2,1,70,0,0
27332,-66.6666666666667,4,2,1,5,0,0
27409,-66.6666666666667,4,2,1,70,0,0
27640,-66.6666666666667,4,2,1,5,0,0
27717,-66.6666666666667,4,2,1,70,0,0
28178,-90.9090909090909,4,2,1,70,0,0
29486,-90.9090909090909,4,2,1,5,0,0
29563,-90.9090909090909,4,2,1,70,0,0
29717,-90.9090909090909,4,2,1,70,0,0
30101,-90.9090909090909,4,2,1,5,0,0
30178,-90.9090909090909,4,2,1,70,0,0
30255,-90.9090909090909,4,2,1,5,0,0
30332,-90.9090909090909,4,2,1,70,0,0
30871,-90.9090909090909,4,2,1,5,0,0
30947,-90.9090909090909,4,2,1,70,0,0
31947,-90.9090909090909,4,2,1,5,0,0
32024,-90.9090909090909,4,2,1,70,0,0
32101,-90.9090909090909,4,2,1,5,0,0
32178,-90.9090909090909,4,2,1,70,0,0
32947,-66.6666666666667,4,2,1,70,0,0
33178,-66.6666666666667,4,2,1,5,0,0
33255,-66.6666666666667,4,2,1,70,0,0
33332,-66.6666666666667,4,2,1,5,0,0
33409,-66.6666666666667,4,2,1,70,0,0
33486,-66.6666666666667,4,2,1,5,0,0
33563,-66.6666666666667,4,2,1,70,0,0
33794,-66.6666666666667,4,2,1,5,0,0
33871,-66.6666666666667,4,2,1,70,0,0
33947,-66.6666666666667,4,2,1,5,0,0
34024,-66.6666666666667,4,2,1,70,0,0
34409,-66.6666666666667,4,2,1,5,0,0
34486,-66.6666666666667,4,2,1,70,0,0
34563,-66.6666666666667,4,2,1,5,0,0
34640,-66.6666666666667,4,2,1,70,0,0
35563,-90.9090909090909,4,2,1,70,0,0
36871,-90.9090909090909,4,2,1,5,0,0
36947,-90.9090909090909,4,2,1,70,0,0
37024,-90.9090909090909,4,2,1,5,0,0
37101,-90.9090909090909,4,2,1,70,0,0
37486,-90.9090909090909,4,2,1,5,0,0
37563,-90.9090909090909,4,2,1,70,0,0
37640,-90.9090909090909,4,2,1,5,0,0
37717,-90.9090909090909,4,2,1,70,0,0
37871,-83.3333333333333,4,2,1,70,0,0
38101,-83.3333333333333,4,2,1,5,0,0
38178,-83.3333333333333,4,2,1,70,0,0
38255,-83.3333333333333,4,2,1,5,0,0
38332,-83.3333333333333,4,2,1,70,0,0
39332,-83.3333333333333,4,2,1,5,0,0
39409,-83.3333333333333,4,2,1,70,0,0
39486,-83.3333333333333,4,2,1,5,0,0
39563,-83.3333333333333,4,2,1,70,0,0
40486,-90.9090909090909,4,2,1,70,0,0
41794,-90.9090909090909,4,2,1,5,0,0
41871,-90.9090909090909,4,2,1,70,0,0
41947,-90.9090909090909,4,2,1,5,0,0
42024,-90.9090909090909,4,2,1,70,0,0
42409,-90.9090909090909,4,2,1,5,0,0
42486,-90.9090909090909,4,2,1,70,0,0
42563,-90.9090909090909,4,2,1,5,0,0
42640,-90.9090909090909,4,2,1,70,0,0
42794,-83.3333333333333,4,2,1,70,0,0
44255,-83.3333333333333,4,2,1,5,0,0
44332,-83.3333333333333,4,2,1,70,0,0
44409,-83.3333333333333,4,2,1,5,0,0
44486,-83.3333333333333,4,2,1,70,0,0
45409,-90.9090909090909,4,2,1,70,0,0
45640,-90.9090909090909,4,2,1,5,0,0
45717,-90.9090909090909,4,2,1,70,0,0
45947,-90.9090909090909,4,2,1,5,0,0
46024,-90.9090909090909,4,2,1,70,0,0
46717,-90.9090909090909,4,2,1,5,0,0
46794,-90.9090909090909,4,2,1,70,0,0
46871,-90.9090909090909,4,2,1,5,0,0
46947,-90.9090909090909,4,2,1,70,0,0
47332,-90.9090909090909,4,2,1,5,0,0
47409,-90.9090909090909,4,2,1,70,0,0
47486,-90.9090909090909,4,2,1,5,0,0
47563,-90.9090909090909,4,2,1,70,0,0
47871,-83.3333333333333,4,2,1,70,0,0
48101,-83.3333333333333,4,2,1,5,0,0
48178,-83.3333333333333,4,2,1,70,0,0
48255,-83.3333333333333,4,2,1,5,0,0
48332,-83.3333333333333,4,2,1,70,0,0
49178,-83.3333333333333,4,2,1,5,0,0
49255,-83.3333333333333,4,2,1,70,0,0
49332,-83.3333333333333,4,2,1,5,0,0
49409,-83.3333333333333,4,2,1,70,0,0
50332,-90.9090909090909,4,2,1,70,0,0
50563,-90.9090909090909,4,2,1,5,0,0
50640,-90.9090909090909,4,2,1,70,0,0
50871,-90.9090909090909,4,2,1,5,0,0
50947,-90.9090909090909,4,2,1,70,0,0
54101,-90.9090909090909,4,2,1,5,0,0
54178,-90.9090909090909,4,2,1,70,0,0
54255,-90.9090909090909,4,2,1,5,0,0
54332,-90.9090909090909,4,2,1,70,0,0
54947,-200,4,2,1,70,0,0
55178,-200,4,2,1,5,0,0
55255,-83.3333333333333,4,2,1,100,0,1
56563,-83.3333333333333,4,2,1,5,0,1
56640,-83.3333333333333,4,2,1,100,0,1
56717,-83.3333333333333,4,2,1,5,0,1
56794,-83.3333333333333,4,2,1,100,0,1
57178,-83.3333333333333,4,2,1,5,0,1
57255,-83.3333333333333,4,2,1,100,0,1
57332,-83.3333333333333,4,2,1,5,0,1
57409,-83.3333333333333,4,2,1,100,0,1
59024,-83.3333333333333,4,2,1,5,0,1
59101,-83.3333333333333,4,2,1,100,0,1
59178,-83.3333333333333,4,2,1,5,0,1
59255,-83.3333333333333,4,2,1,100,0,1
61486,-83.3333333333333,4,2,1,5,0,1
61563,-83.3333333333333,4,2,1,100,0,1
61640,-83.3333333333333,4,2,1,5,0,1
61717,-83.3333333333333,4,2,1,100,0,1
62332,-62.5,4,2,1,100,0,1
62563,-62.5,4,2,1,5,0,1
62640,-83.3333333333333,4,2,1,100,0,1
62871,-83.3333333333333,4,2,1,5,0,1
62947,-83.3333333333333,4,2,1,100,0,1
66409,-83.3333333333333,4,2,1,5,0,1
66486,-83.3333333333333,4,2,1,100,0,1
66563,-83.3333333333333,4,2,1,5,0,1
66640,-83.3333333333333,4,2,1,100,0,1
67024,-83.3333333333333,4,2,1,5,0,1
67101,-83.3333333333333,4,2,1,100,0,1
67178,-83.3333333333333,4,2,1,5,0,1
67255,-83.3333333333333,4,2,1,100,0,1
68563,-83.3333333333333,4,2,1,5,0,1
68640,-83.3333333333333,4,2,1,100,0,1
68871,-83.3333333333333,4,2,1,5,0,1
68947,-83.3333333333333,4,2,1,100,0,1
69024,-83.3333333333333,4,2,1,5,0,1
69101,-83.3333333333333,4,2,1,100,0,1
71332,-83.3333333333333,4,2,1,5,0,1
71409,-83.3333333333333,4,2,1,100,0,1
71640,-83.3333333333333,4,2,1,5,0,1
71717,-83.3333333333333,4,2,1,100,0,1
71794,-83.3333333333333,4,2,1,5,0,1
71871,-83.3333333333333,4,2,1,100,0,1
72024,-50,4,2,1,100,0,1
72101,-50,4,2,1,5,0,1
72178,-50,4,2,1,100,0,1
72255,-50,4,2,1,5,0,1
72332,-50,4,2,1,100,0,1
72486,-83.3333333333333,4,2,1,100,0,1
74947,-200,4,2,1,80,0,0
76717,-200,4,2,1,5,0,0
76794,-200,4,2,1,80,0,0
77409,-142.857142857143,4,2,1,80,0,0
79255,-66.6666666666667,4,2,1,80,0,0
79332,-66.6666666666667,4,2,1,5,0,0
79409,-66.6666666666667,4,2,1,80,0,0
79486,-66.6666666666667,4,2,1,5,0,0
79563,-50,4,2,1,80,0,0
79640,-50,4,2,1,5,0,0
79717,-50,4,2,1,80,0,0
79794,-50,4,2,1,5,0,0
79885,307.692307692308,4,2,1,80,1,0
79885,-71.4285714285714,4,2,1,80,0,0
80115,-71.4285714285714,4,2,1,5,0,0
80192,-83.3333333333333,4,2,1,80,0,0
80269,-83.3333333333333,4,2,1,5,0,0
80346,-71.4285714285714,4,2,1,80,0,0
80577,-71.4285714285714,4,2,1,5,0,0
80654,-83.3333333333333,4,2,1,80,0,0
80731,-83.3333333333333,4,2,1,5,0,0
80808,-83.3333333333333,4,2,1,80,0,0
80885,-83.3333333333333,4,2,1,5,0,0
80961,-71.4285714285714,4,2,1,80,0,0
81192,-71.4285714285714,4,2,1,5,0,0
81269,-83.3333333333333,4,2,1,80,0,0
81346,-83.3333333333333,4,2,1,5,0,0
81423,-83.3333333333333,4,2,1,80,0,0
81500,-83.3333333333333,4,2,1,5,0,0
81577,-71.4285714285714,4,2,1,80,0,0
82346,-90.9090909090909,4,2,1,80,0,0
82423,-90.9090909090909,4,2,1,5,0,0
82500,-90.9090909090909,4,2,1,80,0,0
82577,-90.9090909090909,4,2,1,5,0,0
82654,-90.9090909090909,4,2,1,80,0,0
82731,-90.9090909090909,4,2,1,5,0,0
82808,-90.9090909090909,4,2,1,80,0,0
82885,-90.9090909090909,4,2,1,5,0,0
82961,-90.9090909090909,4,2,1,80,0,0
83038,-90.9090909090909,4,2,1,5,0,0
83115,-90.9090909090909,4,2,1,80,0,0
83192,-90.9090909090909,4,2,1,5,0,0
83269,-90.9090909090909,4,2,1,80,0,0
83346,-90.9090909090909,4,2,1,5,0,0
83423,-71.4285714285714,4,2,1,80,0,0
84577,-71.4285714285714,4,2,1,5,0,0
84654,-71.4285714285714,4,2,1,80,0,0
84731,-71.4285714285714,4,2,1,5,0,0
84808,-71.4285714285714,4,2,1,80,0,0
85038,-71.4285714285714,4,2,1,5,0,0
85115,-71.4285714285714,4,2,1,80,0,0
85346,-71.4285714285714,4,2,1,5,0,0
85423,-71.4285714285714,4,2,1,80,0,0
85500,-71.4285714285714,4,2,1,5,0,0
85577,-71.4285714285714,4,2,1,80,0,0
85654,-71.4285714285714,4,2,1,5,0,0
85731,-71.4285714285714,4,2,1,80,0,0
86115,-71.4285714285714,4,2,1,5,0,0
86192,-71.4285714285714,4,2,1,80,0,0
86269,-71.4285714285714,4,2,1,5,0,0
86346,-71.4285714285714,4,2,1,80,0,0
86500,-66.6666666666667,4,2,1,80,0,0
86577,-66.6666666666667,4,2,1,5,0,0
86654,-66.6666666666667,4,2,1,80,0,0
86731,-66.6666666666667,4,2,1,5,0,0
86808,-66.6666666666667,4,2,1,80,0,0
86885,-66.6666666666667,4,2,1,5,0,0
86961,-66.6666666666667,4,2,1,80,0,0
87038,-66.6666666666667,4,2,1,5,0,0
87115,-66.6666666666667,4,2,1,80,0,0
87192,-66.6666666666667,4,2,1,5,0,0
87269,-90.9090909090909,4,2,1,80,0,0
87961,-90.9090909090909,4,2,1,5,0,0
88038,-90.9090909090909,4,2,1,80,0,0
88115,-90.9090909090909,4,2,1,5,0,0
88192,-90.9090909090909,4,2,1,80,0,0
89115,-76.9230769230769,4,2,1,80,0,0
89731,-90.9090909090909,4,2,1,80,0,0
91038,-90.9090909090909,4,2,1,5,0,0
91115,-90.9090909090909,4,2,1,80,0,0
91192,-90.9090909090909,4,2,1,5,0,0
91269,-90.9090909090909,4,2,1,80,0,0
91654,-90.9090909090909,4,2,1,5,0,0
91731,-90.9090909090909,4,2,1,80,0,0
91808,-90.9090909090909,4,2,1,5,0,0
91885,-90.9090909090909,4,2,1,80,0,0
93192,-90.9090909090909,4,2,1,5,0,0
93269,-76.9230769230769,4,2,1,80,0,0
94654,-90.9090909090909,4,2,1,80,0,0
95961,-90.9090909090909,4,2,1,5,0,0
96038,-90.9090909090909,4,2,1,80,0,0
96269,-90.9090909090909,4,2,1,5,0,0
96346,-90.9090909090909,4,2,1,80,0,0
96423,-90.9090909090909,4,2,1,5,0,0
96500,-90.9090909090909,4,2,1,80,0,0
97346,-90.9090909090909,4,2,0,80,0,0
97423,-90.9090909090909,4,2,1,80,0,0
98885,-90.9090909090909,4,2,1,5,0,0
98961,-90.9090909090909,4,2,1,80,0,0
99577,-83.3333333333333,4,2,1,100,0,1
99808,-83.3333333333333,4,2,1,5,0,1
99885,-83.3333333333333,4,2,1,100,0,1
100115,-83.3333333333333,4,2,1,5,0,1
100192,-83.3333333333333,4,2,1,100,0,1
100885,-83.3333333333333,4,2,1,5,0,1
100961,-83.3333333333333,4,2,1,100,0,1
101038,-83.3333333333333,4,2,1,5,0,1
101115,-83.3333333333333,4,2,1,100,0,1
101500,-83.3333333333333,4,2,1,5,0,1
101577,-83.3333333333333,4,2,1,100,0,1
101654,-83.3333333333333,4,2,1,5,0,1
101731,-83.3333333333333,4,2,1,100,0,1
103346,-83.3333333333333,4,2,1,5,0,1
103423,-83.3333333333333,4,2,1,100,0,1
103500,-83.3333333333333,4,2,1,5,0,1
103577,-83.3333333333333,4,2,1,100,0,1
105808,-83.3333333333333,4,2,1,5,0,1
105885,-83.3333333333333,4,2,1,100,0,1
105961,-83.3333333333333,4,2,1,5,0,1
106038,-83.3333333333333,4,2,1,100,0,1
106654,-62.5,4,2,1,100,0,1
106885,-62.5,4,2,1,5,0,1
106961,-83.3333333333333,4,2,1,100,0,1
107192,-83.3333333333333,4,2,1,5,0,1
107269,-83.3333333333333,4,2,1,100,0,1
110731,-83.3333333333333,4,2,1,5,0,1
110808,-83.3333333333333,4,2,1,100,0,1
110885,-83.3333333333333,4,2,1,5,0,1
110961,-83.3333333333333,4,2,1,100,0,1
111346,-83.3333333333333,4,2,1,5,0,1
111423,-83.3333333333333,4,2,1,100,0,1
111500,-83.3333333333333,4,2,1,5,0,1
111577,-83.3333333333333,4,2,1,100,0,1
112885,-83.3333333333333,4,2,1,5,0,1
112961,-83.3333333333333,4,2,1,100,0,1
113192,-83.3333333333333,4,2,1,5,0,1
113269,-83.3333333333333,4,2,1,100,0,1
113346,-83.3333333333333,4,2,1,5,0,1
113423,-83.3333333333333,4,2,1,100,0,1
114731,-83.3333333333333,4,2,1,5,0,1
114808,-83.3333333333333,4,2,1,100,0,1
115654,-83.3333333333333,4,2,1,5,0,1
115731,-83.3333333333333,4,2,1,100,0,1
115961,-83.3333333333333,4,2,1,5,0,1
116038,-83.3333333333333,4,2,1,100,0,1
116115,-83.3333333333333,4,2,1,5,0,1
116192,-83.3333333333333,4,2,1,100,0,1
116346,-50,4,2,1,100,0,1
116423,-50,4,2,1,5,0,1
116500,-50,4,2,1,100,0,1
116577,-50,4,2,1,5,0,1
116654,-50,4,2,1,100,0,1
116808,-83.3333333333333,4,2,1,100,0,1
118038,-100,4,2,1,80,0,0
120038,-100,4,2,1,40,0,0

[Colours]
Combo1 : 17,254,176
Combo2 : 173,255,95
Combo3 : 255,88,100
Combo4 : 255,94,55

[HitObjects]
228,17,1101,6,0,P|216:105|200:191,1,176,4|0,1:2|1:0,0:0:0:0:
283,366,1563,2,0,P|295:278|311:192,1,176
374,133,2024,1,0,1:0:0:0:
138,251,2178,6,0,P|102:148|61:44,1,220,8|0,2:1|0:0,0:0:0:0:
127,0,2640,1,0,1:0:0:0:
374,133,2794,2,0,P|410:236|451:340,1,220,8|0,2:1|0:0,0:0:0:0:
385,384,3255,1,0,1:0:0:0:
316,344,3409,1,8,2:1:0:0:
311,331,3486,1,8,2:1:0:0:
307,319,3563,5,4,1:2:0:0:
204,64,3871,1,0,1:0:0:0:
391,211,4178,1,0,1:0:0:0:
120,172,4332,1,0,0:0:0:0:
340,84,4486,1,0,1:0:0:0:
171,298,4640,6,0,P|116:292|61:287,1,110,8|0,2:1|1:0,0:0:0:0:
340,84,4947,2,0,P|394:90|449:95,1,110,0|0,0:0|1:0,0:0:0:0:
402,13,5255,1,8,2:1:0:0:
474,217,5409,1,0,1:0:0:0:
419,210,5486,1,8,0:1:0:0:
364,204,5563,1,8,2:1:0:0:
310,198,5640,1,8,2:1:0:0:
255,192,5717,1,2,1:0:0:0:
200,186,5794,1,8,1:0:0:0:
145,181,5871,1,8,0:1:0:0:
91,175,5947,1,8,0:1:0:0:
36,170,6024,6,0,P|42:116|47:61,1,88,4|0,1:2|0:0,0:0:0:0:
0,8,6332,1,0,1:0:0:0:
45,82,6486,1,0,1:0:0:0:
119,37,6640,1,0,1:0:0:0:
164,111,6794,1,0,1:0:0:0:
238,66,6947,1,0,1:0:0:0:
283,140,7101,1,0,1:0:0:0:
281,148,7178,1,0,1:0:0:0:
280,157,7255,5,0,1:0:0:0:
382,133,7409,1,2,1:0:0:0:
406,235,7563,1,0,1:0:0:0:
304,259,7717,1,2,1:0:0:0:
214,224,7871,5,2,1:0:0:0:
451,382,8024,1,2,1:0:0:0:
470,98,8178,1,2,1:0:0:0:
281,40,8332,6,0,P|292:149|303:258,1,220,4|0,1:2|1:0,0:0:0:0:
377,322,8794,1,0,1:0:0:0:
46,279,8947,2,0,P|41:224|35:169,1,110,8|0,1:0|1:0,0:0:0:0:
149,7,9255,1,10,1:0:0:0:
281,40,9409,1,8,1:0:0:0:
186,137,9563,1,10,1:0:0:0:
0,0,9717,5,4,1:2:0:0:
47,66,9871,1,10,1:0:0:0:
46,74,9947,1,8,1:0:0:0:
45,82,10024,1,8,1:0:0:0:
193,282,10178,1,10,1:0:0:0:
194,274,10255,1,8,1:0:0:0:
195,265,10332,5,8,2:1:0:0:
206,202,10409,1,8,2:1:0:0:
169,150,10486,1,10,2:1:0:0:
106,140,10563,1,8,2:1:0:0:
54,178,10640,2,0,P|57:210|60:243,1,65.9999979858399,8|8,2:1|2:1,0:0:0:0:
268,384,10794,2,0,P|264:351|261:318,1,65.9999979858399,10|8,2:1|2:1,0:0:0:0:
193,282,10947,6,0,B|250:294|275:243|275:243|300:193|357:205,1,197.99999395752,6|0,1:2|0:0,0:0:0:0:
423,167,11255,2,0,B|469:197|422:225,1,65.9999979858399,8|0,2:1|0:0,0:0:0:0:
357,205,11409,2,0,P|371:120|382:6,1,197.99999395752,2|0,0:0|0:0,0:0:0:0:
505,182,11717,2,0,P|490:266|479:380,1,197.99999395752,2|0,1:0|0:0,0:0:0:0:
193,282,12024,6,0,P|327:294|460:316,2,263.99999194336,4|2|4,1:2|1:0|1:2,0:0:0:0:
0,270,12947,1,2,0:0:0:0:
206,202,13101,1,8,2:1:0:0:
45,58,13255,1,2,0:0:0:0:
44,66,13332,1,8,1:0:0:0:
43,74,13409,5,4,1:2:0:0:
106,140,13563,1,2,0:0:0:0:
35,200,13717,2,0,P|46:281|53:363,1,165.000006294251,8|2,1:0|0:0,0:0:0:0:
268,268,14024,1,2,1:0:0:0:
206,202,14178,1,2,1:2:0:0:
277,142,14332,2,0,P|271:101|267:60,1,82.5000031471254,10|0,1:0|0:0,0:0:0:0:
267,60,14486,6,0,P|185:72|103:81,1,165,12|0,0:0|0:0,0:0:0:0:
268,268,14794,2,0,P|350:256|432:247,1,165,12|0,0:0|0:0,0:0:0:0:
163,164,15101,2,0,P|175:246|184:328,1,165,12|0,0:0|0:0,0:0:0:0:
371,163,15409,2,0,P|365:122|360:81,1,55,12|0,0:0|0:0,0:0:0:0:
404,42,15563,1,8,1:0:0:0:
277,142,15717,1,0,1:0:0:0:
278,148,15794,1,0,1:0:0:0:
279,155,15871,6,0,P|377:140|476:129,1,197.99999395752,4|0,1:2|0:0,0:0:0:0:
267,60,16178,2,0,P|168:74|69:85,1,197.99999395752,8|0,2:1|0:0,0:0:0:0:
29,12,16486,1,0,1:0:0:0:
163,164,16640,1,2,0:0:0:0:
11,298,16794,1,8,2:1:0:0:
70,85,16947,6,0,P|86:182|95:281,1,197.99999395752,4|0,0:0|0:0,0:0:0:0:
165,384,17255,2,0,P|169:351|191:319,1,65.9999979858399,0|0,1:0|0:0,0:0:0:0:
173,245,17409,1,10,1:0:0:0:
70,85,17563,6,0,B|143:111|186:49|186:49|229:-13|303:12,1,263.99999194336,4|0,1:0|1:0,0:0:0:0:
333,84,18024,1,8,0:1:0:0:
506,53,18178,1,2,0:0:0:0:
509,40,18255,1,8,0:1:0:0:
512,28,18332,5,4,0:0:0:0:
277,147,18486,1,2,1:2:0:0:
396,382,18640,1,8,0:1:0:0:
450,327,18794,6,0,P|455:261|466:196,1,131.99999597168,2|8,1:2|0:1,0:0:0:0:
460,187,19024,1,0,1:0:0:0:
455,179,19101,1,8,1:0:0:0:
269,229,19255,1,8,0:1:0:0:
219,43,19409,6,0,P|316:60|415:69,1,197.99999395752,6|0,1:2|0:0,0:0:0:0:
342,157,19717,2,0,P|293:148|243:143,1,65.9999979858399,4|0,1:2|0:0,0:0:0:0:
317,104,19871,1,4,1:2:0:0:
464,249,20332,5,8,0:1:0:0:
461,262,20409,1,8,0:1:0:0:
458,274,20486,1,8,0:1:0:0:
456,287,20563,1,8,0:1:0:0:
454,300,20640,1,8,0:1:0:0:
452,313,20717,1,8,0:1:0:0:
450,327,20794,6,0,P|353:310|254:301,1,181.500005538941,4|0,1:2|0:0,0:0:0:0:
162,131,21101,2,0,P|259:148|358:157,1,181.500005538941,8|0,0:1|0:0,0:0:0:0:
388,222,21409,1,0,1:0:0:0:
210,349,21563,2,0,P|149:356|90:366,1,121.000003692627,0|8,1:0|0:1,0:0:0:0:
0,100,21871,6,0,P|17:197|26:296,1,181.500005538941,0|0,1:0|0:0,0:0:0:0:
7,359,22178,1,0,1:0:0:0:
113,279,22332,1,8,0:1:0:0:
210,349,22486,6,0,P|194:259|184:169,1,181.500005538941,2|0,0:0|0:0,0:0:0:0:
92,131,22794,2,0,P|99:175|104:220,1,60.5000018463135,0|0,1:0|0:0,0:0:0:0:
184,169,22947,1,8,0:1:0:0:
222,77,23101,1,2,0:0:0:0:
130,39,23255,6,0,P|220:29|309:13,1,181.500005538941,0|0,1:0|0:0,0:0:0:0:
309,13,23563,2,0,P|315:80|327:147,1,121.000003692627,8|0,0:1|0:0,0:0:0:0:
279,208,23871,1,0,1:0:0:0:
443,162,24024,1,0,1:0:0:0:
489,326,24178,1,8,0:1:0:0:
325,372,24332,6,0,P|235:355|145:343,1,181.500005538941,2|0,1:0|0:0,0:0:0:0:
145,343,24640,2,0,P|153:298|159:253,1,60.5000018463135,8|0,0:0|0:0,0:0:0:0:
197,216,24794,5,8,0:1:0:0:
41,257,24947,1,8,1:2:0:0:
0,101,25101,1,8,1:0:0:0:
156,60,25255,1,2,0:1:0:0:
153,71,25332,1,2,1:0:0:0:
151,83,25409,1,10,1:0:0:0:
149,95,25486,1,0,1:0:0:0:
147,107,25563,6,0,B|214:130|253:71|253:71|292:12|361:36,1,247.500009441376,4|0,1:2|0:0,0:0:0:0:
445,28,25871,2,0,B|448:50|467:65|467:65|445:63|431:81,1,82.5000031471254,2|0,1:1|0:0,0:0:0:0:
301,161,26024,2,0,B|297:138|278:123|278:123|300:125|314:107,1,82.5000031471254,8|0,1:0|0:0,0:0:0:0:
361,36,26178,6,0,P|377:161|388:294,1,247.500009441376,4|0,1:2|0:0,0:0:0:0:
464,384,26486,2,0,P|468:347|498:297,1,82.5000031471254,2|0,1:1|0:0,0:0:0:0:
463,231,26640,1,8,1:0:0:0:
268,321,26794,6,0,B|201:344|162:285|162:285|123:226|54:250,1,247.500009441376,4|0,1:2|0:0,0:0:0:0:
27,129,27101,2,0,B|14:144|-7:142|-7:142|11:157|14:179,1,82.5000031471254,2|0,1:1|0:0,0:0:0:0:
122,284,27255,2,0,B|134:268|156:270|156:270|137:255|134:233,1,82.5000031471254,8|0,1:0|0:0,0:0:0:0:
52,250,27409,6,0,P|42:104|36:0,1,247.500009441376,4|0,1:2|0:0,0:0:0:0:
36,3,27717,1,2,1:0:0:0:
307,56,27871,1,8,0:1:0:0:
301,61,27947,1,0,1:0:0:0:
295,67,28024,1,2,1:0:0:0:
289,73,28101,1,8,1:0:0:0:
283,79,28178,6,0,P|275:202|267:325,1,242.000007385254,4|8,1:2|0:1,0:0:0:0:
267,320,28794,1,0,1:0:0:0:
445,369,28947,1,0,1:0:0:0:
494,191,29101,1,8,1:0:0:0:
316,142,29255,6,0,P|225:150|135:156,1,181.500005538941,0|0,1:0|0:0,0:0:0:0:
208,245,29563,2,0,P|253:240|298:237,1,60.5000018463135,0|0,1:0|0:0,0:0:0:0:
235,189,29717,1,8,0:1:0:0:
0,82,29871,6,0,P|43:160|59:250,1,181.500005538941,0|0,0:0|0:0,0:0:0:0:
86,364,30178,2,0,P|95:334|118:311,1,60.5000018463135,0|0,1:0|0:0,0:0:0:0:
139,237,30332,1,8,0:1:0:0:
311,350,30486,1,2,0:0:0:0:
316,142,30640,6,0,P|406:133|496:127,1,181.500005538941,2|0,1:0|0:0,0:0:0:0:
496,127,30947,2,0,P|489:63|486:0,1,121.000003692627,8|2,0:1|0:0,0:0:0:0:
285,54,31255,1,0,1:0:0:0:
132,159,31409,1,0,1:0:0:0:
300,240,31563,1,8,1:0:0:0:
180,66,31717,6,0,P|90:75|0:81,1,181.500005538941,2|0,1:0|0:0,0:0:0:0:
0,81,32024,2,0,P|4:126|7:171,1,60.5000018463135,8|0,1:0|0:0,0:0:0:0:
220,144,32178,5,8,1:0:0:0:
0,243,32332,1,8,0:0:0:0:
198,384,32486,1,8,0:0:0:0:
267,337,32640,5,2,1:0:0:0:
356,264,32794,1,10,1:0:0:0:
262,208,32947,6,0,B|185:233|155:173|155:173|125:111|46:140,1,247.500009441376,4|0,1:2|0:0,0:0:0:0:
111,66,33255,2,0,B|128:82|148:76|148:76|130:88|122:112,1,82.5000031471254,2|0,1:0|0:0,0:0:0:0:
25,253,33409,2,0,B|8:237|-12:243|-12:243|6:231|14:207,1,82.5000031471254,8|0,1:0|0:0,0:0:0:0:
50,139,33563,6,0,P|79:271|99:387,1,247.500009441376,4|0,1:2|0:0,0:0:0:0:
235,282,33871,2,0,P|239:241|261:207,1,82.5000031471254,2|0,1:0|0:0,0:0:0:0:
201,150,34024,1,8,1:0:0:0:
103,66,34178,6,0,P|226:55|349:42,1,247.500009441376,4|0,1:2|0:0,0:0:0:0:
512,152,34486,2,0,P|494:187|496:238,1,82.5000031471254,2|0,1:0|0:0,0:0:0:0:
413,185,34640,1,8,1:0:0:0:
198,384,34794,2,0,P|280:375|362:368,1,165.000006294251,4|0,0:2|1:0,0:0:0:0:
512,152,35101,5,2,1:0:0:0:
500,96,35178,1,2,0:0:0:0:
451,67,35255,1,8,0:1:0:0:
399,88,35332,1,0,1:0:0:0:
381,141,35409,1,8,2:1:0:0:
413,185,35486,1,8,0:1:0:0:
493,229,35563,6,0,P|369:215|246:204,1,242.000007385254,4|8,1:2|2:1,0:0:0:0:
0,23,36178,1,0,1:0:0:0:
199,94,36332,1,0,1:0:0:0:
38,230,36486,1,8,1:0:0:0:
149,0,36640,6,0,P|239:10|329:19,1,181.500005538941,2|0,1:0|0:0,0:0:0:0:
260,102,36947,2,0,P|214:96|169:92,1,60.5000018463135,0|0,1:0|0:0,0:0:0:0:
236,44,37101,1,8,1:0:0:0:
331,171,37255,6,0,P|421:162|511:152,1,181.500005538941,0|0,1:0|0:0,0:0:0:0:
461,247,37563,2,0,P|431:250|401:254,1,60.5000018463135,0|0,1:0|0:0,0:0:0:0:
425,196,37717,1,8,1:0:0:0:
198,384,37871,6,0,P|186:275|174:167,1,197.99999395752,4|0,1:2|0:0,0:0:0:0:
106,257,38178,2,0,P|109:289|113:322,1,65.9999979858399,0|0,1:0|0:0,0:0:0:0:
265,265,38332,5,0,1:0:0:0:
378,226,38486,1,10,1:0:0:0:
400,109,38640,1,0,1:0:0:0:
311,31,38794,1,10,1:1:0:0:
199,70,38947,1,8,1:1:0:0:
176,187,39101,6,0,P|187:285|198:384,1,197.99999395752,4|0,1:2|0:0,0:0:0:0:
272,330,39409,2,0,P|268:297|264:264,1,65.9999979858399,0|0,1:0|0:0,0:0:0:0:
106,257,39563,5,8,1:0:0:0:
44,166,39717,1,10,1:0:0:0:
91,72,39871,1,0,1:0:0:0:
197,69,40024,1,10,1:1:0:0:
195,55,40101,1,2,1:0:0:0:
194,42,40178,2,0,P|292:31|354:22,1,131.99999597168,8|10,1:1|1:0,0:0:0:0:
504,235,40486,6,0,P|334:254|227:269,1,242.000007385254,4|8,1:2|1:0,0:0:0:0:
8,149,41101,1,0,1:0:0:0:
176,187,41255,1,0,1:0:0:0:
138,355,41409,1,8,1:0:0:0:
13,64,41563,6,0,P|127:61|189:15,1,181.500005538941,0|0,1:0|0:0,0:0:0:0:
246,65,41871,2,0,P|232:88|224:120,1,60.5000018463135,0|0,1:0|0:0,0:0:0:0:
176,187,42024,1,8,1:0:0:0:
272,330,42178,6,0,P|386:333|448:379,1,181.500005538941,0|0,1:0|0:0,0:0:0:0:
505,329,42486,2,0,P|491:306|483:274,1,60.5000018463135,0|0,1:0|0:0,0:0:0:0:
435,207,42640,1,8,1:0:0:0:
185,264,42794,1,0,1:0:0:0:
186,277,42871,1,0,1:0:0:0:
188,290,42947,5,4,1:2:0:0:
272,330,43101,1,2,1:0:0:0:
348,277,43255,1,8,1:0:0:0:
340,184,43409,1,10,1:0:0:0:
255,144,43563,5,0,1:0:0:0:
102,187,43717,1,10,1:0:0:0:
141,32,43871,1,8,1:0:0:0:
340,184,44024,6,0,P|331:278|323:384,1,197.99999395752,4|0,1:2|0:0,0:0:0:0:
241,306,44332,2,0,P|244:273|247:240,1,65.9999979858399,0|0,1:0|0:0,0:0:0:0:
296,278,44486,1,8,1:0:0:0:
462,366,44640,1,10,1:0:0:0:
456,179,44794,5,0,1:0:0:0:
457,165,44871,1,0,1:0:0:0:
458,152,44947,1,10,1:1:0:0:
459,139,45024,1,0,1:0:0:0:
460,126,45101,1,8,1:1:0:0:
320,13,45255,1,2,1:0:0:0:
321,27,45332,1,8,1:1:0:0:
322,40,45409,6,0,P|232:39|135:31,1,181.500005538941,4|0,1:2|0:0,0:0:0:0:
296,278,45717,2,0,P|386:279|483:287,1,181.500005538941,8|0,1:0|0:0,0:0:0:0:
379,175,46024,5,0,1:0:0:0:
163,118,46178,1,0,1:0:0:0:
106,334,46332,1,8,1:0:0:0:
190,254,46486,6,0,P|99:244|10:228,1,181.500005538941,0|0,1:0|0:0,0:0:0:0:
211,376,46794,2,0,P|241:378|271:380,1,60.5000018463135,0|0,1:0|0:0,0:0:0:0:
256,302,46947,1,8,1:0:0:0:
322,46,47101,6,0,P|412:36|501:20,1,181.500005538941,0|0,1:0|0:0,0:0:0:0:
301,168,47409,2,0,P|270:170|240:172,1,60.5000018463135,0|0,1:0|0:0,0:0:0:0:
256,94,47562,1,8,1:0:0:0:
206,0,47717,1,0,1:0:0:0:
207,11,47794,1,0,1:0:0:0:
209,23,47871,6,0,B|106:-4|126:84|20:45,1,197.99999395752,4|0,1:2|0:0,0:0:0:0:
21,45,48178,2,0,L|32:130,1,65.9999979858399,0|0,1:0|0:0,0:0:0:0:
106,145,48332,1,10,1:0:0:0:
206,384,48486,5,0,1:1:0:0:
6,250,48640,1,10,1:1:0:0:
218,108,48794,1,8,1:0:0:0:
433,38,48947,6,0,P|416:138|405:234,1,197.99999395752,4|0,1:2|0:0,0:0:0:0:
380,377,49255,2,0,P|371:345|345:319,1,65.9999979858399,0|0,1:0|0:0,0:0:0:0:
406,234,49409,2,0,P|271:212|218:86,1,263.99999194336,12|0,1:2|1:0,0:0:0:0:
255,22,49871,1,10,1:1:0:0:
9,9,50024,1,10,1:1:0:0:
9,14,50101,1,0,1:0:0:0:
10,21,50178,1,10,1:0:0:0:
11,27,50255,1,8,1:0:0:0:
12,34,50332,6,0,P|8:124|3:215,1,181.500005538941,4|0,1:2|0:0,0:0:0:0:
131,384,50640,2,0,P|134:293|139:202,1,181.500005538941,8|0,1:0|0:0,0:0:0:0:
53,283,50947,1,0,1:0:0:0:
242,312,51101,1,0,1:0:0:0:
271,123,51255,1,8,1:0:0:0:
12,34,51409,6,0,P|132:29|253:23,1,242.000007385254,0|0,1:0|1:0,0:0:0:0:
194,105,51871,1,8,1:0:0:0:
500,350,52024,2,0,P|379:354|258:360,1,242.000007385254,2|2,1:0|1:0,0:0:0:0:
318,279,52486,1,8,1:0:0:0:
194,105,52640,1,2,0:1:0:0:
427,109,52794,5,4,1:2:0:0:
224,201,52947,1,8,1:0:0:0:
104,16,53101,1,10,1:0:0:0:
314,176,53255,1,2,1:0:0:0:
314,176,53332,1,0,1:0:0:0:
314,176,53409,1,8,1:0:0:0:
138,359,53563,1,10,1:0:0:0:
138,359,53640,1,0,1:0:0:0:
138,359,53717,1,0,1:0:0:0:
92,197,53871,6,0,P|101:100|103:8,1,181.500005538941,4|0,1:2|0:0,0:0:0:0:
194,105,54178,2,0,P|189:153|188:199,1,60.5000018463135,4|0,1:2|0:0,0:0:0:0:
248,224,54332,1,4,1:2:0:0:
248,224,54947,6,0,P|345:204|352:200,1,82.5,2|0,0:0|0:0,0:0:0:0:
328,211,55255,6,0,P|311:295|307:404,1,131.99999597168,4|2,1:2|0:0,0:0:0:0:
184,173,55563,2,0,P|200:88|204:-20,1,131.99999597168,8|2,1:0|0:0,0:0:0:0:
346,9,55871,1,0,1:0:0:0:
512,126,56024,1,0,1:0:0:0:
328,211,56178,1,8,1:0:0:0:
0,325,56332,6,0,P|97:305|195:293,1,197.99999395752,4|0,1:2|0:0,0:0:0:0:
111,191,56640,2,0,P|79:197|46:201,1,65.9999979858399,0|0,1:0|0:0,0:0:0:0:
90,257,56794,1,8,1:0:0:0:
203,42,56947,6,0,P|300:62|398:74,1,197.99999395752,4|0,1:2|0:0,0:0:0:0:
314,176,57255,2,0,P|282:170|249:166,1,65.9999979858399,0|0,1:0|0:0,0:0:0:0:
293,110,57409,1,8,1:0:0:0:
497,36,57563,1,0,1:2:0:0:
499,44,57640,1,0,1:0:0:0:
500,52,57717,5,4,1:2:0:0:
512,133,57871,1,2,1:2:0:0:
388,193,58024,1,8,1:0:0:0:
292,110,58178,1,2,1:2:0:0:
184,173,58332,1,0,1:0:0:0:
195,292,58486,1,2,1:2:0:0:
195,292,58563,1,0,1:0:0:0:
195,292,58640,1,8,1:0:0:0:
302,341,58794,6,0,P|400:326|499:320,1,197.99999395752,12|0,1:2|0:0,0:0:0:0:
357,102,59101,2,0,P|323:107|289:109,1,65.9999979858399,0|0,1:0|0:0,0:0:0:0:
261,183,59255,1,8,1:0:0:0:
0,48,59409,2,0,P|131:38|262:20,1,263.99999194336,12|8,1:2|0:0,0:0:0:0:
265,27,59794,1,0,1:0:0:0:
267,35,59871,1,8,1:0:0:0:
437,84,60024,1,8,1:0:0:0:
389,267,60178,6,0,P|320:271|251:281,1,131.99999597168,4|2,1:2|0:0,0:0:0:0:
120,129,60486,2,0,P|188:124|257:114,1,131.99999597168,8|2,1:0|0:0,0:0:0:0:
512,0,60794,1,0,1:0:0:0:
440,198,60947,1,0,1:0:0:0:
305,37,61101,1,8,1:0:0:0:
120,129,61255,6,0,P|130:227|139:329,1,197.99999395752,4|0,1:2|0:0,0:0:0:0:
258,280,61563,2,0,P|252:230|250:181,1,65.9999979858399,0|0,1:0|0:0,0:0:0:0:
173,243,61717,1,8,1:0:0:0:
0,307,61871,2,0,B|72:267|111:336|111:336|150:405|223:366,1,263.99999194336,4|2,1:2|1:0,0:0:0:0:
474,155,62332,6,0,B|401:115|362:184|362:184|323:253|250:214,1,264,8|0,1:0|0:0,0:0:0:0:
250,214,62640,6,0,P|245:115|234:16,1,197.99999395752,4|0,1:2|0:0,0:0:0:0:
234,16,62947,2,0,P|310:12|387:3,1,131.99999597168,8|2,1:0|0:0,0:0:0:0:
512,264,63255,1,0,1:0:0:0:
278,353,63409,1,2,1:0:0:0:
317,105,63563,1,8,1:0:0:0:
278,353,63717,6,0,P|142:360|6:376,1,263.99999194336,6|2,1:2|1:0,0:0:0:0:
100,270,64178,1,8,1:0:0:0:
0,193,64332,1,2,0:0:0:0:
234,31,64486,5,8,0:1:0:0:
166,5,64563,1,8,0:1:0:0:
124,64,64640,1,8,0:1:0:0:
160,126,64717,1,8,0:1:0:0:
231,112,64794,1,8,1:0:0:0:
267,174,64871,1,8,1:0:0:0:
223,230,64947,1,8,1:0:0:0:
154,206,65024,1,8,1:0:0:0:
100,269,65101,6,0,P|95:204|82:139,1,131.99999597168,4|2,1:2|0:0,0:0:0:0:
337,0,65409,2,0,P|341:65|354:130,1,131.99999597168,8|2,1:0|0:0,0:0:0:0:
436,280,65717,1,0,1:0:0:0:
267,174,65871,1,0,1:0:0:0:
260,374,66024,1,8,1:0:0:0:
0,331,66178,6,0,P|97:317|196:308,1,197.99999395752,4|0,1:2|0:0,0:0:0:0:
128,195,66486,2,0,P|79:202|29:206,1,65.9999979858399,0|0,1:0|0:0,0:0:0:0:
104,270,66640,1,8,1:0:0:0:
221,36,66794,6,0,P|318:50|417:59,1,197.99999395752,4|0,1:2|0:0,0:0:0:0:
349,172,67101,2,0,P|300:165|250:161,1,65.9999979858399,0|0,1:0|0:0,0:0:0:0:
325,97,67255,1,8,1:0:0:0:
512,238,67409,1,2,1:2:0:0:
246,375,67563,5,4,1:2:0:0:
447,302,67717,1,2,1:0:0:0:
221,36,67871,5,8,1:0:0:0:
498,143,68024,1,2,0:0:0:0:
497,150,68101,1,2,0:0:0:0:
496,157,68178,1,0,1:0:0:0:
246,375,68332,2,0,P|236:277|223:166,1,197.99999395752,10|0,1:0|0:0,0:0:0:0:
224,178,68640,6,0,P|125:189|27:199,1,197.99999395752,12|0,1:2|0:0,0:0:0:0:
221,36,68947,2,0,P|270:41|319:46,1,65.9999979858399,8|0,1:0|0:0,0:0:0:0:
327,108,69101,1,8,1:0:0:0:
447,302,69255,2,0,P|381:294|315:287,1,131.99999597168,12|8,1:2|1:0,0:0:0:0:
27,198,69563,5,8,1:0:0:0:
17,119,69640,1,0,1:0:0:0:
80,71,69717,1,8,1:0:0:0:
153,102,69794,1,0,1:0:0:0:
163,181,69871,1,8,1:0:0:0:
99,228,69947,1,8,1:0:0:0:
27,198,70024,6,0,P|22:263|16:329,1,131.99999597168,4|2,1:2|0:0,0:0:0:0:
283,163,70332,2,0,P|287:97|293:31,1,131.99999597168,8|2,1:0|0:0,0:0:0:0:
249,244,70640,1,0,1:0:0:0:
463,145,70794,1,2,1:0:0:0:
441,380,70947,1,8,1:0:0:0:
140,358,71101,6,0,P|238:363|337:372,1,197.99999395752,4|0,1:2|0:0,0:0:0:0:
372,26,71409,2,0,P|273:20|174:11,1,197.99999395752,0|4,1:2|1:2,0:0:0:0:
223,191,71717,2,0,P|255:192|288:194,1,65.9999979858399,4|0,1:2|0:0,0:0:0:0:
303,115,71871,1,0,1:0:0:0:
106,161,72024,6,0,P|119:215|127:269,1,110,2|0,1:0|0:0,0:0:0:0:
406,222,72178,2,0,P|392:168|384:114,1,110,8|0,1:0|0:0,0:0:0:0:
209,269,72332,1,8,1:0:0:0:
0,366,72486,6,0,P|141:351|266:342,1,263.99999194336,4|8,1:2|1:0,0:0:0:0:
209,269,72947,1,2,0:0:0:0:
384,114,73101,5,0,1:0:0:0:
174,11,73255,1,2,1:0:0:0:
128,270,73409,1,8,0:1:0:0:
338,373,73563,1,2,1:0:0:0:
339,366,73640,1,2,0:0:0:0:
340,359,73717,5,4,1:2:0:0:
177,192,73871,1,2,1:0:0:0:
344,28,74024,1,8,1:0:0:0:
508,196,74178,2,0,P|491:280|488:338,1,131.99999597168,2|10,1:0|1:0,0:0:0:0:
300,194,74486,5,10,1:0:0:0:
239,133,74563,1,8,0:1:0:0:
261,50,74640,1,10,1:0:0:0:
344,28,74717,1,8,1:0:0:0:
405,88,74794,1,10,1:0:0:0:
382,171,74871,1,8,1:0:0:0:
322,110,74947,6,0,B|249:79|203:148|203:148|157:217|84:186,1,275,4|2,1:2|0:0,0:0:0:0:
12,138,75871,1,8,1:0:0:0:
84,186,76024,2,0,P|100:266|106:349,1,165,0|2,1:0|0:0,0:0:0:0:
184,384,76640,2,0,P|185:367|188:351,1,27.5,2|0,0:0|0:0,0:0:0:0:
186,356,76794,2,0,P|215:349|240:346,1,55,0|0,1:0|0:0,0:0:0:0:
235,266,77101,2,0,P|208:272|181:275,1,55,2|0,1:0|0:0,0:0:0:0:
84,186,77409,5,4,1:2:0:0:
428,198,77717,1,0,1:0:0:0:
138,66,77871,1,0,1:0:0:0:
373,317,78024,1,2,1:0:0:0:
262,20,78178,1,0,1:0:0:0:
250,364,78332,1,0,1:0:0:0:
381,74,78486,1,2,1:0:0:0:
130,309,78640,6,0,P|88:315|71:319,3,38.4999988250733,0|0|10|0,1:0|1:0|1:0|1:1,0:0:0:0:
166,231,78947,2,0,P|208:225|225:221,3,38.4999988250733,8|0|10|0,1:0|1:0|1:0|1:1,0:0:0:0:
84,186,79255,6,0,P|94:125|94:103,1,82.5000031471254,10|0,1:0|0:1,0:0:0:0:
428,198,79409,2,0,P|418:259|418:281,1,82.5000031471254,10|0,1:0|1:1,0:0:0:0:
48,32,79563,6,0,P|165:5|182:-3,1,110,10|0,1:0|0:1,0:0:0:0:
464,352,79717,2,0,P|347:379|330:387,1,110,10|0,1:0|0:1,0:0:0:0:
206,363,79885,6,0,P|218:231|230:111,1,230.99999295044,4|0,1:2|0:0,0:0:0:0:
260,28,80192,2,0,B|272:44|288:48|288:48|272:52|256:68,1,65.9999979858399,8|0,1:0|0:0,0:0:0:0:
228,134,80346,6,0,P|96:112|48:36,1,230.99999295044,2|0,0:0|0:0,0:0:0:0:
0,115,80654,2,0,B|-10:126|-26:130|-26:130|-10:134|1:150,1,65.9999979858399,2|0,1:0|0:0,0:0:0:0:
85,220,80808,2,0,B|95:208|111:204|111:204|95:200|83:184,1,65.9999979858399,8|0,1:0|0:0,0:0:0:0:
1,150,80961,6,0,P|41:260|54:383,1,230.99999295044,4|0,1:2|0:0,0:0:0:0:
169,359,81269,2,0,P|163:334|128:333,1,65.9999979858399,2|0,1:0|0:0,0:0:0:0:
0,266,81423,2,0,P|10:295|41:292,1,65.9999979858399,8|0,1:0|0:0,0:0:0:0:
54,372,81577,6,0,B|209:352|209:352|216:355|216:355|369:334,1,307.999990600586,4|2,1:2|1:0,0:0:0:0:
499,142,82038,1,8,1:0:0:0:
326,235,82192,1,2,0:0:0:0:
331,38,82346,6,0,P|265:64|249:66,1,60.5000018463135,4|0,1:2|0:0,0:0:0:0:
181,346,82500,2,0,P|247:320|263:318,1,60.5000018463135,0|0,1:0|0:0,0:0:0:0:
200,30,82654,2,0,P|171:95|161:107,1,60.5000018463135,8|0,1:0|0:0,0:0:0:0:
311,353,82808,2,0,P|340:288|350:276,1,60.5000018463135,2|0,1:2|0:0,0:0:0:0:
102,116,82961,2,0,P|127:183|130:199,1,60.5000018463135,8|0,1:0|0:0,0:0:0:0:
410,267,83115,2,0,P|384:201|382:185,1,60.5000018463135,2|0,1:2|0:0,0:0:0:0:
94,247,83269,2,0,P|159:276|171:286,1,60.5000018463135,8|0,1:0|0:0,0:0:0:0:
418,137,83423,5,12,1:2:0:0:
94,247,83731,1,8,1:2:0:0:
289,24,83885,1,8,1:0:0:0:
222,359,84038,1,8,1:0:0:0:
127,79,84192,1,8,1:0:0:0:
384,304,84346,1,8,1:0:0:0:
392,303,84423,1,0,1:0:0:0:
399,300,84500,2,0,P|403:262|410:224,1,76.9999976501466,2|0,1:0|0:0,0:0:0:0:
332,116,84654,2,0,P|327:154|320:192,1,76.9999976501466,0|0,1:0|1:0,0:0:0:0:
410,224,84808,6,0,P|295:234|180:247,1,230.99999295044,4|0,1:2|0:0,0:0:0:0:
59,47,85115,2,0,P|173:36|288:23,1,230.99999295044,8|0,1:0|0:0,0:0:0:0:
224,111,85423,2,0,P|185:114|147:118,1,76.9999976501466,0|0,1:0|0:0,0:0:0:0:
268,318,85577,2,0,P|306:314|344:310,1,76.9999976501466,2|0,1:0|0:0,0:0:0:0:
410,224,85731,1,8,1:1:0:0:
59,47,85885,6,0,P|71:161|83:276,1,230.99999295044,4|0,1:2|0:0,0:0:0:0:
155,194,86192,2,0,P|150:155|147:117,1,76.9999976501466,2|0,1:0|0:0,0:0:0:0:
59,47,86346,1,8,1:1:0:0:
2,251,86500,6,0,P|9:312|14:373,1,82.5000031471254,4|0,1:2|0:0,0:0:0:0:
236,219,86654,2,0,P|230:174|227:131,1,82.5000031471254,0|0,1:0|0:0,0:0:0:0:
83,276,86808,2,0,P|90:337|95:398,1,82.5000031471254,2|0,1:2|0:0,0:0:0:0:
318,248,86961,2,0,P|314:207|309:167,1,82.5000031471254,8|0,1:1|0:0,0:0:0:0:
164,301,87115,2,0,P|171:362|176:423,1,82.5000031471254,2|0,1:2|0:0,0:0:0:0:
400,277,87269,6,0,P|392:204|382:131,1,121.000003692627,4|2,1:2|0:0,0:0:0:0:
213,22,87577,2,0,P|221:95|231:168,1,121.000003692627,8|2,1:0|0:0,0:0:0:0:
475,243,87885,2,0,P|471:206|466:170,1,60.5000018463135,0|0,1:0|0:0,0:0:0:0:
301,105,88038,2,0,P|304:135|308:165,1,60.5000018463135,2|2,0:0|0:0,0:0:0:0:
236,219,88192,1,8,1:0:0:0:
3,96,88346,6,0,B|64:120|110:58|110:58|153:-1|215:22,1,242.000007385254,4|2,1:2|1:2,0:0:0:0:
486,104,88808,1,8,1:0:0:0:
329,243,88961,1,2,1:2:0:0:
172,383,89115,5,8,1:0:0:0:
208,329,89192,1,8,1:0:0:0:
177,272,89269,1,2,1:0:0:0:
114,270,89346,1,8,1:0:0:0:
70,224,89423,1,8,0:1:0:0:
68,159,89500,1,8,1:0:0:0:
121,121,89577,1,10,1:0:0:0:
181,147,89654,1,10,1:0:0:0:
236,219,89731,6,0,P|244:125|263:69,1,121.000003692627,4|2,1:2|0:0,0:0:0:0:
212,21,90038,1,8,1:0:0:0:
121,121,90192,1,2,0:0:0:0:
0,47,90346,1,0,1:0:0:0:
70,224,90500,1,2,1:2:0:0:
69,236,90577,1,0,1:0:0:0:
68,248,90654,1,8,1:0:0:0:
0,357,90808,6,0,P|90:359|179:377,1,181.500005538941,4|0,1:2|0:0,0:0:0:0:
134,253,91115,2,0,P|103:253|73:249,1,60.5000018463135,2|0,1:0|0:0,0:0:0:0:
93,311,91269,1,8,1:1:0:0:
236,219,91423,6,0,P|326:216|415:198,1,181.500005538941,2|0,1:0|0:0,0:0:0:0:
370,323,91731,2,0,P|339:322|309:326,1,60.5000018463135,2|0,0:0|0:0,0:0:0:0:
329,265,91885,1,8,1:1:0:0:
498,165,92038,1,2,0:0:0:0:
251,99,92192,5,4,1:2:0:0:
178,146,92346,1,8,1:1:0:0:
179,151,92423,1,8,1:1:0:0:
180,157,92500,1,10,1:0:0:0:
236,219,92654,1,10,0:1:0:0:
179,377,92808,5,2,1:0:0:0:
0,184,92961,2,0,P|0:93|-1:3,1,181.500005538941,10|0,1:1|0:0,0:0:0:0:
0,3,93269,2,0,P|71:10|142:15,1,142.99999345398,8|8,1:0|1:1,0:0:0:0:
251,99,93577,5,8,0:0:0:0:
250,106,93654,1,0,0:0:0:0:
249,113,93731,1,2,0:1:0:0:
248,120,93808,1,0,0:0:0:0:
256,149,93885,5,8,0:0:0:0:
255,156,93961,1,0,0:0:0:0:
254,163,94038,1,10,1:1:0:0:
253,170,94115,1,0,0:0:0:0:
260,198,94192,5,8,0:0:0:0:
319,173,94269,1,8,0:0:0:0:
366,216,94346,1,2,0:1:0:0:
358,280,94423,1,8,0:1:0:0:
402,327,94500,1,0,1:0:0:0:
463,308,94577,1,0,1:0:0:0:
488,258,94654,5,6,0:0:0:0:
487,251,94731,1,0,0:0:0:0:
486,245,94808,1,2,0:0:0:0:
486,239,94885,1,0,0:0:0:0:
485,233,94961,1,10,0:1:0:0:
485,227,95038,1,0,0:0:0:0:
484,221,95115,1,0,0:0:0:0:
484,215,95192,1,2,0:0:0:0:
483,209,95269,1,2,1:0:0:0:
482,203,95346,1,0,0:0:0:0:
482,196,95423,2,0,P|477:165|466:123,1,60.5000018463135,2|0,1:0|0:0,0:0:0:0:
501,10,95577,2,0,P|506:41|517:83,1,60.5000018463135,8|0,1:1|0:0,0:0:0:0:
470,137,95731,6,0,P|395:84|310:114,1,181.500005538941,4|0,1:2|0:0,0:0:0:0:
244,147,96038,1,2,0:0:0:0:
241,141,96115,1,2,0:0:0:0:
239,135,96192,2,0,P|239:94|239:58,1,60.5000018463135,8|0,1:1|0:0,0:0:0:0:
174,192,96346,2,0,P|174:233|174:269,1,60.5000018463135,2|0,0:0|0:0,0:0:0:0:
238,300,96500,2,0,P|147:307|57:318,2,181.500005538941,2|2|10,1:0|1:0|1:0,0:0:0:0:
79,38,97115,6,0,P|93:121|94:170,1,121.000003692627,4|0,1:2|0:0,0:0:0:0:
314,374,97346,1,2,2:0:0:0:
334,378,97423,2,0,P|322:319|319:259,1,121.000003692627,8|2,1:1|0:0,0:0:0:0:
155,11,97731,2,0,P|171:99|173:191,2,181.500005538941,2|2|6,1:0|1:0|1:2,0:0:0:0:
179,377,98500,5,4,1:2:0:0:
273,84,98654,2,0,P|364:81|454:71,1,181.500005538941,4|0,1:2|0:0,0:0:0:0:
505,115,98961,1,8,0:1:0:0:
477,176,99038,1,8,0:1:0:0:
409,169,99115,1,10,0:1:0:0:
372,224,99192,1,8,0:1:0:0:
406,282,99269,1,8,1:0:0:0:
472,274,99346,1,8,1:0:0:0:
502,333,99423,1,10,1:0:0:0:
459,384,99500,1,8,1:0:0:0:
392,356,99577,6,0,P|293:344|194:340,1,197.99999395752,4|0,1:2|0:0,0:0:0:0:
94,157,99885,2,0,P|192:168|291:172,1,197.99999395752,8|0,1:1|0:0,0:0:0:0:
406,282,100192,1,0,1:0:0:0:
512,69,100346,1,2,1:0:0:0:
275,84,100500,1,8,1:1:0:0:
194,340,100654,6,0,P|95:352|-1:372,1,197.99999395752,4|0,1:2|0:0,0:0:0:0:
43,267,100961,2,0,P|75:263|108:256,1,65.9999979858399,0|0,1:0|0:0,0:0:0:0:
88,314,101115,1,8,1:0:0:0:
188,167,101269,6,0,P|287:179|383:199,1,197.99999395752,4|0,1:2|0:0,0:0:0:0:
339,94,101577,2,0,P|307:90|274:83,1,65.9999979858399,0|0,1:0|0:0,0:0:0:0:
294,141,101731,1,8,1:1:0:0:
37,3,101885,1,0,1:2:0:0:
39,11,101961,1,0,1:0:0:0:
40,19,102038,5,4,1:2:0:0:
127,13,102192,1,2,1:2:0:0:
188,167,102346,1,8,1:0:0:0:
34,228,102500,1,2,0:0:0:0:
95,382,102654,1,0,1:0:0:0:
249,321,102808,1,2,0:0:0:0:
249,321,102885,1,2,0:0:0:0:
249,321,102961,1,8,1:0:0:0:
344,384,103115,6,0,P|334:285|335:186,1,197.99999395752,12|0,1:2|0:0,0:0:0:0:
168,0,103423,2,0,P|172:49|172:98,1,65.9999979858399,0|0,1:0|0:0,0:0:0:0:
256,27,103577,1,8,1:0:0:0:
40,19,103731,2,0,P|50:150|49:282,1,263.99999194336,12|8,1:2|1:2,0:0:0:0:
54,288,104115,1,0,1:0:0:0:
58,295,104192,1,8,1:0:0:0:
180,384,104346,1,8,1:0:0:0:
277,283,104500,6,0,P|211:286|146:296,1,131.99999597168,4|2,1:2|0:0,0:0:0:0:
234,100,104808,2,0,P|300:97|366:88,1,131.99999597168,8|2,1:1|0:0,0:0:0:0:
156,36,105115,1,0,1:0:0:0:
376,176,105269,1,0,1:0:0:0:
145,296,105423,1,8,1:1:0:0:
451,36,105577,6,0,P|455:141|470:247,1,197.99999395752,4|0,1:2|0:0,0:0:0:0:
352,384,105885,2,0,P|350:350|345:317,1,65.9999979858399,0|0,1:0|0:0,0:0:0:0:
285,258,106038,1,8,1:0:0:0:
467,233,106192,2,0,B|401:259|359:183|359:183|317:106|251:133,1,263.99999194336,4|2,1:2|1:0,0:0:0:0:
22,229,106654,6,0,B|87:202|129:278|129:278|171:355|237:328,1,264,8|0,1:1|0:0,0:0:0:0:
236,329,106961,6,0,P|241:230|252:131,1,197.99999395752,4|0,1:2|0:0,0:0:0:0:
251,131,107269,2,0,P|175:127|98:118,1,131.99999597168,8|2,1:1|0:0,0:0:0:0:
0,18,107577,1,0,1:0:0:0:
105,252,107731,1,2,1:0:0:0:
256,45,107885,1,8,1:0:0:0:
105,252,108038,6,0,P|236:259|367:274,1,263.99999194336,6|2,1:2|1:0,0:0:0:0:
474,358,108500,1,8,1:1:0:0:
512,204,108654,1,2,0:0:0:0:
256,45,108808,5,8,0:1:0:0:
186,63,108885,1,8,0:1:0:0:
115,79,108961,1,8,0:1:0:0:
131,149,109038,1,8,0:1:0:0:
147,219,109115,1,8,1:0:0:0:
218,204,109192,1,8,1:0:0:0:
287,184,109269,1,8,1:0:0:0:
272,112,109346,1,8,1:0:0:0:
256,45,109423,6,0,P|321:39|386:26,1,131.99999597168,4|2,1:2|0:0,0:0:0:0:
367,274,109731,2,0,P|302:280|237:293,1,131.99999597168,8|2,1:1|0:0,0:0:0:0:
377,378,110038,1,0,1:0:0:0:
287,184,110192,1,2,1:0:0:0:
163,359,110346,1,8,1:1:0:0:
0,83,110500,6,0,P|11:180|21:279,1,197.99999395752,4|0,1:2|0:0,0:0:0:0:
112,204,110808,2,0,P|107:165|103:127,1,65.9999979858399,0|0,1:0|0:0,0:0:0:0:
53,183,110961,1,8,1:0:0:0:
291,196,111115,6,0,P|280:99|269:0,1,197.99999395752,4|0,1:2|0:0,0:0:0:0:
179,75,111423,2,0,P|183:113|187:151,1,65.9999979858399,0|0,1:0|0:0,0:0:0:0:
238,95,111577,1,8,1:1:0:0:
397,223,111731,1,2,1:2:0:0:
428,22,111885,5,4,1:2:0:0:
512,263,112038,1,10,1:0:0:0:
271,347,112192,1,0,1:0:0:0:
187,106,112346,1,2,0:0:0:0:
183,91,112423,1,10,1:0:0:0:
179,75,112500,1,0,1:0:0:0:
490,173,112654,2,0,P|391:161|293:150,1,197.99999395752,10|0,1:0|0:0,0:0:0:0:
293,150,112961,6,0,P|278:259|267:372,1,197.99999395752,12|0,1:2|0:0,0:0:0:0:
104,138,113269,2,0,P|100:105|95:72,1,65.9999979858399,0|0,1:0|0:0,0:0:0:0:
142,1,113423,1,8,1:0:0:0:
22,229,113577,2,0,P|31:295|38:359,1,131.99999597168,12|0,1:2|1:0,0:0:0:0:
256,45,113885,5,8,0:0:0:0:
326,63,113961,1,8,0:0:0:0:
397,79,114038,1,0,1:0:0:0:
381,149,114115,1,0,1:0:0:0:
365,219,114192,1,8,1:0:0:0:
294,204,114269,1,8,1:0:0:0:
225,184,114346,6,0,P|234:250|241:314,1,131.99999597168,4|2,1:2|0:0,0:0:0:0:
483,105,114654,2,0,P|477:67|473:31,1,65.9999979858399,8|0,1:1|0:0,0:0:0:0:
397,79,114808,1,2,0:0:0:0:
483,326,114961,1,0,1:0:0:0:
283,384,115115,1,2,1:0:0:0:
225,184,115269,1,8,1:1:0:0:
342,16,115423,6,0,P|243:28|145:35,1,197.99999395752,4|0,1:2|0:0,0:0:0:0:
170,368,115731,2,0,P|268:355|366:348,1,197.99999395752,0|0,1:0|0:0,0:0:0:0:
289,188,116038,2,0,P|256:192|223:194,1,65.9999979858399,4|0,1:2|0:0,0:0:0:0:
184,120,116192,1,8,1:0:0:0:
428,162,116346,6,0,P|421:216|416:271,1,110,2|0,1:0|0:0,0:0:0:0:
84,222,116500,2,0,P|90:167|95:112,1,110,8|0,1:1|0:0,0:0:0:0:
328,264,116654,1,8,1:2:0:0:
512,119,116808,5,4,1:2:0:0:
342,16,116961,1,10,1:1:0:0:
223,194,117115,2,0,P|226:218|227:243,3,43.9999986572266,10|2|2|0,1:0|0:0|0:0|0:0,0:0:0:0:
197,370,117423,5,10,1:0:0:0:
15,156,117577,1,2,1:1:0:0:
262,317,117731,1,8,1:0:0:0:
346,126,117885,1,4,1:2:0:0:
256,192,117961,12,2,120038,0:0:0:0:
