osu file format v14

[General]
AudioFilename: audio.mp3
AudioLeadIn: 0
PreviewTime: 54947
Countdown: 0
SampleSet: Soft
StackLeniency: 0.7
Mode: 0
LetterboxInBreaks: 0
WidescreenStoryboard: 1

[Editor]
DistanceSpacing: 1.1
BeatDivisor: 4
GridSize: 4
TimelineZoom: 1.8

[Metadata]
Title:Sugar Coaster Girl
TitleUnicode:Sugar Coaster Girl
Artist:Citrus and Ocean Colour
ArtistUnicode:Citrus and Ocean Colour
Creator:Enon
Version:Down's Extra
Source:pop'n music éclale
Tags:eclale popn lively rock japanese video game pop Tachinon TEA tell Suetsugu Kanon RIE♥chan Cycopton Wanpachi laplus asapbakery ChocoMochi silverin0 seegiirino Down ポップンミュジック エクラル bemani komani
BeatmapID:3632970
BeatmapSetID:1774229

[Difficulty]
HPDrainRate:5.5
CircleSize:4.3
OverallDifficulty:8.5
ApproachRate:9.2
SliderMultiplier:1.92
SliderTickRate:1

[Events]
//Background and Video events
0,0,"Background.jpg",0,0
//Break Periods
//Storyboard Layer 0 (Background)
//Storyboard Layer 1 (Fail)
//Storyboard Layer 2 (Pass)
//Storyboard Layer 3 (Foreground)
//Storyboard Layer 4 (Overlay)
//Storyboard Sound Samples

[TimingPoints]
-129,307.692307692308,4,2,1,80,1,0
0,-200,4,2,1,80,0,0
1101,-125,4,2,1,80,0,0
2178,-100,4,2,1,80,0,0
3563,-125,4,2,1,80,0,0
4640,-100,4,2,1,80,0,0
6024,-125,4,2,1,80,0,0
8332,-100,4,2,1,80,0,0
9563,-83.3333333333333,4,2,1,80,0,0
11178,-83.3333333333333,4,2,1,5,0,0
11255,-83.3333333333333,4,2,1,80,0,0
11332,-83.3333333333333,4,2,1,5,0,0
11409,-83.3333333333333,4,2,1,80,0,0
11640,-83.3333333333333,4,2,1,5,0,0
11717,-83.3333333333333,4,2,1,80,0,0
11947,-83.3333333333333,4,2,1,5,0,0
12024,-83.3333333333333,4,2,1,80,0,0
12640,-66.6666666666667,4,2,1,80,0,0
14486,-100,4,2,1,80,0,0
14717,-100,4,2,1,5,0,0
14794,-100,4,2,1,80,0,0
15332,-100,4,2,1,5,0,0
15409,-100,4,2,1,80,0,0
15486,-100,4,2,1,5,0,0
15563,-100,4,2,1,80,0,0
15717,-83.3333333333333,4,2,1,80,0,0
16101,-83.3333333333333,4,2,1,5,0,0
16178,-83.3333333333333,4,2,1,80,0,0
16409,-83.3333333333333,4,2,1,5,0,0
16486,-83.3333333333333,4,2,1,80,0,0
17178,-83.3333333333333,4,2,1,5,0,0
17255,-83.3333333333333,4,2,1,80,0,0
17332,-83.3333333333333,4,2,1,5,0,0
17409,-83.3333333333333,4,2,1,80,0,0
19640,-83.3333333333333,4,2,1,5,0,0
19717,-83.3333333333333,4,2,1,80,0,0
20794,-90.9090909090909,4,2,1,70,0,0
21024,-90.9090909090909,4,2,1,5,0,0
21101,-90.9090909090909,4,2,1,70,0,0
22101,-90.9090909090909,4,2,1,5,0,0
22178,-90.9090909090909,4,2,1,70,0,0
22717,-90.9090909090909,4,2,1,5,0,0
22794,-90.9090909090909,4,2,1,70,0,0
23486,-90.9090909090909,4,2,1,5,0,0
23563,-90.9090909090909,4,2,1,70,0,0
24563,-90.9090909090909,4,2,1,5,0,0
24640,-90.9090909090909,4,2,1,70,0,0
25563,-66.6666666666667,4,2,1,70,0,0
25794,-66.6666666666667,4,2,1,5,0,0
25871,-66.6666666666667,4,2,1,70,0,0
25947,-66.6666666666667,4,2,1,5,0,0
26024,-66.6666666666667,4,2,1,70,0,0
26101,-66.6666666666667,4,2,1,5,0,0
26178,-66.6666666666667,4,2,1,70,0,0
26409,-66.6666666666667,4,2,1,5,0,0
26486,-66.6666666666667,4,2,1,70,0,0
26563,-66.6666666666667,4,2,1,5,0,0
26640,-66.6666666666667,4,2,1,70,0,0
26717,-66.6666666666667,4,2,1,5,0,0
26794,-66.6666666666667,4,2,1,70,0,0
27024,-66.6666666666667,4,2,1,5,0,0
27101,-66.6666666666667,4,2,1,70,0,0
27178,-66.6666666666667,4,2,1,5,0,0
27255,-66.6666666666667,4,2,1,70,0,0
27332,-66.6666666666667,4,2,1,5,0,0
27409,-66.6666666666667,4,2,1,70,0,0
27640,-66.6666666666667,4,2,1,5,0,0
27717,-66.6666666666667,4,2,1,70,0,0
28178,-90.9090909090909,4,2,1,70,0,0
28409,-90.9090909090909,4,2,1,5,0,0
28486,-90.9090909090909,4,2,1,70,0,0
29486,-90.9090909090909,4,2,1,5,0,0
29563,-90.9090909090909,4,2,1,70,0,0
29717,-90.9090909090909,4,2,1,70,0,0
30101,-90.9090909090909,4,2,1,5,0,0
30178,-90.9090909090909,4,2,1,70,0,0
30871,-90.9090909090909,4,2,1,5,0,0
30947,-90.9090909090909,4,2,1,70,0,0
31947,-90.9090909090909,4,2,1,5,0,0
32024,-90.9090909090909,4,2,1,70,0,0
32947,-66.6666666666667,4,2,1,70,0,0
33178,-66.6666666666667,4,2,1,5,0,0
33255,-66.6666666666667,4,2,1,70,0,0
33332,-66.6666666666667,4,2,1,5,0,0
33409,-66.6666666666667,4,2,1,70,0,0
33486,-66.6666666666667,4,2,1,5,0,0
33563,-66.6666666666667,4,2,1,70,0,0
33794,-66.6666666666667,4,2,1,5,0,0
33871,-66.6666666666667,4,2,1,70,0,0
33947,-66.6666666666667,4,2,1,5,0,0
34024,-66.6666666666667,4,2,1,70,0,0
34101,-66.6666666666667,4,2,1,5,0,0
34178,-66.6666666666667,4,2,1,70,0,0
34409,-66.6666666666667,4,2,1,5,0,0
34486,-66.6666666666667,4,2,1,70,0,0
34563,-66.6666666666667,4,2,1,5,0,0
34640,-66.6666666666667,4,2,1,70,0,0
34717,-66.6666666666667,4,2,1,5,0,0
34794,-66.6666666666667,4,2,1,70,0,0
35024,-66.6666666666667,4,2,1,5,0,0
35101,-66.6666666666667,4,2,1,70,0,0
35563,-90.9090909090909,4,2,1,70,0,0
35794,-90.9090909090909,4,2,1,5,0,0
35871,-90.9090909090909,4,2,1,70,0,0
36871,-90.9090909090909,4,2,1,5,0,0
36947,-90.9090909090909,4,2,1,70,0,0
37486,-90.9090909090909,4,2,1,5,0,0
37563,-90.9090909090909,4,2,1,70,0,0
37871,-83.3333333333333,4,2,1,70,0,0
38101,-83.3333333333333,4,2,1,5,0,0
38178,-83.3333333333333,4,2,1,70,0,0
40486,-90.9090909090909,4,2,1,70,0,0
40717,-90.9090909090909,4,2,1,5,0,0
40794,-90.9090909090909,4,2,1,70,0,0
41794,-90.9090909090909,4,2,1,5,0,0
41871,-90.9090909090909,4,2,1,70,0,0
42409,-90.9090909090909,4,2,1,5,0,0
42486,-90.9090909090909,4,2,1,70,0,0
42640,-90.9090909090909,4,2,1,70,0,0
44024,-83.3333333333333,4,2,1,70,0,0
44255,-83.3333333333333,4,2,1,5,0,0
44332,-83.3333333333333,4,2,1,70,0,0
45409,-90.9090909090909,4,2,1,70,0,0
45640,-90.9090909090909,4,2,1,5,0,0
45717,-90.9090909090909,4,2,1,70,0,0
47332,-90.9090909090909,4,2,1,5,0,0
47409,-90.9090909090909,4,2,1,70,0,0
47871,-83.3333333333333,4,2,1,70,0,0
48101,-83.3333333333333,4,2,1,5,0,0
48178,-83.3333333333333,4,2,1,70,0,0
49178,-83.3333333333333,4,2,1,5,0,0
49255,-83.3333333333333,4,2,1,70,0,0
49332,-83.3333333333333,4,2,1,5,0,0
49409,-83.3333333333333,4,2,1,70,0,0
49640,-83.3333333333333,4,2,1,5,0,0
49717,-83.3333333333333,4,2,1,70,0,0
50332,-90.9090909090909,4,2,1,70,0,0
50563,-90.9090909090909,4,2,1,5,0,0
50640,-90.9090909090909,4,2,1,70,0,0
51640,-90.9090909090909,4,2,1,5,0,0
51717,-90.9090909090909,4,2,1,70,0,0
53024,-90.9090909090909,4,2,1,5,0,0
53101,-90.9090909090909,4,2,1,70,0,0
53178,-90.9090909090909,4,2,1,5,0,0
53255,-90.9090909090909,4,2,1,70,0,0
54101,-90.9090909090909,4,2,1,5,0,0
54178,-90.9090909090909,4,2,1,70,0,0
54255,-90.9090909090909,4,2,1,5,0,0
54332,-90.9090909090909,4,2,1,70,0,0
54947,-200,4,2,1,70,0,0
55178,-200,4,2,1,5,0,0
55255,-83.3333333333333,4,2,1,100,0,1
55486,-83.3333333333333,4,2,1,5,0,1
55563,-83.3333333333333,4,2,1,100,0,1
56563,-83.3333333333333,4,2,1,5,0,1
56640,-83.3333333333333,4,2,1,100,0,1
56717,-83.3333333333333,4,2,1,5,0,1
56794,-83.3333333333333,4,2,1,100,0,1
57178,-83.3333333333333,4,2,1,5,0,1
57255,-83.3333333333333,4,2,1,100,0,1
57332,-83.3333333333333,4,2,1,5,0,1
57409,-83.3333333333333,4,2,1,100,0,1
59024,-83.3333333333333,4,2,1,5,0,1
59101,-83.3333333333333,4,2,1,100,0,1
59640,-83.3333333333333,4,2,1,5,0,1
59717,-83.3333333333333,4,2,1,100,0,1
59794,-83.3333333333333,4,2,1,5,0,1
59871,-83.3333333333333,4,2,1,100,0,1
60409,-83.3333333333333,4,2,1,5,0,1
60486,-83.3333333333333,4,2,1,100,0,1
61486,-83.3333333333333,4,2,1,5,0,1
61563,-83.3333333333333,4,2,1,100,0,1
62101,-83.3333333333333,4,2,1,5,0,1
62178,-83.3333333333333,4,2,1,100,0,1
62563,-62.5,4,2,1,5,0,1
62640,-83.3333333333333,4,2,1,100,0,1
62871,-83.3333333333333,4,2,1,5,0,1
62947,-83.3333333333333,4,2,1,100,0,1
63947,-83.3333333333333,4,2,1,5,0,1
64024,-83.3333333333333,4,2,1,100,0,1
65332,-83.3333333333333,4,2,1,5,0,1
65409,-83.3333333333333,4,2,1,100,0,1
66409,-83.3333333333333,4,2,1,5,0,1
66486,-83.3333333333333,4,2,1,100,0,1
67024,-83.3333333333333,4,2,1,5,0,1
67101,-83.3333333333333,4,2,1,100,0,1
68871,-83.3333333333333,4,2,1,5,0,1
68947,-83.3333333333333,4,2,1,100,0,1
70255,-83.3333333333333,4,2,1,5,0,1
70332,-83.3333333333333,4,2,1,100,0,1
71332,-83.3333333333333,4,2,1,5,0,1
71409,-83.3333333333333,4,2,1,100,0,1
72255,-83.3333333333333,4,2,1,5,0,1
72332,-83.3333333333333,4,2,1,100,0,1
72409,-83.3333333333333,4,2,1,5,0,1
72486,-83.3333333333333,4,2,1,100,0,1
72717,-83.3333333333333,4,2,1,5,0,1
72794,-83.3333333333333,4,2,1,100,0,1
74947,-200,4,2,1,80,0,0
77409,-142.857142857143,4,2,1,70,0,0
79255,-83.3333333333333,4,2,1,70,0,0
79332,-83.3333333333333,4,2,1,5,0,0
79409,-83.3333333333333,4,2,1,70,0,0
79486,-83.3333333333333,4,2,1,5,0,0
79563,-83.3333333333333,4,2,1,70,0,0
79640,-83.3333333333333,4,2,1,5,0,0
79717,-83.3333333333333,4,2,1,70,0,0
79794,-83.3333333333333,4,2,1,5,0,0
79885,307.692307692308,4,2,1,80,1,0
79885,-71.4285714285714,4,2,1,80,0,0
80115,-71.4285714285714,4,2,1,5,0,0
80192,-83.3333333333333,4,2,1,80,0,0
80346,-71.4285714285714,4,2,1,80,0,0
80577,-71.4285714285714,4,2,1,5,0,0
80654,-83.3333333333333,4,2,1,80,0,0
80731,-83.3333333333333,4,2,1,5,0,0
80808,-83.3333333333333,4,2,1,80,0,0
80885,-83.3333333333333,4,2,1,5,0,0
80961,-71.4285714285714,4,2,1,80,0,0
81192,-71.4285714285714,4,2,1,5,0,0
81269,-83.3333333333333,4,2,1,80,0,0
81346,-83.3333333333333,4,2,1,5,0,0
81423,-83.3333333333333,4,2,1,80,0,0
81500,-83.3333333333333,4,2,1,5,0,0
81577,-71.4285714285714,4,2,1,80,0,0
81808,-71.4285714285714,4,2,1,5,0,0
81885,-71.4285714285714,4,2,1,80,0,0
85038,-71.4285714285714,4,2,1,5,0,0
85115,-71.4285714285714,4,2,1,80,0,0
86115,-71.4285714285714,4,2,1,5,0,0
86192,-71.4285714285714,4,2,1,80,0,0
86500,-66.6666666666667,4,2,1,80,0,0
86731,-66.6666666666667,4,2,1,5,0,0
86808,-66.6666666666667,4,2,1,80,0,0
87269,-90.9090909090909,4,2,1,80,0,0
87500,-90.9090909090909,4,2,1,5,0,0
87577,-90.9090909090909,4,2,1,80,0,0
87961,-90.9090909090909,4,2,1,5,0,0
88038,-90.9090909090909,4,2,1,80,0,0
89115,-76.9230769230769,4,2,1,80,0,0
89731,-90.9090909090909,4,2,1,80,0,0
91038,-90.9090909090909,4,2,1,5,0,0
91115,-90.9090909090909,4,2,1,80,0,0
91654,-90.9090909090909,4,2,1,5,0,0
91731,-90.9090909090909,4,2,1,80,0,0
93192,-90.9090909090909,4,2,1,5,0,0
93269,-76.9230769230769,4,2,1,80,0,0
94654,-90.9090909090909,4,2,1,80,0,0
95961,-90.9090909090909,4,2,1,5,0,0
96038,-90.9090909090909,4,2,1,80,0,0
96500,-90.9090909090909,4,2,1,80,0,0
97346,-90.9090909090909,4,2,0,80,0,0
97423,-90.9090909090909,4,2,1,80,0,0
98885,-90.9090909090909,4,2,1,5,0,0
98961,-90.9090909090909,4,2,1,80,0,0
99577,-83.3333333333333,4,2,1,100,0,1
99808,-83.3333333333333,4,2,1,5,0,1
99885,-83.3333333333333,4,2,1,100,0,1
100885,-83.3333333333333,4,2,1,5,0,1
100961,-83.3333333333333,4,2,1,100,0,1
101500,-83.3333333333333,4,2,1,5,0,1
101577,-83.3333333333333,4,2,1,100,0,1
101654,-83.3333333333333,4,2,1,5,0,1
101731,-83.3333333333333,4,2,1,100,0,1
103346,-83.3333333333333,4,2,1,5,0,1
103423,-83.3333333333333,4,2,1,100,0,1
105808,-83.3333333333333,4,2,1,5,0,1
105885,-83.3333333333333,4,2,1,100,0,1
107192,-83.3333333333333,4,2,1,5,0,1
107269,-83.3333333333333,4,2,1,100,0,1
110731,-83.3333333333333,4,2,1,5,0,1
110808,-83.3333333333333,4,2,1,100,0,1
111346,-83.3333333333333,4,2,1,5,0,1
111423,-83.3333333333333,4,2,1,100,0,1
111500,-83.3333333333333,4,2,1,5,0,1
111577,-83.3333333333333,4,2,1,100,0,1
113192,-83.3333333333333,4,2,1,5,0,1
113269,-83.3333333333333,4,2,1,100,0,1
115654,-83.3333333333333,4,2,1,5,0,1
115731,-83.3333333333333,4,2,1,100,0,1
116577,-83.3333333333333,4,2,1,5,0,1
116654,-83.3333333333333,4,2,1,100,0,1
116808,-83.3333333333333,4,2,1,100,0,1
118038,-100,4,2,1,80,0,0
120038,-100,4,2,1,40,0,0

[Colours]
Combo1 : 17,254,176
Combo2 : 173,255,95
Combo3 : 255,88,100
Combo4 : 255,94,55

[HitObjects]
316,82,1101,6,0,P|254:99|152:126,1,153.6,4|0,1:2|1:0,0:0:0:0:
351,186,1563,2,0,P|438:237|462:299,1,153.6
384,117,2024,1,0,1:0:0:0:
316,82,2178,6,0,P|270:171|239:289,1,192,8|0,2:1|0:0,0:0:0:0:
384,117,2640,1,0,1:0:0:0:
316,82,2794,2,0,P|213:118|163:153,1,144,8|0,2:1|0:0,0:0:0:0:
163,131,3101,2,0,P|165:105|171:57,1,48
225,34,3255,1,0,1:0:0:0:
98,187,3409,1,8,2:1:0:0:
98,187,3486,1,8,2:1:0:0:
98,187,3563,5,4,1:2:0:0:
98,187,3871,1,0,1:0:0:0:
98,187,4178,1,0,1:0:0:0:
216,156,4332,1,0,0:0:0:0:
333,121,4486,1,0,1:0:0:0:
373,269,4640,6,0,P|355:317|346:363,1,96,8|0,2:1|1:0,0:0:0:0:
275,220,4947,2,0,P|232:199|221:132,1,96,0|0,0:0|1:0,0:0:0:0:
452,215,5255,2,0,P|427:204|394:201,1,48,8|0,2:1|0:0,0:0:0:0:
337,170,5409,1,0,1:0:0:0:
329,158,5486,1,8,0:1:0:0:
322,146,5563,1,8,2:1:0:0:
317,134,5640,1,8,2:1:0:0:
312,121,5717,1,2,1:0:0:0:
309,107,5794,1,8,1:0:0:0:
306,94,5871,1,8,0:1:0:0:
305,80,5947,1,8,0:1:0:0:
304,66,6024,6,0,P|257:77|218:92,1,76.8,4|0,1:2|0:0,0:0:0:0:
32,178,6332,1,0,1:0:0:0:
4,104,6486,1,0,1:0:0:0:
76,34,6640,5,0,1:0:0:0:
106,104,6794,1,0,1:0:0:0:
32,178,6947,5,0,1:0:0:0:
78,255,7101,1,0,1:0:0:0:
78,255,7178,1,0,1:0:0:0:
78,255,7255,5,0,1:0:0:0:
151,223,7409,1,2,1:0:0:0:
180,325,7563,5,0,1:0:0:0:
254,300,7717,1,2,1:0:0:0:
226,197,7871,5,2,1:0:0:0:
244,125,8024,1,2,1:0:0:0:
410,97,8178,5,2,1:0:0:0:
349,45,8332,2,0,P|405:55|520:79,1,144,4|0,1:2|0:0,0:0:0:0:
505,66,8640,1,0,1:0:0:0:
406,178,8794,5,0,1:0:0:0:
433,248,8947,1,8,1:0:0:0:
338,333,9101,5,0,1:0:0:0:
318,260,9255,1,10,1:0:0:0:
201,231,9409,5,8,1:0:0:0:
178,161,9563,1,10,1:0:0:0:
287,87,9717,5,4,1:2:0:0:
217,49,9871,1,10,1:0:0:0:
217,49,9947,1,8,1:0:0:0:
217,49,10024,5,8,1:0:0:0:
122,251,10178,1,10,1:0:0:0:
122,251,10255,1,8,1:0:0:0:
122,251,10332,6,0,P|127:213|138:147,1,57.5999982421876,8|8,2:1|2:1,0:0:0:0:
206,240,10486,2,0,P|211:202|222:136,1,57.5999982421876,10|8,2:1|2:1,0:0:0:0:
290,228,10640,2,0,P|295:190|306:124,1,57.5999982421876,8|8,2:1|2:1,0:0:0:0:
182,318,10794,1,10,2:1:0:0:
182,318,10871,1,8,2:1:0:0:
182,318,10947,6,0,B|129:325|97:288|120:282|82:247|26:256,1,172.799994726563,6|0,1:2|0:0,0:0:0:0:
17,263,11255,2,0,P|22:227|27:194,1,57.5999982421876,8|0,2:1|0:0,0:0:0:0:
0,63,11409,2,0,P|65:53|149:35,1,115.199996484375,2|0,0:0|1:0,0:0:0:0:
272,43,11717,2,0,P|263:74|260:117,1,57.5999982421876,2|0,1:0|0:0,0:0:0:0:
130,174,11871,2,0,P|123:153|85:103,1,57.5999982421876,8|0,1:0|0:0,0:0:0:0:
208,165,12024,6,0,P|265:179|376:290,1,172.799994726563,4|0,1:2|0:0,0:0:0:0:
369,266,12332,2,0,P|383:219|395:189,1,57.5999982421876,2|0,1:0|0:0,0:0:0:0:
484,131,12486,1,8,1:0:0:0:
430,31,12640,6,0,P|360:56|266:86,1,144.000005493164,4|0,1:2|0:0,0:0:0:0:
252,258,12947,1,2,0:0:0:0:
351,143,13101,1,8,2:1:0:0:
218,56,13255,1,2,0:0:0:0:
218,56,13332,1,8,1:0:0:0:
218,56,13409,5,4,1:2:0:0:
266,152,13563,1,2,0:0:0:0:
147,9,13717,2,0,P|132:88|114:169,1,144.000005493164,8|2,1:0|0:0,0:0:0:0:
134,303,14024,1,2,1:0:0:0:
45,184,14178,1,2,1:2:0:0:
134,303,14332,1,10,1:0:0:0:
118,150,14486,6,0,P|186:160|274:167,1,144,12|0,0:0|0:0,0:0:0:0:
269,177,14794,2,0,P|288:221|294:279,1,96,12|8,0:0|1:0,0:0:0:0:
427,334,15101,2,0,P|447:255|448:170,1,144,12|0,0:0|0:0,0:0:0:0:
453,183,15409,2,0,P|429:174|400:139,1,48,12|0,0:0|0:0,0:0:0:0:
339,75,15563,2,0,P|316:90|274:102,1,48,8|0,1:0|0:0,0:0:0:0:
260,166,15717,1,0,1:0:0:0:
260,166,15794,1,0,1:0:0:0:
260,166,15871,6,0,B|277:119|256:79|256:79|201:79|163:20,1,172.799994726563,4|0,1:2|0:0,0:0:0:0:
197,35,16178,2,0,P|98:49|100:146,1,172.799994726563,8|0,2:1|0:0,0:0:0:0:
97,120,16486,1,0,1:0:0:0:
26,171,16640,1,2,0:0:0:0:
171,224,16794,1,8,2:1:0:0:
97,120,16947,6,0,P|125:216|126:299,1,172.799994726563,4|0,0:0|0:0,0:0:0:0:
137,303,17255,2,0,P|119:294|70:285,1,57.5999982421876,0|0,1:0|0:0,0:0:0:0:
37,226,17409,1,10,1:0:0:0:
97,120,17563,6,0,B|176:138|223:35|223:35|205:86|218:124,1,230.39999296875,4|0,1:0|1:0,0:0:0:0:
344,225,18024,1,8,0:1:0:0:
204,190,18178,1,2,0:0:0:0:
204,190,18255,1,8,0:1:0:0:
204,190,18332,5,4,0:0:0:0:
293,76,18486,1,2,1:2:0:0:
249,258,18640,1,8,0:1:0:0:
389,161,18794,1,2,1:2:0:0:
204,190,18947,6,0,P|165:201|70:223,1,115.199996484375,8|8,0:1|1:0,0:0:0:0:
79,209,19178,1,0,0:0:0:0:
67,200,19255,2,0,L|77:110,1,57.5999982421876,8|0,0:1|0:0,0:0:0:0:
134,58,19409,6,0,P|231:75|264:157,1,172.799994726563,6|0,1:2|0:0,0:0:0:0:
279,139,19717,1,4,1:2:0:0:
213,304,19871,1,4,1:2:0:0:
414,338,20332,1,8,0:1:0:0:
415,326,20408,1,8,0:1:0:0:
417,315,20485,1,8,0:1:0:0:
420,304,20562,1,8,0:1:0:0:
425,293,20639,1,8,0:1:0:0:
429,282,20717,1,8,0:1:0:0:
435,273,20794,6,0,B|407:237|361:231|361:231|354:280|301:278,1,158.400004833985,4|0,1:2|0:0,0:0:0:0:
303,281,21101,2,0,P|269:251|278:170,1,105.600003222656,8|0,0:1|0:0,0:0:0:0:
360,123,21409,1,0,1:0:0:0:
290,27,21563,2,0,P|244:32|185:42,1,105.600003222656,0|8,1:0|0:1,0:0:0:0:
26,134,21871,6,0,P|72:139|209:167,1,158.400004833985,0|0,1:0|0:0,0:0:0:0:
195,151,22178,1,0,1:0:0:0:
90,247,22332,1,8,0:1:0:0:
243,223,22486,6,0,P|227:133|223:61,1,158.400004833985,2|0,0:0|0:0,0:0:0:0:
232,50,22794,1,0,1:0:0:0:
311,147,22947,1,8,0:1:0:0:
141,76,23101,1,2,0:0:0:0:
299,14,23255,6,0,P|376:45|408:123,1,158.400004833985,0|0,1:0|0:0,0:0:0:0:
422,126,23563,2,0,P|376:143|314:178,1,105.600003222656,8|0,0:1|0:0,0:0:0:0:
193,243,23871,1,0,1:0:0:0:
270,113,24024,1,0,1:0:0:0:
129,194,24178,1,8,0:1:0:0:
277,301,24332,6,0,P|201:283|111:271,1,158.400004833985,2|0,1:0|0:0,0:0:0:0:
102,284,24640,5,8,0:0:0:0:
190,172,24794,1,8,0:1:0:0:
137,355,24947,1,8,1:2:0:0:
46,229,25101,5,8,1:0:0:0:
0,355,25255,1,2,0:1:0:0:
12,350,25331,1,2,1:0:0:0:
24,346,25409,1,10,1:0:0:0:
37,342,25485,1,0,1:0:0:0:
50,339,25563,6,0,B|32:278|90:232|90:232|87:190|7:157,1,216.000008239746,4|0,1:2|0:0,0:0:0:0:
17,160,25871,2,0,P|67:139|111:122,1,72.0000027465821,2|0,1:0|0:0,0:0:0:0:
100,23,26024,2,0,P|150:44|194:61,1,72.0000027465821,8|0,1:0|0:0,0:0:0:0:
249,130,26178,6,0,B|264:179|240:215|240:215|291:157|371:147,1,216.000008239746,4|0,1:2|0:0,0:0:0:0:
357,140,26486,2,0,P|406:175|381:237,1,72.0000027465821,0|0,1:0|0:0,0:0:0:0:
484,252,26640,2,0,P|478:311|411:321,1,72.0000027465821,8|0,1:0|0:0,0:0:0:0:
392,380,26794,6,0,B|369:324|303:320|303:320|303:268|354:222,1,216.000008239746,4|0,1:2|0:0,0:0:0:0:
355,241,27101,2,0,P|316:223|281:214,1,72.0000027465821,2|0,1:0|0:0,0:0:0:0:
213,105,27255,2,0,P|164:125|151:174,1,72.0000027465821,8|0,1:0|0:0,0:0:0:0:
134,250,27409,6,0,B|200:201|277:196|277:196|237:191|195:166,1,216.000008239746,4|0,1:2|0:0,0:0:0:0:
257,43,27717,1,2,1:0:0:0:
93,186,27871,1,8,0:1:0:0:
75,187,27947,1,0,1:0:0:0:
58,182,28024,1,2,1:0:0:0:
44,170,28101,1,8,1:0:0:0:
36,154,28178,6,0,P|124:178|150:265,1,158.400004833985,4|0,1:2|0:0,0:0:0:0:
168,245,28486,2,0,P|180:161|199:104,1,105.600003222656,8|0,0:1|0:0,0:0:0:0:
258,12,28794,1,0,1:0:0:0:
127,88,28947,1,0,1:0:0:0:
254,196,29101,1,8,1:0:0:0:
258,12,29255,6,0,P|340:23|421:35,1,158.400004833985,0|0,1:0|0:0,0:0:0:0:
428,46,29563,1,0,1:0:0:0:
309,139,29717,1,8,0:1:0:0:
459,114,29871,6,0,P|431:208|424:295,1,158.400004833985
414,281,30178,1,0,1:0:0:0:
309,139,30332,1,8,0:1:0:0:
500,240,30486,1,2,0:0:0:0:
382,109,30640,6,0,P|292:100|221:91,1,158.400004833985,2|0,1:0|0:0,0:0:0:0:
214,81,30947,2,0,P|181:126|204:208,1,105.600003222656,8|2,0:1|0:0,0:0:0:0:
204,315,31255,1,0,1:0:0:0:
263,176,31409,1,0,1:0:0:0:
143,264,31563,1,8,1:0:0:0:
181,173,31717,6,0,P|269:196|351:222,1,158.400004833985,2|0,1:0|0:0,0:0:0:0:
347,207,32024,1,8,1:0:0:0:
439,153,32178,1,8,1:0:0:0:
319,292,32332,1,8,0:0:0:0:
323,133,32486,5,8,0:0:0:0:
466,227,32640,1,2,1:0:0:0:
319,292,32794,1,10,1:0:0:0:
400,113,32947,6,0,B|327:119|291:74|317:71|283:22|199:28,1,216.000008239746,4|0,1:2|0:0,0:0:0:0:
199,34,33255,2,0,B|170:68|170:68|195:126,1,72.0000027465821,2|0,1:0|0:0,0:0:0:0:
297,211,33409,2,0,P|262:204|218:201,1,72.0000027465821,8|0,1:0|0:0,0:0:0:0:
80,148,33563,6,0,P|188:193|207:303,1,216.000008239746,4|0,1:2|0:0,0:0:0:0:
226,293,33871,2,0,P|193:301|146:328,1,72.0000027465821,2|0,1:0|0:0,0:0:0:0:
44,216,34024,2,0,B|18:204|18:204|-7:144,1,72.0000027465821,8|0,1:0|0:0,0:0:0:0:
180,93,34178,6,0,B|250:103|309:44|309:44|275:54|194:6,1,216.000008239746,4|0,1:2|0:0,0:0:0:0:
230,17,34486,2,0,P|210:44|214:103,1,72.0000027465821,2|0,1:0|0:0,0:0:0:0:
275,190,34640,2,0,P|311:194|368:211,1,72.0000027465821,8|0,1:0|0:0,0:0:0:0:
475,120,34794,6,0,P|396:165|382:296,1,216.000008239746,4|0,0:2|0:0,0:0:0:0:
385,302,35101,1,2,1:0:0:0:
362,294,35177,1,2,0:0:0:0:
338,288,35254,1,8,0:1:0:0:
315,284,35331,1,0,1:0:0:0:
291,280,35408,1,8,2:1:0:0:
267,277,35485,1,8,0:1:0:0:
243,275,35563,6,0,P|229:217|190:84,1,158.400004833985,4|0,1:2|0:0,0:0:0:0:
214,109,35871,2,0,P|271:118|321:124,1,105.600003222656,8|0,2:1|0:0,0:0:0:0:
393,44,36178,1,0,1:0:0:0:
306,201,36332,1,0,1:0:0:0:
437,106,36486,1,8,1:0:0:0:
440,258,36640,6,0,P|366:267|278:282,1,158.400004833985,2|0,1:0|0:0,0:0:0:0:
273,292,36947,1,0,1:0:0:0:
318,123,37101,1,8,1:0:0:0:
188,277,37255,6,0,P|168:207|133:119,1,158.400004833985,0|0,1:0|0:0,0:0:0:0:
150,111,37563,1,0,1:0:0:0:
309,201,37717,1,8,1:0:0:0:
354,15,37871,6,0,P|270:39|235:144,1,172.799994726563,4|0,1:2|0:0,0:0:0:0:
243,125,38178,1,0,1:0:0:0:
411,145,38332,5,0,1:0:0:0:
396,221,38486,1,10,1:0:0:0:
268,302,38640,5,0,1:0:0:0:
245,230,38794,1,10,1:1:0:0:
115,210,38947,5,8,1:1:0:0:
76,276,39101,2,0,P|60:184|47:125,1,115.199996484375,4|2,1:2|1:0,0:0:0:0:
188,58,39409,5,0,1:0:0:0:
115,30,39563,1,8,1:0:0:0:
55,162,39717,5,10,1:0:0:0:
129,192,39871,1,0,1:0:0:0:
252,122,40024,5,10,1:1:0:0:
252,122,40101,1,2,1:0:0:0:
252,122,40178,2,0,P|240:197|232:282,1,115.199996484375,8|10,1:1|1:0,0:0:0:0:
403,354,40486,6,0,B|415:302|463:279|463:279|420:259|389:229,1,158.400004833985,4|0,1:2|0:0,0:0:0:0:
411,234,40794,2,0,P|356:246|285:262,1,105.600003222656,8|0,1:0|0:0,0:0:0:0:
217,352,41101,1,0,1:0:0:0:
271,189,41255,1,0,1:0:0:0:
138,278,41409,1,8,1:0:0:0:
207,146,41563,6,0,P|292:119|296:12,1,158.400004833985,0|0,1:0|0:0,0:0:0:0:
300,46,41871,1,0,1:0:0:0:
416,119,42024,1,8,1:0:0:0:
307,256,42178,6,0,P|205:278|131:305,1,158.400004833985,0|0,1:0|0:0,0:0:0:0:
139,284,42486,1,0,1:0:0:0:
207,146,42640,1,8,1:0:0:0:
68,255,42794,1,0,1:0:0:0:
68,255,42871,1,0,1:0:0:0:
68,255,42947,5,4,1:2:0:0:
32,178,43101,1,2,1:0:0:0:
153,118,43255,5,8,1:0:0:0:
163,43,43409,1,10,1:0:0:0:
19,27,43563,5,0,1:0:0:0:
9,102,43717,1,10,1:0:0:0:
138,193,43871,5,8,1:0:0:0:
187,137,44024,2,0,P|178:231|173:318,1,172.799994726563,4|0,1:2|0:0,0:0:0:0:
161,325,44332,5,0,1:0:0:0:
268,236,44486,1,8,1:0:0:0:
102,277,44640,1,10,1:0:0:0:
288,360,44794,1,0,1:0:0:0:
290,345,44870,1,0,1:0:0:0:
293,331,44947,1,10,1:1:0:0:
296,317,45024,1,0,1:0:0:0:
300,303,45101,1,8,1:1:0:0:
444,191,45255,1,2,1:0:0:0:
444,191,45332,1,8,1:1:0:0:
444,191,45409,6,0,P|361:176|331:92,1,158.400004833985,4|0,1:2|0:0,0:0:0:0:
316,122,45717,2,0,P|321:77|332:-2,1,105.600003222656,8|0,1:0|0:0,0:0:0:0:
215,152,46024,1,0,1:0:0:0:
400,79,46178,1,0,1:0:0:0:
252,10,46332,1,8,1:0:0:0:
372,179,46486,6,0,P|384:234|401:304,1,105.600003222656,0|0,1:0|0:0,0:0:0:0:
328,367,46794,1,0,1:0:0:0:
473,257,46947,1,8,1:0:0:0:
372,179,47101,6,0,P|284:166|200:150,1,158.400004833985,0|0,1:0|0:0,0:0:0:0:
199,164,47409,1,0,1:0:0:0:
286,67,47563,1,8,1:0:0:0:
164,247,47717,1,0,1:0:0:0:
164,247,47794,1,0,1:0:0:0:
164,247,47871,6,0,P|147:155|127:63,1,172.799994726563,4|0,1:2|0:0,0:0:0:0:
115,70,48178,1,0,1:0:0:0:
228,133,48332,1,10,1:0:0:0:
328,20,48486,5,0,1:1:0:0:
254,0,48640,1,10,1:1:0:0:
290,180,48794,5,8,1:0:0:0:
353,140,48947,2,0,P|314:251|312:321,1,172.799994726563,4|0,1:2|0:0,0:0:0:0:
300,318,49255,2,0,P|261:297|265:260,1,57.5999982421876,0|0,1:0|0:0,0:0:0:0:
231,165,49409,2,0,B|176:162|138:219|138:219|176:235|192:268,1,172.799994726563,12|0,1:2|0:0,0:0:0:0:
175,268,49717,1,0,1:0:0:0:
87,364,49871,1,10,1:1:0:0:
27,227,50024,1,10,1:1:0:0:
17,216,50100,1,0,1:0:0:0:
10,203,50177,1,10,1:0:0:0:
8,189,50254,1,8,1:0:0:0:
11,175,50332,6,0,P|106:155|190:130,1,158.400004833985,4|0,1:2|0:0,0:0:0:0:
173,127,50640,2,0,P|228:150|248:209,1,105.600003222656,8|0,1:0|0:0,0:0:0:0:
177,336,50947,1,0,1:0:0:0:
305,244,51101,1,0,1:0:0:0:
170,217,51255,1,8,1:0:0:0:
330,317,51409,6,0,P|357:214|380:137,1,158.400004833985,0|0,1:0|0:0,0:0:0:0:
364,149,51717,1,0,1:0:0:0:
414,40,51871,1,8,1:0:0:0:
263,16,52024,6,0,P|277:75|295:137,1,105.600003222656,2|2,1:0|0:0,0:0:0:0:
432,231,52332,1,2,1:0:0:0:
272,194,52486,1,8,1:0:0:0:
435,114,52640,1,2,0:1:0:0:
363,275,52794,5,4,1:2:0:0:
272,194,52947,2,0,P|265:223|256:274,1,52.8000016113282,8|0,1:0|0:0,0:0:0:0:
150,365,53101,2,0,P|179:358|230:349,1,52.8000016113282,10|0,1:0|0:0,0:0:0:0:
85,324,53255,1,2,1:0:0:0:
85,324,53332,1,0,1:0:0:0:
85,324,53409,2,0,L|57:205,1,105.600003222656,8|10,1:0|1:0,0:0:0:0:
60,221,53640,1,0,1:0:0:0:
60,221,53717,1,0,1:0:0:0:
0,31,53871,6,0,P|89:39|128:111,1,158.400004833985,4|0,1:2|0:0,0:0:0:0:
141,97,54178,2,0,P|126:133|122:168,1,52.8000016113282,4|0,1:2|0:0,0:0:0:0:
151,258,54332,1,4,1:2:0:0:
151,258,54947,6,0,P|179:272|190:328,1,72,2|0,0:0|0:0,0:0:0:0:
206,320,55255,6,0,P|223:232|252:136,1,172.799994726563,4|0,1:2|0:0,0:0:0:0:
257,144,55563,2,0,P|179:132|120:123,1,115.199996484375,8|2,1:0|0:0,0:0:0:0:
71,31,55871,1,0,1:0:0:0:
151,207,56024,1,0,1:0:0:0:
35,103,56178,1,8,1:0:0:0:
213,161,56332,6,0,B|263:185|274:235|274:235|230:260|230:321,1,172.799994726563,4|0,1:2|0:0,0:0:0:0:
247,312,56640,1,0,1:0:0:0:
378,241,56794,1,8,1:0:0:0:
264,99,56947,6,0,P|208:121|81:161,1,172.799994726563,4|0,1:2|0:0,0:0:0:0:
88,174,57255,2,0,B|69:167|69:167|56:110,1,57.5999982421876,0|0,1:0|0:0,0:0:0:0:
145,60,57409,1,8,1:0:0:0:
141,244,57563,1,0,1:2:0:0:
141,244,57640,1,0,1:0:0:0:
141,244,57717,5,4,1:2:0:0:
130,322,57871,1,2,1:2:0:0:
246,368,58024,5,8,1:0:0:0:
262,293,58178,1,2,1:2:0:0:
394,261,58332,5,0,1:0:0:0:
385,346,58486,1,2,1:2:0:0:
385,346,58563,1,0,1:0:0:0:
385,346,58640,1,8,1:0:0:0:
220,229,58794,6,0,P|231:146|245:52,1,172.799994726563,12|0,1:2|0:0,0:0:0:0:
258,46,59101,1,0,1:0:0:0:
150,149,59255,1,8,1:0:0:0:
314,118,59409,2,0,P|377:160|363:274,1,172.799994726563,12|0,1:2|0:0,0:0:0:0:
389,267,59717,2,0,P|362:273|313:282,1,57.5999982421876,8|0,0:0|1:0,0:0:0:0:
276,349,59871,1,8,1:0:0:0:
465,236,60024,1,8,1:0:0:0:
288,217,60178,6,0,P|203:209|104:192,1,172.799994726563,4|0,1:2|0:0,0:0:0:0:
101,187,60486,2,0,P|115:266|127:332,1,115.199996484375,8|2,1:0|0:0,0:0:0:0:
24,355,60794,1,0,1:0:0:0:
202,280,60947,1,0,1:0:0:0:
29,241,61101,1,8,1:0:0:0:
225,358,61255,6,0,P|235:258|259:157,1,172.799994726563,4|0,1:2|0:0,0:0:0:0:
268,179,61563,1,0,1:0:0:0:
152,258,61717,1,8,1:0:0:0:
303,351,61871,2,0,B|374:342|405:286|405:286|343:258,1,172.799994726563,4|0,1:2|0:0,0:0:0:0:
353,250,62178,1,2,1:0:0:0:
151,75,62332,2,0,P|167:130|182:212,1,115.199996484375,8|0,1:0|0:0,0:0:0:0:
362,266,62640,6,0,P|379:175|407:81,1,172.799994726563,4|0,1:2|0:0,0:0:0:0:
409,86,62947,2,0,P|341:75|278:55,1,115.199996484375,8|2,1:0|0:0,0:0:0:0:
178,186,63255,1,0,1:0:0:0:
311,148,63409,1,2,1:0:0:0:
201,269,63563,1,8,1:0:0:0:
74,60,63717,6,0,P|97:150|110:241,1,172.799994726563,6|0,1:2|0:0,0:0:0:0:
122,239,64024,1,2,1:0:0:0:
172,99,64178,1,8,1:0:0:0:
34,235,64332,1,2,0:0:0:0:
153,312,64486,1,8,0:1:0:0:
174,306,64562,1,8,0:1:0:0:
195,302,64639,1,8,0:1:0:0:
216,297,64716,1,8,0:1:0:0:
237,292,64793,1,8,1:0:0:0:
258,288,64870,1,8,1:0:0:0:
279,283,64947,1,8,1:0:0:0:
300,279,65024,1,8,1:0:0:0:
321,274,65101,6,0,B|376:250|366:188|366:188|314:173|293:120,1,172.799994726563,4|0,1:2|0:0,0:0:0:0:
300,161,65409,2,0,B|278:127|278:127|326:42,1,115.199996484375,8|2,1:0|0:0,0:0:0:0:
201,0,65717,1,0,1:0:0:0:
378,110,65871,1,0,1:0:0:0:
208,164,66024,1,8,1:0:0:0:
408,35,66178,6,0,P|418:112|431:236,1,172.799994726563,4|0,1:2|0:0,0:0:0:0:
448,218,66486,1,0,1:0:0:0:
301,361,66640,1,8,1:0:0:0:
349,172,66794,6,0,P|289:189|181:218,1,172.799994726563,4|0,1:2|0:0,0:0:0:0:
172,236,67101,1,0,1:0:0:0:
246,51,67255,1,8,1:0:0:0:
105,197,67409,1,2,1:2:0:0:
248,300,67563,5,4,1:2:0:0:
278,230,67717,1,2,1:0:0:0:
406,258,67871,5,8,1:0:0:0:
427,184,68024,1,2,0:0:0:0:
427,184,68101,1,2,0:0:0:0:
427,184,68178,1,0,1:0:0:0:
232,170,68332,5,10,1:0:0:0:
262,100,68486,1,0,1:0:0:0:
248,300,68640,6,0,P|149:311|66:322,1,172.799994726563,12|0,1:2|0:0,0:0:0:0:
59,334,68947,1,8,1:0:0:0:
159,185,69101,1,8,1:0:0:0:
42,250,69255,2,0,P|30:190|9:124,1,115.199996484375,12|8,1:2|1:0,0:0:0:0:
147,7,69563,1,8,1:0:0:0:
141,25,69639,1,0,1:0:0:0:
136,43,69716,1,8,1:0:0:0:
131,62,69793,1,0,1:0:0:0:
127,81,69870,1,8,1:0:0:0:
124,100,69947,1,8,1:0:0:0:
122,119,70024,6,0,B|177:81|242:91|242:91|212:115|193:158,1,172.799994726563,4|0,1:2|0:0,0:0:0:0:
200,133,70332,2,0,P|208:63|224:-13,1,115.199996484375,8|2,1:0|0:0,0:0:0:0:
285,165,70640,1,0,1:0:0:0:
168,222,70794,1,2,1:0:0:0:
318,42,70947,1,8,1:0:0:0:
244,251,71101,6,0,P|159:260|64:287,1,172.799994726563,4|0,1:2|0:0,0:0:0:0:
64,297,71409,2,0,B|25:253|25:253|47:178,1,115.199996484375,0|8,1:2|1:0,0:0:0:0:
95,20,71717,2,0,P|127:21|185:97,1,115.199996484375,4|0,1:2|1:0,0:0:0:0:
334,108,72024,5,2,1:0:0:0:
502,98,72178,2,0,P|505:66|517:16,1,57.5999982421876,8|0,1:0|0:0,0:0:0:0:
437,17,72332,2,0,P|431:45|429:73,1,57.5999982421876,8|0,1:0|0:0,0:0:0:0:
366,180,72486,6,0,P|292:133|193:107,1,172.799994726563,4|0,1:2|0:0,0:0:0:0:
205,93,72794,2,0,P|160:112|88:142,1,115.199996484375,8|2,1:0|0:0,0:0:0:0:
0,218,73101,5,0,1:0:0:0:
157,264,73255,1,2,1:0:0:0:
42,83,73409,1,8,0:1:0:0:
97,317,73563,1,2,1:0:0:0:
97,317,73640,1,2,0:0:0:0:
97,317,73717,5,4,1:2:0:0:
157,264,73871,1,2,1:0:0:0:
67,139,74024,5,8,1:0:0:0:
7,192,74178,1,2,1:0:0:0:
189,197,74332,5,10,1:0:0:0:
320,317,74486,1,10,1:0:0:0:
322,297,74562,1,8,0:1:0:0:
324,278,74639,1,10,1:0:0:0:
327,259,74716,1,8,1:0:0:0:
330,240,74793,1,10,1:0:0:0:
333,222,74870,1,8,1:0:0:0:
337,203,74947,1,4,1:2:0:0:
256,192,75024,12,0,76794,1:0:0:0:
337,203,77409,6,0,P|330:183|311:124,1,67.1999979492188,4|0,1:2|0:0,0:0:0:0:
159,92,77717,5,0,1:0:0:0:
174,19,77871,1,0,1:0:0:0:
43,45,78024,5,2,1:0:0:0:
28,118,78178,1,0,1:0:0:0:
210,150,78332,5,0,1:0:0:0:
137,165,78486,1,2,1:0:0:0:
88,354,78640,5,0,1:0:0:0:
15,369,78794,1,10,1:0:0:0:
186,228,78947,5,8,1:0:0:0:
259,213,79101,1,10,1:0:0:0:
67,134,79255,6,0,P|73:98|82:66,1,57.5999982421876,10|0,1:0|0:1,0:0:0:0:
146,120,79409,2,0,P|152:84|161:52,1,57.5999982421876,10|0,1:0|0:1,0:0:0:0:
259,213,79563,6,0,P|265:249|274:281,1,57.5999982421876,10|0,1:0|0:1,0:0:0:0:
338,227,79717,2,0,P|344:263|353:295,1,57.5999982421876,10|0,1:0|0:1,0:0:0:0:
417,179,79885,6,0,B|445:125|383:73|383:73|404:31|455:11,1,201.599993847656,4|0,1:2|0:0,0:0:0:0:
460,25,80192,1,8,1:0:0:0:
417,179,80346,6,0,P|329:140|212:104,1,201.599993847656,2|0,0:0|0:0,0:0:0:0:
217,98,80654,2,0,P|179:122|176:165,1,57.5999982421876,2|0,1:0|0:0,0:0:0:0:
150,281,80808,2,0,P|112:257|109:214,1,57.5999982421876,8|0,1:0|0:0,0:0:0:0:
43,88,80961,6,0,P|153:143|175:224,1,201.599993847656,4|0,1:2|0:0,0:0:0:0:
191,221,81269,2,0,P|165:228|118:243,1,57.5999982421876,2|0,1:0|0:0,0:0:0:0:
73,344,81423,2,0,P|99:351|146:366,1,57.5999982421876,8|0,1:0|0:0,0:0:0:0:
324,356,81577,6,0,B|396:349|419:288|419:288|365:275|362:221,1,201.599993847656,4|0,1:2|0:0,0:0:0:0:
350,232,81885,1,2,1:0:0:0:
295,129,82038,1,8,1:0:0:0:
438,212,82192,1,2,0:0:0:0:
291,284,82346,5,4,1:2:0:0:
263,214,82500,1,0,1:0:0:0:
117,256,82654,5,8,1:0:0:0:
89,186,82808,1,2,1:2:0:0:
285,12,82961,5,8,1:0:0:0:
362,28,83115,1,2,1:2:0:0:
263,214,83269,5,8,1:0:0:0:
187,193,83423,2,0,B|169:111|84:96|84:96|126:113|126:180,1,201.599993847656,12|0,1:2|0:0,0:0:0:0:
110,144,83731,5,8,1:2:0:0:
256,80,83885,1,8,1:0:0:0:
102,0,84038,1,8,1:0:0:0:
258,156,84192,5,8,1:0:0:0:
370,33,84346,1,8,1:0:0:0:
370,33,84423,1,0,1:0:0:0:
370,33,84500,2,0,P|396:58|373:114,1,67.1999979492188,2|0,1:0|0:0,0:0:0:0:
258,156,84654,2,0,P|304:164|353:175,1,67.1999979492188,0|0,1:0|1:0,0:0:0:0:
468,129,84808,6,0,P|373:152|357:270,1,201.599993847656,4|0,1:2|0:0,0:0:0:0:
333,256,85115,2,0,B|364:267|372:308|372:308|432:288|437:245,1,134.399995898438,8|0,1:0|0:0,0:0:0:0:
468,129,85423,1,0,1:0:0:0:
346,61,85577,1,2,1:0:0:0:
512,0,85731,1,8,1:1:0:0:
290,9,85885,6,0,B|240:60|167:71|167:71|223:81|258:118,1,201.599993847656,4|0,1:2|0:0,0:0:0:0:
233,103,86192,1,2,1:0:0:0:
334,258,86346,1,8,1:1:0:0:
229,181,86500,6,0,P|143:205|125:335,1,216.000008239746,4|0,1:2|0:0,0:0:0:0:
131,328,86808,1,2,1:2:0:0:
257,256,86961,1,8,1:1:0:0:
99,136,87115,1,2,1:2:0:0:
295,323,87269,6,0,P|304:245|323:141,1,158.400004833985,4|0,1:2|0:0,0:0:0:0:
337,171,87577,2,0,P|324:127|305:54,1,105.600003222656,8|2,1:0|0:0,0:0:0:0:
409,17,87885,2,0,P|447:31|460:66,1,52.8000016113282,0|0,1:0|0:0,0:0:0:0:
508,125,88038,1,2,0:0:0:0:
508,125,88115,1,2,1:0:0:0:
508,125,88192,1,8,1:0:0:0:
453,39,88346,6,0,B|472:11|421:-34|367:-9|342:81|448:132,1,211.200006445313,4|2,1:2|1:2,0:0:0:0:
369,229,88808,1,8,1:0:0:0:
508,125,88961,1,2,1:2:0:0:
434,322,89115,1,8,1:0:0:0:
410,317,89191,1,8,1:0:0:0:
388,313,89268,1,2,1:0:0:0:
365,308,89345,1,8,1:0:0:0:
342,302,89422,1,8,0:1:0:0:
319,296,89499,1,8,1:0:0:0:
297,290,89576,1,10,1:0:0:0:
274,284,89653,1,10,1:0:0:0:
252,277,89731,5,4,1:2:0:0:
226,203,89885,1,2,0:0:0:0:
331,80,90038,5,8,1:0:0:0:
355,9,90192,1,2,0:0:0:0:
172,44,90346,5,0,1:0:0:0:
148,115,90500,1,2,1:2:0:0:
148,115,90577,1,0,1:0:0:0:
148,115,90654,1,8,1:0:0:0:
226,203,90808,6,0,P|149:193|53:177,1,158.400004833985,4|0,1:2|0:0,0:0:0:0:
58,192,91115,1,2,1:0:0:0:
150,372,91269,1,8,1:1:0:0:
246,279,91423,6,0,P|265:193|299:103,1,158.400004833985,2|0,1:0|0:0,0:0:0:0:
274,114,91731,1,2,0:0:0:0:
400,0,91885,1,8,1:1:0:0:
205,77,92038,1,2,0:0:0:0:
350,190,92192,5,4,1:2:0:0:
482,117,92346,1,8,1:1:0:0:
482,117,92423,1,8,1:1:0:0:
482,117,92500,2,0,P|463:185|453:240,1,105.600003222656,10|10,1:0|0:1,0:0:0:0:
350,190,92808,5,2,1:0:0:0:
341,279,92961,2,0,P|323:203|296:105,1,158.400004833985,10|0,1:1|0:0,0:0:0:0:
311,112,93269,2,0,P|236:104|162:96,1,124.79999428711,8|8,1:0|1:1,0:0:0:0:
76,193,93577,5,8,0:0:0:0:
65,192,93653,1,0,0:0:0:0:
55,189,93730,1,2,0:1:0:0:
47,183,93807,1,0,0:0:0:0:
40,176,93884,1,8,0:0:0:0:
35,166,93961,1,0,0:0:0:0:
33,156,94038,5,10,1:1:0:0:
59,161,94115,1,0,0:0:0:0:
83,172,94192,1,8,0:0:0:0:
104,189,94269,1,8,0:0:0:0:
120,209,94346,1,2,0:1:0:0:
132,234,94423,1,8,0:1:0:0:
137,260,94500,1,0,1:0:0:0:
137,286,94577,1,0,1:0:0:0:
125,308,94654,6,0,P|116:271|111:235,1,52.8000016113282,6|0,0:0|0:0,0:0:0:0:
205,314,94808,2,0,P|196:277|191:241,1,52.8000016113282,2|0,0:0|0:0,0:0:0:0:
332,185,94961,6,0,P|323:222|318:258,1,52.8000016113282,10|0,0:1|0:0,0:0:0:0:
260,154,95115,2,0,P|251:191|246:227,1,52.8000016113282,0|2,0:0|0:0,0:0:0:0:
377,288,95269,5,2,1:0:0:0:
512,214,95423,1,2,1:0:0:0:
335,361,95577,1,8,1:1:0:0:
332,185,95731,6,0,P|314:97|302:21,1,158.400004833985,4|0,1:2|0:0,0:0:0:0:
312,14,96038,2,0,P|272:28|245:41,1,52.8000016113282,2|2,0:0|0:0,0:0:0:0:
200,100,96192,1,8,1:1:0:0:
406,145,96346,1,2,0:0:0:0:
263,221,96500,6,0,P|223:289|185:365,2,158.400004833985,2|2|10,1:0|1:0|1:0,0:0:0:0:
200,100,97115,6,0,P|136:112|34:129,1,158.400004833985,4|2,1:2|2:0,0:0:0:0:
29,123,97423,2,0,P|54:176|82:229,1,105.600003222656,8|2,1:1|0:0,0:0:0:0:
201,366,97731,5,2,1:0:0:0:
59,297,97884,1,0,1:0:0:0:
59,297,97961,1,2,1:0:0:0:
59,297,98038,1,8,1:0:0:0:
263,221,98192,6,0,P|271:165|282:103,1,105.600003222656,6|0,1:2|0:0,0:0:0:0:
135,4,98500,1,4,1:2:0:0:
178,219,98654,2,0,P|247:254|262:367,1,158.400004833985,4|0,1:2|0:0,0:0:0:0:
267,348,98961,1,8,0:1:0:0:
292,340,99037,1,8,0:1:0:0:
317,332,99114,1,10,0:1:0:0:
342,324,99191,1,8,0:1:0:0:
367,316,99268,1,8,1:0:0:0:
392,308,99345,1,8,1:0:0:0:
417,299,99422,1,10,1:0:0:0:
442,290,99499,1,8,1:0:0:0:
467,281,99577,6,0,P|369:257|293:234,1,172.799994726563,4|0,1:2|0:0,0:0:0:0:
288,248,99885,2,0,B|258:228|258:228|288:142,1,115.199996484375,8|0,1:1|0:0,0:0:0:0:
438,41,100192,1,0,1:0:0:0:
362,178,100346,1,2,1:0:0:0:
279,0,100500,1,8,1:1:0:0:
437,209,100654,6,0,P|344:222|243:255,1,172.799994726563,4|0,1:2|0:0,0:0:0:0:
260,262,100961,1,0,1:0:0:0:
301,75,101115,1,8,1:0:0:0:
182,180,101269,6,0,P|222:248|241:339,1,172.799994726563,4|0,1:2|0:0,0:0:0:0:
254,352,101577,2,0,P|217:348|178:343,1,57.5999982421876,0|0,1:0|0:0,0:0:0:0:
150,276,101731,1,8,1:1:0:0:
325,289,101885,1,0,1:2:0:0:
325,289,101961,1,0,1:0:0:0:
325,289,102038,5,4,1:2:0:0:
345,209,102192,1,2,1:2:0:0:
512,174,102346,5,8,1:0:0:0:
481,243,102500,1,2,0:0:0:0:
327,73,102654,5,0,1:0:0:0:
299,145,102808,1,2,0:0:0:0:
299,145,102885,1,2,0:0:0:0:
299,145,102961,1,8,1:0:0:0:
154,223,103115,6,0,P|135:133|112:40,1,172.799994726563,12|0,1:2|0:0,0:0:0:0:
96,42,103423,1,0,1:0:0:0:
246,73,103577,1,8,1:0:0:0:
68,227,103731,6,0,P|145:258|204:353,1,172.799994726563,12|0,1:2|0:0,0:0:0:0:
215,344,104038,2,0,P|223:300|229:262,1,57.5999982421876,8|0,1:2|1:0,0:0:0:0:
275,228,104192,1,8,1:0:0:0:
160,122,104346,1,8,1:0:0:0:
290,7,104500,6,0,P|308:103|337:193,1,172.799994726563,4|0,1:2|0:0,0:0:0:0:
344,188,104808,2,0,B|392:164|392:164|414:89,1,115.199996484375,8|2,1:1|0:0,0:0:0:0:
216,92,105115,1,0,1:0:0:0:
287,246,105269,1,0,1:0:0:0:
117,189,105423,1,8,1:1:0:0:
344,188,105577,6,0,P|320:237|287:391,1,172.799994726563,4|0,1:2|0:0,0:0:0:0:
271,361,105885,1,0,1:0:0:0:
398,256,106038,1,8,1:0:0:0:
247,205,106192,6,0,B|180:199|148:149|148:149|200:118,1,172.799994726563,4|0,1:2|0:0,0:0:0:0:
198,107,106500,1,2,1:0:0:0:
396,0,106654,2,0,P|382:63|376:124,1,115.199996484375,8|0,1:1|0:0,0:0:0:0:
409,239,106961,6,0,P|343:256|215:294,1,172.799994726563,4|0,1:2|0:0,0:0:0:0:
236,299,107269,2,0,P|192:273|193:202,1,115.199996484375,8|2,1:1|0:0,0:0:0:0:
131,76,107577,1,0,1:0:0:0:
264,187,107731,1,2,1:0:0:0:
287,0,107885,1,8,1:0:0:0:
186,213,108038,6,0,P|306:234|379:278,1,172.799994726563,6|0,1:2|0:0,0:0:0:0:
367,252,108346,1,2,1:0:0:0:
287,357,108500,1,8,1:1:0:0:
446,224,108654,1,2,0:0:0:0:
337,84,108808,1,8,0:1:0:0:
315,79,108884,1,8,0:1:0:0:
294,75,108961,1,8,0:1:0:0:
273,70,109038,1,8,0:1:0:0:
252,65,109115,1,8,1:0:0:0:
231,60,109192,1,8,1:0:0:0:
210,55,109269,1,8,1:0:0:0:
189,50,109346,1,8,1:0:0:0:
168,44,109423,6,0,P|133:121|152:214,1,172.799994726563,4|0,1:2|0:0,0:0:0:0:
144,223,109731,2,0,P|210:207|278:193,1,115.199996484375,8|2,1:1|0:0,0:0:0:0:
357,61,110038,1,0,1:0:0:0:
290,270,110192,1,2,1:0:0:0:
420,164,110346,1,8,1:1:0:0:
256,197,110500,6,0,P|226:322|204:381,1,172.799994726563,4|0,1:2|0:0,0:0:0:0:
192,368,110808,1,0,1:0:0:0:
320,294,110961,1,8,1:0:0:0:
183,165,111115,6,0,P|289:126|308:39,1,172.799994726563,4|0,1:2|0:0,0:0:0:0:
326,82,111423,2,0,P|317:49|307:8,1,57.5999982421876,0|0,1:0|0:0,0:0:0:0:
221,19,111577,1,8,1:1:0:0:
405,111,111731,1,2,1:2:0:0:
314,209,111885,5,4,1:2:0:0:
388,241,112038,1,10,1:0:0:0:
246,354,112192,5,0,1:0:0:0:
170,324,112346,1,2,0:0:0:0:
170,324,112423,1,10,1:0:0:0:
170,324,112500,1,0,1:0:0:0:
288,136,112654,5,10,1:0:0:0:
213,108,112808,1,0,1:0:0:0:
107,262,112961,6,0,P|87:171|58:83,1,172.799994726563,12|0,1:2|0:0,0:0:0:0:
74,83,113269,1,0,1:0:0:0:
194,188,113423,1,8,1:0:0:0:
17,217,113577,5,12,1:2:0:0:
194,110,113731,1,0,1:0:0:0:
179,313,113885,5,8,0:0:0:0:
203,318,113961,1,8,0:0:0:0:
227,324,114038,1,0,1:0:0:0:
251,329,114115,1,0,1:0:0:0:
275,335,114192,1,8,1:0:0:0:
299,341,114269,1,8,1:0:0:0:
323,347,114346,6,0,B|384:269|384:269|339:173,1,172.799994726563,4|0,1:2|0:0,0:0:0:0:
365,189,114654,2,0,P|296:175|239:157,1,115.199996484375,8|2,1:1|0:0,0:0:0:0:
161,87,114961,1,0,1:0:0:0:
249,245,115115,1,2,1:0:0:0:
311,25,115269,1,8,1:1:0:0:
324,272,115423,6,0,P|225:284|140:310,1,172.799994726563,4|0,1:2|0:0,0:0:0:0:
148,317,115731,2,0,P|117:277|170:199,1,115.199996484375,0|8,1:0|1:0,0:0:0:0:
154,42,116038,2,0,P|216:70|266:88,1,115.199996484375,4|8,1:2|1:0,0:0:0:0:
402,161,116346,5,2,1:0:0:0:
265,164,116500,2,0,P|245:199|243:238,1,57.5999982421876,8|0,1:1|0:0,0:0:0:0:
171,183,116654,2,0,P|178:155|193:131,1,57.5999982421876,8|0,1:2|0:0,0:0:0:0:
260,86,116808,5,4,1:2:0:0:
335,63,116961,1,10,1:1:0:0:
319,226,117115,6,0,B|324:249|324:249|307:278,3,38.399998828125,10|2|2|2,1:0|0:0|0:0|0:0,0:0:0:0:
242,215,117423,5,10,1:0:0:0:
164,237,117577,1,2,1:1:0:0:
69,85,117731,5,8,1:0:0:0:
147,63,117885,1,4,1:2:0:0:
256,192,117961,12,2,120038,0:0:0:0:
