osu file format v14

[General]
AudioFilename: audio.mp3
AudioLeadIn: 0
PreviewTime: 54947
Countdown: 0
SampleSet: Soft
StackLeniency: 0.5
Mode: 0
LetterboxInBreaks: 0
WidescreenStoryboard: 1

[Editor]
Bookmarks: 1101,10947,20794,28178,35563,40486,45409,50332,54947,60178,65101,70024,77409,79885,84808,89731,92346,94654,97115,99577,104500,109423,114346,120038
DistanceSpacing: 1.1
BeatDivisor: 4
GridSize: 4
TimelineZoom: 2

[Metadata]
Title:Sugar Coaster Girl
TitleUnicode:Sugar Coaster Girl
Artist:Citrus and Ocean Colour
ArtistUnicode:Citrus and Ocean Colour
Creator:Enon
Version:ChocoMochi's Hyper
Source:pop'n music éclale
Tags:eclale popn lively rock japanese video game pop Tachinon TEA tell Suetsugu Kanon RIE♥chan Cycopton Wanpachi laplus asapbakery ChocoMochi silverin0 seegiirino Down ポップンミュジック エクラル bemani komani
BeatmapID:3632784
BeatmapSetID:1774229

[Difficulty]
HPDrainRate:4.5
CircleSize:2.8
OverallDifficulty:7
ApproachRate:8.5
SliderMultiplier:1.7
SliderTickRate:2

[Events]
//Background and Video events
0,0,"bg-chocomochi.jpg",0,0
//Break Periods
//Storyboard Layer 0 (Background)
//Storyboard Layer 1 (Fail)
//Storyboard Layer 2 (Pass)
//Storyboard Layer 3 (Foreground)
//Storyboard Layer 4 (Overlay)
//Storyboard Sound Samples

[TimingPoints]
-129,307.692307692308,4,2,1,70,1,0
486,-142.857142857143,4,2,1,70,0,0
1101,-125,4,2,1,70,0,0
6024,-111.111111111111,4,2,1,70,0,0
8332,-100,4,2,1,70,0,0
10947,-90.9090909090909,4,2,1,80,0,0
20793,-111.111111111111,4,2,1,70,0,0
25562,-100,4,2,1,70,0,0
28177,-111.111111111111,4,2,1,70,0,0
32947,-100,4,2,1,70,0,0
35562,-111.111111111111,4,2,1,70,0,0
50331,-100,4,2,1,70,0,0
54947,-142.857142857143,4,2,1,70,0,0
55255,-90.9090909090909,4,2,1,100,0,1
74947,-125,4,2,1,100,0,0
75024,-125,4,2,1,70,0,0
77408,-111.111111111111,4,2,1,70,0,0
78639,-100,4,2,1,70,0,0
79885,307.692307692308,4,2,1,80,1,0
97346,-100,4,2,0,80,0,0
97423,-100,4,2,1,80,0,0
99577,-90.9090909090909,4,2,1,100,0,1
118038,-100,4,2,1,50,0,0

[Colours]
Combo1 : 17,254,176
Combo2 : 173,255,95
Combo3 : 255,88,100
Combo4 : 255,94,55

[HitObjects]
256,308,486,22,0,B|220:256|256:228|308:200|244:128,1,178.5,2|0,0:0|0:0,0:0:0:0:
312,72,1101,22,0,L|256:35|198:72,2,136,4|0|0,1:2|1:0|1:0,0:0:0:0:
388,120,1871,1,0,0:0:0:0:
468,160,2024,1,0,1:0:0:0:
468,248,2178,6,0,B|424:248|408:272|408:272|392:248|344:248,1,136,8|0,2:1|0:0,0:0:0:0:
256,248,2640,1,0,1:0:0:0:
168,248,2794,2,0,B|123:248|107:272|107:272|91:248|47:248,1,136,8|0,2:1|0:0,0:0:0:0:
44,336,3255,1,0,1:0:0:0:
128,360,3409,2,0,P|148:356|168:336,1,34,8|8,2:1|2:1,0:0:0:0:
200,328,3563,6,0,L|256:365|314:328,2,136,4|0|0,1:2|1:0|1:0,0:0:0:0:
124,280,4332,1,0,0:0:0:0:
44,240,4486,1,0,1:0:0:0:
44,152,4640,6,0,B|88:152|104:128|104:128|120:152|168:152,1,136,8|0,2:1|0:0,0:0:0:0:
256,152,5101,1,0,1:0:0:0:
344,152,5255,2,0,B|389:152|405:128|405:128|421:152|465:152,1,136,8|8,2:1|2:1,0:0:0:0:
465,196,5640,1,8,2:1:0:0:
465,240,5717,2,0,L|465:308,1,68,2|8,1:0|0:1,0:0:0:0:
380,308,6024,5,4,1:2:0:0:
256,192,6332,1,0,1:0:0:0:
132,76,6640,1,0,1:0:0:0:
8,192,6947,1,0,1:0:0:0:
8,192,7101,1,0,1:0:0:0:
7,279,7255,6,0,P|25:313|59:328,1,76.5,0|2,1:0|1:0,0:0:0:0:
144,328,7563,2,0,P|178:313|195:279,1,76.5,0|2,1:0|1:0,0:0:0:0:
196,192,7871,2,0,P|178:158|144:143,2,76.5,2|2|2,1:0|1:0|1:0,0:0:0:0:
272,236,8332,6,0,L|444:236,1,170,4|0,1:2|1:0,0:0:0:0:
472,148,8794,1,0,1:0:0:0:
496,60,8947,2,0,L|320:60,1,170,8|10,1:0|1:0,0:0:0:0:
256,124,9409,1,8,1:0:0:0:
188,60,9563,6,0,L|16:60,1,170,10|10,1:0|1:0,0:0:0:0:
44,148,10024,1,8,1:0:0:0:
72,236,10178,1,10,1:0:0:0:
92,236,10255,1,8,1:0:0:0:
112,236,10332,2,0,L|180:236,3,42.5,8|8|10|8,2:1|2:1|2:1|2:1,0:0:0:0:
180,236,10640,2,0,L|232:236,3,42.5,8|8|10|8,2:1|2:1|2:1|2:1,0:0:0:0:
256,236,10947,6,0,P|268:188|248:136,2,93.5,6|0|8,1:2|0:0|2:1,0:0:0:0:
360,232,11409,2,0,P|347:276|360:321,1,93.5,2|0,0:0|1:0,0:0:0:0:
464,320,11717,2,0,P|476:275|464:230,1,93.5,2|8,1:0|1:0,0:0:0:0:
424,132,12024,6,0,B|364:132|364:132|332:104|332:40|364:12,1,187,4|2,1:2|1:0,0:0:0:0:
256,16,12486,1,8,1:0:0:0:
152,16,12640,2,0,B|179:39|179:103|147:131|147:131|87:131,1,187,4|2,1:2|0:0,0:0:0:0:
36,220,13101,2,0,P|23:264|35:309,1,93.5,8|2,2:1|0:0,0:0:0:0:
35,309,13332,1,8,1:0:0:0:
35,309,13409,1,4,1:2:0:0:
128,264,13563,5,2,0:0:0:0:
128,264,13640,1,2,0:0:0:0:
128,264,13717,2,0,B|148:284|151:309|151:309|209:309,1,93.5,8|2,1:0|0:0,0:0:0:0:
256,228,14024,1,2,1:0:0:0:
320,308,14178,2,0,B|361:308|361:308|364:283|384:263,1,93.5,2|10,1:2|1:0,0:0:0:0:
460,192,14486,5,12,0:0:0:0:
256,100,14794,1,12,0:0:0:0:
52,192,15101,1,12,0:0:0:0:
256,284,15409,2,0,L|256:380,1,93.5,12|8,0:0|1:0,0:0:0:0:
348,328,15717,5,0,1:0:0:0:
348,328,15794,1,0,1:0:0:0:
348,328,15871,2,0,P|356:284|388:248,1,93.5,4|0,1:2|0:0,0:0:0:0:
302,190,16178,2,0,L|190:190,1,93.5,8|0,2:1|0:0,0:0:0:0:
112,152,16486,1,0,1:0:0:0:
124,248,16640,2,0,P|155:282|164:328,1,93.5,2|8,0:0|2:1,0:0:0:0:
256,284,16947,2,0,L|256:184,1,93.5,4|0,0:0|0:0,0:0:0:0:
332,120,17255,6,0,L|380:120|416:84,2,93.5,0|10|4,1:0|1:0|1:0,0:0:0:0:
256,52,17717,1,0,0:0:0:0:
180,120,17871,2,0,L|132:120|96:84,1,93.5,0|8,1:0|0:1,0:0:0:0:
72,192,18178,1,2,0:0:0:0:
72,192,18255,1,8,0:1:0:0:
72,192,18332,1,4,0:0:0:0:
99,296,18486,6,0,L|132:264|180:264,1,93.5,2|8,1:2|0:1,0:0:0:0:
256,348,18794,1,2,1:2:0:0:
332,264,18947,2,0,L|380:264|412:296,2,93.5,8|8|8,0:1|1:0|0:1,0:0:0:0:
256,196,19409,1,6,1:2:0:0:
256,60,19717,5,4,1:2:0:0:
256,196,19871,1,4,1:2:0:0:
256,196,20332,1,8,0:1:0:0:
256,196,20409,1,8,0:1:0:0:
256,196,20486,2,0,L|256:252,3,46.75,8|8|8|8,0:1|0:1|0:1|0:1,0:0:0:0:
256,284,20794,6,0,P|196:324|136:284,1,153,4|8,1:2|0:1,0:0:0:0:
44,284,21255,1,0,0:0:0:0:
44,192,21409,1,0,1:0:0:0:
136,192,21563,2,0,L|176:192|208:160,1,76.5,0|8,1:0|0:1,0:0:0:0:
168,80,21871,6,0,L|128:80|96:112,2,76.5,0|0|0,1:0|0:0|1:0,0:0:0:0:
256,56,22332,1,8,0:1:0:0:
344,80,22486,2,0,L|384:80|409:105,1,76.5,2|0,0:0|1:0,0:0:0:0:
376,192,22794,2,0,L|336:192|310:166,1,76.5,0|8,1:0|0:1,0:0:0:0:
476,192,23101,6,0,P|452:264|488:344,1,153,2|0,0:0|0:0,0:0:0:0:
380,336,23563,2,0,L|296:336,1,76.5,8|0,0:1|0:0,0:0:0:0:
208,336,23871,2,0,L|116:336,2,76.5,0|0|8,1:0|1:0|0:1,0:0:0:0:
303,336,24332,2,0,P|309:298|304:259,1,76.5,2|0,1:0|0:0,0:0:0:0:
207,162,24640,6,0,P|201:200|206:238,1,76.5,8|8,0:0|0:1,0:0:0:0:
305,162,24947,1,8,1:2:0:0:
257,82,25101,1,8,1:0:0:0:
207,162,25255,1,2,0:1:0:0:
349,82,25409,5,10,1:0:0:0:
349,82,25486,1,0,1:0:0:0:
349,82,25563,2,0,P|385:70|429:82,1,85,4|0,1:2|0:0,0:0:0:0:
504,152,25871,2,0,P|516:188|504:232,1,85,2|8,1:1|1:0,0:0:0:0:
428,300,26178,2,0,P|392:312|348:300,1,85,4|0,1:2|0:0,0:0:0:0:
308,204,26486,1,2,1:1:0:0:
204,204,26640,1,8,1:0:0:0:
164,300,26794,22,0,P|124:313|84:301,1,85,4|0,1:2|0:0,0:0:0:0:
8,232,27101,2,0,P|-4:192|8:152,1,85,2|8,1:1|1:0,0:0:0:0:
88,84,27409,2,0,P|128:71|169:84,1,85,4|0,1:2|0:0,0:0:0:0:
256,32,27717,1,2,1:0:0:0:
256,168,27871,1,8,0:1:0:0:
256,196,27947,1,0,1:0:0:0:
256,224,28024,1,2,1:0:0:0:
256,252,28101,1,8,1:0:0:0:
255,280,28178,38,0,P|315:320|375:280,1,153,4|8,1:2|0:1,0:0:0:0:
468,276,28640,1,0,0:0:0:0:
468,184,28794,1,0,1:0:0:0:
376,184,28947,2,0,B|316:124,1,76.5,0|8,1:0|1:0,0:0:0:0:
348,40,29255,38,0,B|404:96,2,76.5,0|0|0,1:0|0:0|1:0,0:0:0:0:
256,40,29717,1,8,0:1:0:0:
164,40,29871,2,0,B|104:100,1,76.5
136,184,30178,2,0,B|190:129,1,76.5,0|8,1:0|0:1,0:0:0:0:
40,188,30486,38,0,P|64:260|28:340,1,153,2|0,0:0|0:0,0:0:0:0:
132,332,30947,2,0,L|216:332,1,76.5,8|2,0:1|0:0,0:0:0:0:
304,332,31255,2,0,L|396:332,2,76.5,0|0|8,1:0|1:0|1:0,0:0:0:0:
208,332,31717,2,0,L|199:296|211:252,1,76.5,2|0,1:0|0:0,0:0:0:0:
304,168,32024,38,0,L|312:206|304:242,1,76.5,8|8,1:0|1:0,0:0:0:0:
208,168,32332,1,8,0:0:0:0:
256,88,32486,1,8,0:0:0:0:
304,168,32640,1,2,1:0:0:0:
164,88,32794,37,10,1:0:0:0:
164,88,32871,1,0,1:0:0:0:
164,88,32947,2,0,P|124:96|76:88,1,85,4|0,1:2|0:0,0:0:0:0:
20,172,33255,2,0,P|28:212|20:260,1,85,2|8,1:0|1:0,0:0:0:0:
80,340,33563,2,0,P|120:332|168:340,1,85,4|0,1:2|0:0,0:0:0:0:
204,244,33871,1,2,1:0:0:0:
308,244,34024,1,8,1:0:0:0:
348,338,34178,22,0,P|390:331|432:340,1,85,4|0,1:2|0:0,0:0:0:0:
490,255,34486,2,0,P|483:213|492:172,1,85,2|8,1:0|1:0,0:0:0:0:
431,89,34794,2,0,P|389:96|348:88,1,85,4|0,0:2|1:0,0:0:0:0:
256,44,35101,1,2,1:0:0:0:
172,88,35255,1,8,0:1:0:0:
140,112,35332,1,0,1:0:0:0:
112,140,35409,1,8,2:1:0:0:
92,176,35486,1,8,0:1:0:0:
79,206,35563,6,0,L|60:240|76:272|60:304|80:341,1,153,4|8,1:2|2:1,0:0:0:0:
172,341,36024,1,0,0:0:0:0:
220,261,36178,2,0,P|256:249|296:265,1,76.5,0|0,1:0|1:0,0:0:0:0:
340,341,36486,5,8,1:0:0:0:
431,341,36640,2,0,L|452:304|436:272|452:240|432:204,1,153,2|0,1:0|1:0,0:0:0:0:
384,128,37101,1,8,1:0:0:0:
292,128,37255,2,0,P|256:140|216:124,1,76.5,0|0,1:0|0:0,0:0:0:0:
220,36,37563,2,0,P|256:23|292:36,1,76.5,0|8,1:0|1:0,0:0:0:0:
140,84,37871,6,0,B|104:104|68:100|68:100|80:140|64:184,1,153,4|0,1:2|1:0,0:0:0:0:
104,260,38332,1,0,1:0:0:0:
188,220,38486,1,10,1:0:0:0:
256,284,38640,1,0,1:0:0:0:
324,220,38794,1,10,1:1:0:0:
408,260,38947,1,8,1:1:0:0:
445,176,39101,6,0,B|432:140|444:100|444:100|408:104|372:84,1,153,4|0,1:2|1:0,0:0:0:0:
301,144,39563,1,8,1:0:0:0:
210,144,39717,1,10,1:0:0:0:
256,223,39871,1,0,1:0:0:0:
208,300,40024,2,0,L|152:300,2,38.25,10|2|8,1:1|1:0|1:1,0:0:0:0:
304,300,40332,2,0,L|360:300,1,38.25,10|0,1:0|0:0,0:0:0:0:
388,300,40486,22,0,B|476:272|392:216|480:192,2,153,4|8|0,1:2|1:0|1:0,0:0:0:0:
294,300,41255,2,0,L|202:300,1,76.5,0|8,1:0|1:0,0:0:0:0:
123,299,41563,2,0,B|35:271|119:215|31:191,1,153,0|0,1:0|1:0,0:0:0:0:
55,104,42024,1,8,1:0:0:0:
136,64,42178,2,0,P|170:79|208:82,1,76.5,0|0,1:0|0:0,0:0:0:0:
302,80,42486,2,0,P|339:77|374:61,1,76.5,0|8,1:0|1:0,0:0:0:0:
256,160,42794,22,0,L|256:324,1,153,0|2,1:0|1:0,0:0:0:0:
348,312,43255,1,8,1:0:0:0:
432,276,43409,1,10,1:0:0:0:
396,192,43563,1,0,1:0:0:0:
432,108,43717,1,10,1:0:0:0:
348,72,43871,1,8,1:0:0:0:
256,72,44024,38,0,P|216:144|208:224,1,153,4|0,1:2|1:0,0:0:0:0:
256,292,44486,2,0,P|296:220|304:140,1,153,8|0,1:0|1:0,0:0:0:0:
348,72,44947,2,0,L|396:72,2,38.25,10|0|8,1:1|1:0|1:1,0:0:0:0:
256,72,45255,21,2,1:0:0:0:
256,72,45332,1,8,1:1:0:0:
256,72,45409,2,0,P|216:60|164:88,1,76.5,4|0,1:2|0:0,0:0:0:0:
100,34,45717,2,0,P|92:70|108:122,1,76.5,8|0,1:0|0:0,0:0:0:0:
148,191,46024,1,0,1:0:0:0:
99,274,46178,2,0,P|91:310|99:347,1,76.5,0|8,1:0|1:0,0:0:0:0:
184,312,46486,6,0,B|212:296|256:288|256:288|300:296|328:312,1,153,0|0,1:0|1:0,0:0:0:0:
411,348,46947,2,0,P|420:310|411:273,1,76.5,8|0,1:0|1:0,0:0:0:0:
364,192,47255,1,0,1:0:0:0:
411,110,47409,2,0,P|420:73|412:36,2,76.5,0|8|0,1:0|1:0|1:0,0:0:0:0:
364,192,47871,1,4,1:2:0:0:
293,134,48024,6,0,L|256:142|218:134,1,76.5,0|0,0:0|1:0,0:0:0:0:
218,39,48332,2,0,L|255:31|292:38,1,76.5,10|0,1:0|1:1,0:0:0:0:
140,88,48640,1,10,1:1:0:0:
140,180,48794,1,8,1:0:0:0:
103,264,48947,6,0,B|143:276|179:264|179:264|207:334,1,153,4|0,1:2|1:0,0:0:0:0:
304,334,49409,2,0,B|331:264|331:264|367:276|407:264,1,153,12|0,1:2|1:0,0:0:0:0:
368,180,49871,1,10,1:1:0:0:
368,180,49947,1,0,1:0:0:0:
368,180,50024,2,0,L|340:152,3,38.25,10|0|10|8,1:1|1:0|1:0|1:0,0:0:0:0:
341,100,50332,22,0,L|385:100|413:71,2,85,4|0|8,1:2|0:0|1:0,0:0:0:0:
256,42,50794,1,0,0:0:0:0:
173,100,50947,2,0,L|129:100|101:129,1,85,0|0,1:0|1:0,0:0:0:0:
173,204,51255,1,8,1:0:0:0:
173,308,51409,38,0,L|215:308|256:321|296:308|339:308,1,170,0|0,1:0|1:0,0:0:0:0:
339,204,51871,1,8,1:0:0:0:
256,136,52024,2,0,L|256:51,1,85,2|2,1:0|0:0,0:0:0:0:
173,204,52332,1,2,1:0:0:0:
256,268,52486,1,8,1:0:0:0:
339,204,52640,1,2,0:1:0:0:
296,108,52794,38,0,P|256:96|209:113,1,85,4|8,1:2|1:0,0:0:0:0:
128,192,53101,1,10,1:0:0:0:
144,200,53178,1,0,1:0:0:0:
160,208,53255,2,0,P|148:248|162:291,1,85,2|8,1:0|1:0,0:0:0:0:
256,322,53563,1,10,1:0:0:0:
351,288,53717,2,0,P|363:248|352:208,1,85,0|4,1:0|1:2,0:0:0:0:
176,104,54178,1,4,1:2:0:0:
336,104,54332,1,4,1:2:0:0:
256,380,54947,38,0,L|256:312,1,59.5,2|0,0:0|0:0,0:0:0:0:
152,320,55255,22,0,P|108:340|56:340,1,93.5,4|2,1:2|0:0,0:0:0:0:
64,236,55563,2,0,P|76:192|56:136,1,93.5,8|2,1:0|0:0,0:0:0:0:
63,42,55871,2,0,P|109:44|152:64,2,93.5,0|0|8,1:0|1:0|1:0,0:0:0:0:
256,68,56332,6,0,B|353:34|339:108|441:68,1,187,4|0,1:2|1:0,0:0:0:0:
512,136,56794,1,8,1:0:0:0:
437,200,56947,2,0,B|338:161|352:235|255:201,1,187,4|0,1:2|1:0,0:0:0:0:
255,307,57409,2,0,P|301:316|347:308,1,93.5,8|0,1:0|1:2,0:0:0:0:
152,308,57717,37,4,1:2:0:0:
56,272,57871,1,2,1:2:0:0:
124,192,58024,1,8,1:0:0:0:
56,112,58178,1,2,1:2:0:0:
152,76,58332,1,0,1:0:0:0:
256,76,58486,2,0,P|301:84|347:76,1,93.5,2|8,1:2|1:0,0:0:0:0:
432,136,58794,5,12,1:2:0:0:
340,320,59101,1,0,1:0:0:0:
256,264,59255,1,8,1:0:0:0:
168,320,59409,1,12,1:2:0:0:
256,136,59717,1,8,0:0:0:0:
272,128,59794,1,0,1:0:0:0:
288,120,59871,2,0,L|348:92,3,46.75,8|0|8|0,1:0|1:0|1:0|1:0,0:0:0:0:
362,76,60178,6,0,P|406:56|458:56,1,93.5,4|2,1:2|0:0,0:0:0:0:
452,160,60486,2,0,P|440:204|460:260,1,93.5,8|2,1:0|0:0,0:0:0:0:
452,352,60794,2,0,P|406:350|363:330,1,93.5,0|0,1:0|1:0,0:0:0:0:
348,236,61101,1,8,1:0:0:0:
256,316,61255,6,0,B|159:350|173:276|71:316,1,187,4|0,1:2|1:0,0:0:0:0:
0,248,61717,1,8,1:0:0:0:
75,184,61871,2,0,B|173:222|159:148|256:182,1,187,4|2,1:2|1:0,0:0:0:0:
257,77,62332,2,0,P|211:68|165:76,1,93.5,8|0,1:0|0:0,0:0:0:0:
348,144,62640,37,4,1:2:0:0:
348,248,62794,1,0,0:0:0:0:
256,296,62947,2,0,P|208:304|152:288,1,93.5,8|2,1:0|0:0,0:0:0:0:
164,182,63255,2,0,P|118:171|74:183,2,93.5,0|2|8,1:0|1:0|1:0,0:0:0:0:
255,182,63717,6,0,B|352:148|338:222|437:184,1,187,6|2,1:2|1:0,0:0:0:0:
448,296,64178,1,8,1:0:0:0:
345,296,64332,2,0,P|301:284|251:299,1,93.5,2|8,0:0|0:1,0:0:0:0:
168,336,64640,1,8,0:1:0:0:
141,314,64717,1,8,0:1:0:0:
114,291,64794,2,0,L|76:256,3,46.75,8|8|8|8,1:0|1:0|1:0|1:0,0:0:0:0:
56,236,65101,22,0,L|68:192|54:140,1,93.5,4|2,1:2|0:0,0:0:0:0:
56,44,65409,2,0,L|100:56|154:42,1,93.5,8|2,1:0|0:0,0:0:0:0:
200,136,65717,1,0,1:0:0:0:
256,52,65871,1,0,1:0:0:0:
312,136,66024,1,8,1:0:0:0:
365,43,66178,38,0,L|412:56|456:44,1,93.5,4|0,1:2|0:0,0:0:0:0:
457,145,66486,2,0,L|444:192|457:238,1,93.5,0|8,1:0|1:0,0:0:0:0:
456,340,66794,2,0,B|388:336|364:272|364:272|340:192,1,187,4|0,1:2|1:0,0:0:0:0:
308,112,67255,1,8,1:0:0:0:
204,112,67409,1,2,1:2:0:0:
168,208,67563,6,0,L|136:304,1,93.5,4|2,1:2|1:0,0:0:0:0:
204,376,67871,1,8,1:0:0:0:
308,376,68024,1,2,0:0:0:0:
308,376,68101,1,2,0:0:0:0:
308,376,68178,1,0,1:0:0:0:
373,296,68332,2,0,L|344:208,1,93.5,10|0,1:0|1:0,0:0:0:0:
256,152,68640,37,12,1:2:0:0:
344,336,68947,1,8,1:0:0:0:
256,284,69101,1,8,1:0:0:0:
168,336,69255,1,12,1:2:0:0:
344,336,69563,1,8,1:0:0:0:
364,320,69640,1,0,1:0:0:0:
384,304,69717,2,0,L|428:266,3,46.75,8|0|8|8,1:0|1:0|1:0|1:0,0:0:0:0:
456,236,70024,38,0,L|444:192|458:140,1,93.5,4|2,1:2|0:0,0:0:0:0:
456,44,70332,2,0,L|412:56|358:42,1,93.5,8|2,1:0|0:0,0:0:0:0:
312,136,70640,1,0,1:0:0:0:
256,52,70794,1,2,1:0:0:0:
200,136,70947,1,8,1:0:0:0:
146,43,71101,38,0,L|100:56|56:44,1,93.5,4|0,1:2|0:0,0:0:0:0:
55,145,71409,2,0,L|68:192|56:236,1,93.5,0|8,1:2|1:0,0:0:0:0:
56,340,71717,2,0,B|124:336|148:272|148:272|172:192,1,187,4|2,1:2|1:0,0:0:0:0:
256,156,72178,1,8,1:0:0:0:
256,156,72332,1,8,1:0:0:0:
345,209,72486,6,0,B|364:272|364:272|388:336|456:340,1,187,4|8,1:2|1:0,0:0:0:0:
456,236,72947,1,2,0:0:0:0:
456,132,73101,2,0,L|424:24,1,93.5,0|2,1:0|1:0,0:0:0:0:
344,100,73409,1,8,0:1:0:0:
256,44,73563,1,2,1:0:0:0:
168,100,73717,38,0,P|112:112|68:92,2,93.5,4|2|8,1:2|1:0|1:0,0:0:0:0:
256,154,74178,2,0,L|256:254,2,93.5,2|10|10,1:0|1:0|1:0,0:0:0:0:
344,100,74640,1,10,1:0:0:0:
365,109,74717,1,8,1:0:0:0:
388,112,74794,1,10,1:0:0:0:
411,109,74871,1,8,1:0:0:0:
432,100,74947,1,4,1:2:0:0:
256,192,75024,12,0,76024,1:0:0:0:
88,280,76640,5,2,0:0:0:0:
108,192,76794,1,0,1:0:0:0:
404,192,77101,1,2,1:0:0:0:
256,288,77409,37,4,1:2:0:0:
256,288,77563,1,0,0:0:0:0:
164,288,77717,2,0,L|164:196,1,76.5,0|0,1:0|1:0,0:0:0:0:
219,138,78024,2,0,P|259:130|297:140,1,76.5,2|0,1:0|1:0,0:0:0:0:
348,211,78332,2,0,L|348:288,1,76.5,0|2,1:0|1:0,0:0:0:0:
408,136,78640,5,0,1:0:0:0:
349,52,78794,1,10,1:0:0:0:
349,52,78871,1,0,1:1:0:0:
349,52,78947,2,0,L|293:52,3,42.5,8|0|10|0,1:0|1:0|1:0|1:1,0:0:0:0:
277,95,79255,2,0,L|225:95,3,42.5,10|0|10|8,1:0|0:1|1:0|1:1,0:0:0:0:
205,52,79563,2,0,L|153:52,3,42.5,10|0|10|0,1:0|0:1|1:0|0:1,0:0:0:0:
108,52,79885,6,0,B|108:108|108:108|68:115|41:163|68:197|83:201,1,170,4|8,1:2|1:0,0:0:0:0:
136,268,80346,1,2,0:0:0:0:
236,244,80500,1,0,1:0:0:0:
136,268,80654,2,0,L|152:308|134:352,1,85,2|8,1:0|1:0,0:0:0:0:
256,348,80961,6,0,L|228:268|256:188,1,170,4|2,1:2|1:0,0:0:0:0:
352,220,81423,1,8,1:0:0:0:
447,252,81577,2,0,L|475:172|447:92,1,170,4|2,1:2|1:0,0:0:0:0:
344,92,82038,2,0,L|256:92,1,85,8|2,1:0|0:0,0:0:0:0:
164,92,82346,37,4,1:2:0:0:
76,144,82500,1,0,1:0:0:0:
164,192,82654,1,8,1:0:0:0:
76,240,82808,1,2,1:2:0:0:
164,287,82961,2,0,L|254:286,1,85,8|2,1:0|1:2,0:0:0:0:
339,243,83269,1,8,1:0:0:0:
424,192,83423,5,12,1:2:0:0:
256,76,83731,1,8,1:2:0:0:
88,192,84038,1,8,1:0:0:0:
256,308,84346,1,8,1:0:0:0:
256,308,84423,1,0,1:0:0:0:
256,308,84500,1,2,1:0:0:0:
256,216,84654,1,0,1:0:0:0:
204,140,84808,6,0,P|192:92|212:52,1,85,4|0,1:2|0:0,0:0:0:0:
308,60,85115,2,0,P|321:99|308:139,1,85,8|0,1:0|0:0,0:0:0:0:
396,192,85423,1,0,1:0:0:0:
484,244,85577,2,0,P|472:284|488:332,1,85,2|8,1:0|1:1,0:0:0:0:
396,192,85885,6,0,L|424:112|396:32,1,170,4|2,1:2|1:0,0:0:0:0:
300,72,86346,1,8,1:1:0:0:
204,112,86500,2,0,L|176:192|204:272,1,170,4|2,1:2|1:2,0:0:0:0:
307,272,86961,2,0,L|392:272,1,85,8|2,1:1|1:2,0:0:0:0:
256,360,87269,38,0,L|168:360,1,85,4|2,1:2|0:0,0:0:0:0:
68,360,87577,2,0,L|56:320|75:255,1,85,8|2,1:0|0:0,0:0:0:0:
108,184,87885,1,0,1:0:0:0:
42,112,88038,1,2,0:0:0:0:
108,40,88192,1,8,1:0:0:0:
174,112,88346,6,0,P|256:133|341:110,1,170,4|2,1:2|1:2,0:0:0:0:
404,40,88808,1,8,1:0:0:0:
470,112,88961,1,2,1:2:0:0:
404,184,89115,2,0,L|404:232,1,42.5,8|8,1:0|1:0,0:0:0:0:
440,256,89269,2,0,L|440:312,1,42.5,2|8,1:0|1:0,0:0:0:0:
397,319,89423,2,0,L|373:323|355:319|337:323|313:319,1,85,8|10,0:1|1:0,0:0:0:0:
285,320,89654,1,10,1:0:0:0:
256,320,89731,5,4,1:2:0:0:
176,256,89885,1,2,0:0:0:0:
96,320,90038,2,0,P|56:332|16:320,2,85,8|2|0,1:0|0:0|1:0,0:0:0:0:
176,256,90500,2,0,P|188:215|176:175,1,85,2|8,1:2|1:0,0:0:0:0:
214,80,90808,6,0,P|256:88|301:78,1,85,4|0,1:2|0:0,0:0:0:0:
384,132,91115,2,0,P|389:176|414:214,1,85,2|8,1:0|1:1,0:0:0:0:
372,304,91423,2,0,P|331:323|303:358,1,85,2|0,1:0|0:0,0:0:0:0:
206,352,91731,2,0,P|178:321|140:304,1,85,2|8,0:0|1:1,0:0:0:0:
101,210,92038,2,0,P|123:173|128:132,1,85,2|4,0:0|1:2,0:0:0:0:
204,68,92346,5,8,1:1:0:0:
204,68,92423,1,8,1:1:0:0:
204,68,92500,1,10,1:0:0:0:
308,68,92654,1,10,0:1:0:0:
388,132,92808,1,2,1:0:0:0:
388,233,92961,2,0,L|388:321,1,85,10|0,1:1|0:0,0:0:0:0:
298,367,93269,6,0,L|206:367,1,85,8|8,1:0|1:1,0:0:0:0:
213,264,93577,2,0,L|305:264,1,85,8|2,0:0|0:1,0:0:0:0:
298,161,93885,2,0,L|206:161,1,85,8|10,0:0|1:1,0:0:0:0:
156,76,94192,1,8,0:0:0:0:
256,48,94346,2,0,L|256:4,2,42.5,2|8|0,0:1|0:1|1:0,0:0:0:0:
352,80,94654,5,6,0:0:0:0:
352,104,94731,1,0,0:0:0:0:
352,128,94808,1,2,0:0:0:0:
352,152,94885,1,0,0:0:0:0:
352,176,94961,2,0,P|372:192|400:200,3,42.5,10|0|0|2,0:1|0:0|0:0|0:0,0:0:0:0:
440,196,95269,2,0,P|488:224|500:256,2,85,2|2|8,1:0|1:0|1:1,0:0:0:0:
404,292,95731,6,0,P|356:320|344:352,1,85,4|0,1:2|0:0,0:0:0:0:
256,296,96038,1,2,0:0:0:0:
256,296,96115,1,2,0:0:0:0:
256,296,96192,1,8,1:1:0:0:
166,345,96346,1,2,0:0:0:0:
91,276,96500,2,0,B|95:200|27:248|47:136,2,127.5,2|2|10,1:0|1:0|1:0,0:0:0:0:
166,345,97115,5,4,1:2:0:0:
256,296,97269,1,0,0:0:0:0:
256,296,97346,1,2,2:0:0:0:
256,296,97423,1,8,1:1:0:0:
345,345,97577,1,2,0:0:0:0:
421,276,97731,2,0,B|417:200|485:248|465:136,2,127.5,2|2|6,1:0|1:0|1:2,0:0:0:0:
256,164,98500,5,4,1:2:0:0:
256,300,98654,1,4,1:2:0:0:
76,348,98961,2,0,P|72:328|56:308,3,42.5,8|8|10|8,0:1|0:1|0:1|0:1,0:0:0:0:
60,264,99269,2,0,P|72:247|76:226,3,42.5,8|8|10|8,1:0|1:0|1:0|1:0,0:0:0:0:
60,176,99577,6,0,P|47:131|60:86,1,93.5,4|0,1:2|0:0,0:0:0:0:
153,132,99885,2,0,L|257:132,1,93.5,8|0,1:1|0:0,0:0:0:0:
339,175,100192,2,0,P|351:131|339:87,2,93.5,0|2|8,1:0|1:0|1:1,0:0:0:0:
431,41,100654,6,0,P|456:131|431:220,1,187,4|0,1:2|1:0,0:0:0:0:
340,272,101115,1,8,1:0:0:0:
248,220,101269,2,0,P|223:131|248:41,1,187,4|0,1:2|1:0,0:0:0:0:
339,87,101731,2,0,P|326:131|338:176,1,93.5,8|0,1:1|1:2,0:0:0:0:
400,256,102038,37,4,1:2:0:0:
352,348,102192,1,2,1:2:0:0:
256,312,102346,1,8,1:0:0:0:
160,348,102500,1,2,0:0:0:0:
112,256,102654,1,0,1:0:0:0:
209,224,102808,2,0,L|302:224,1,93.5,2|8,0:0|1:0,0:0:0:0:
336,128,103115,5,12,1:2:0:0:
147,40,103423,2,0,P|155:88|179:132,2,93.5,0|8|12,1:0|1:0|1:2,0:0:0:0:
336,128,104038,1,8,1:2:0:0:
365,135,104115,1,0,1:0:0:0:
392,148,104192,2,0,P|416:160|440:188,3,46.75,8|8|8|0,1:0|1:0|1:0|0:0,0:0:0:0:
451,207,104500,6,0,P|464:252|451:297,1,93.5,4|2,1:2|0:0,0:0:0:0:
359,252,104808,2,0,L|255:252,1,93.5,8|2,1:1|0:0,0:0:0:0:
172,208,105115,2,0,P|160:252|172:296,2,93.5,0|0|8,1:0|1:0|1:1,0:0:0:0:
81,343,105577,6,0,P|56:253|81:164,1,187,4|0,1:2|1:0,0:0:0:0:
172,112,106038,1,8,1:0:0:0:
264,164,106192,2,0,P|289:253|264:343,1,187,4|2,1:2|1:0,0:0:0:0:
172,296,106654,2,0,B|176:270|187:251|187:251|176:234|173:205,1,93.5,8|0,1:1|0:0,0:0:0:0:
112,128,106961,37,4,1:2:0:0:
20,84,107115,1,0,0:0:0:0:
112,36,107269,2,0,L|144:36|176:44|220:44,1,93.5,8|2,1:1|0:0,0:0:0:0:
307,44,107577,2,0,L|336:44|368:36|400:36,2,93.5,0|2|8,1:0|1:0|1:0,0:0:0:0:
301,160,108038,2,0,L|256:172|210:160,1,93.5,6|0,1:2|0:0,0:0:0:0:
112,128,108346,5,2,1:0:0:0:
80,226,108500,1,8,1:1:0:0:
176,262,108654,2,0,P|156:301|147:349,1,93.5,2|8,0:0|0:1,0:0:0:0:
256,350,108961,1,8,0:1:0:0:
272,350,109038,1,8,0:1:0:0:
288,350,109115,2,0,L|344:350,3,46.75,8|8|8|8,1:0|1:0|1:0|1:0,0:0:0:0:
365,349,109423,22,0,P|356:303|336:262,1,93.5,4|2,1:2|0:0,0:0:0:0:
412,187,109731,2,0,P|431:145|440:99,1,93.5,8|2,1:1|0:0,0:0:0:0:
348,52,110038,1,0,1:0:0:0:
256,100,110192,1,2,1:0:0:0:
164,52,110346,1,8,1:1:0:0:
71,99,110500,38,0,P|80:145|99:187,1,93.5,4|0,1:2|0:0,0:0:0:0:
176,262,110808,2,0,P|154:303|147:349,1,93.5,0|8,1:0|1:0,0:0:0:0:
258,342,111115,2,0,B|264:284|328:296|388:308|406:255,1,187,4|0,1:2|1:0,0:0:0:0:
508,240,111577,2,0,L|508:140,1,93.5,8|2,1:1|1:2,0:0:0:0:
440,68,111885,6,0,B|420:84|416:100|416:100|348:100,1,93.5,4|10,1:2|1:0,0:0:0:0:
308,12,112192,1,0,1:0:0:0:
204,12,112346,1,2,0:0:0:0:
204,12,112423,1,10,1:0:0:0:
204,12,112500,1,0,1:0:0:0:
148,100,112654,2,0,B|96:100|96:100|92:84|72:68,1,93.5,10|0,1:0|1:0,0:0:0:0:
4,146,112961,37,12,1:2:0:0:
176,258,113269,2,0,P|196:299|204:345,2,93.5,0|8|12,1:0|1:0|1:2,0:0:0:0:
256,41,113885,1,8,0:0:0:0:
240,41,113961,1,8,0:0:0:0:
224,41,114038,2,0,L|168:41,3,46.75,0|0|8|8,1:0|1:0|1:0|1:0,0:0:0:0:
147,41,114346,38,0,P|155:87|176:129,1,93.5,4|2,1:2|0:0,0:0:0:0:
100,203,114654,2,0,P|81:245|72:291,1,93.5,8|2,1:1|0:0,0:0:0:0:
164,338,114961,1,0,1:0:0:0:
256,290,115115,1,2,1:0:0:0:
348,338,115269,1,8,1:1:0:0:
441,291,115423,38,0,P|432:245|413:203,1,93.5,4|0,1:2|0:0,0:0:0:0:
336,128,115731,2,0,P|358:87|365:41,1,93.5,0|8,1:0|1:0,0:0:0:0:
254,42,116038,2,0,B|248:100|184:88|124:76|106:129,1,187,4|2,1:2|1:0,0:0:0:0:
24,192,116500,1,8,1:1:0:0:
106,255,116654,6,0,B|124:308|184:296|248:284|254:342,1,187,8|10,1:2|1:1,0:0:0:0:
341,285,117115,1,10,1:0:0:0:
341,285,117192,1,2,0:0:0:0:
341,285,117269,2,0,L|341:191,1,93.5,8|10,1:0|1:0,0:0:0:0:
340,88,117577,1,2,1:1:0:0:
256,28,117731,1,8,1:0:0:0:
172,88,117885,1,4,1:2:0:0:
256,192,118038,12,2,120038,0:0:0:0:
