osu file format v14

[General]
AudioFilename: yha.mp3
AudioLeadIn: 0
PreviewTime: 45989
Countdown: 0
SampleSet: Normal
StackLeniency: 0.7
Mode: 1
LetterboxInBreaks: 0
WidescreenStoryboard: 0

[Editor]
Bookmarks: 12813,24107
DistanceSpacing: 1.2
BeatDivisor: 4
GridSize: 32
TimelineZoom: 2.5

[Metadata]
Title:Sakitnya Tuh Disini (Speed Up Ver.)
TitleUnicode:Sakitnya Tuh Disini (Speed Up Ver.)
Artist:Cita Citata
ArtistUnicode:Cita Citata
Creator:PatZar
Version:Muzukashii
Source:
Tags:Genocide dangdut pop indonesia cut short version top2014
BeatmapID:901862
BeatmapSetID:416329

[Difficulty]
HPDrainRate:5
CircleSize:5
OverallDifficulty:5
ApproachRate:5
SliderMultiplier:1.4
SliderTickRate:1

[Events]
//Background and Video events
0,0,"BG.jpg",0,75
//Break Periods
//Storyboard Layer 0 (Background)
//Storyboard Layer 1 (Fail)
//Storyboard Layer 2 (Pass)
//Storyboard Layer 3 (Foreground)
//Storyboard Sound Samples

[TimingPoints]
1519,352.941176470588,4,1,0,85,1,0
46695,-100,4,1,0,85,0,1
57989,-100,4,1,0,85,0,0
69283,-100,4,1,0,85,0,1
79166,-100,4,1,0,85,0,0

[HitObjects]
256,192,1519,5,0,0:0:0:0:
256,192,1871,1,0,0:0:0:0:
256,192,2048,1,8,0:0:0:0:
256,192,2224,1,0,0:0:0:0:
256,192,2401,1,8,0:0:0:0:
256,192,2577,1,0,0:0:0:0:
256,192,2930,1,0,0:0:0:0:
256,192,3107,1,8,0:0:0:0:
256,192,3283,1,0,0:0:0:0:
256,192,3460,1,8,0:0:0:0:
256,192,3636,1,0,0:0:0:0:
256,192,3813,1,8,0:0:0:0:
256,192,3989,1,8,0:0:0:0:
256,192,4342,1,8,0:0:0:0:
256,192,4518,1,0,0:0:0:0:
256,192,4695,1,8,0:0:0:0:
256,192,4871,1,0,0:0:0:0:
256,192,5048,1,8,0:0:0:0:
256,192,5401,1,8,0:0:0:0:
256,192,5577,1,0,0:0:0:0:
256,192,5754,1,8,0:0:0:0:
256,192,5930,1,8,0:0:0:0:
256,192,6107,1,0,0:0:0:0:
256,192,6283,1,8,0:0:0:0:
256,192,6460,1,8,0:0:0:0:
256,192,6813,1,0,0:0:0:0:
256,192,6989,1,8,0:0:0:0:
256,192,7166,1,0,0:0:0:0:
256,192,7342,1,8,0:0:0:0:
256,192,7518,1,0,0:0:0:0:
256,192,7607,1,0,0:0:0:0:
256,192,7695,1,0,0:0:0:0:
256,192,7871,1,8,0:0:0:0:
256,192,8224,1,0,0:0:0:0:
256,192,8401,1,8,0:0:0:0:
256,192,8577,1,0,0:0:0:0:
256,192,8754,1,8,0:0:0:0:
256,192,8842,1,8,0:0:0:0:
256,192,8930,1,8,0:0:0:0:
256,192,9107,1,8,0:0:0:0:
256,192,9283,1,0,0:0:0:0:
256,192,9636,1,8,0:0:0:0:
256,192,9813,1,0,0:0:0:0:
256,192,9989,1,8,0:0:0:0:
256,192,10166,1,0,0:0:0:0:
256,192,10254,1,0,0:0:0:0:
256,192,10342,1,0,0:0:0:0:
256,192,10518,1,8,0:0:0:0:
256,192,10695,1,8,0:0:0:0:
256,192,10871,1,0,0:0:0:0:
256,192,11048,1,8,0:0:0:0:
256,192,11224,1,0,0:0:0:0:
256,192,11401,1,8,0:0:0:0:
256,192,11489,1,8,0:0:0:0:
256,192,11577,1,8,0:0:0:0:
256,192,11754,1,8,0:0:0:0:
256,192,11930,1,0,0:0:0:0:
256,192,12107,1,8,0:0:0:0:
256,192,12460,1,4,0:0:0:0:
256,192,12636,1,4,0:0:0:0:
256,192,12813,1,12,0:0:0:0:
256,192,12989,1,0,0:0:0:0:
256,192,13077,1,0,0:0:0:0:
256,192,13166,1,8,0:0:0:0:
256,192,13342,1,0,0:0:0:0:
256,192,13518,1,8,0:0:0:0:
256,192,13871,1,8,0:0:0:0:
256,192,14048,1,0,0:0:0:0:
256,192,14136,1,0,0:0:0:0:
256,192,14224,1,0,0:0:0:0:
256,192,14400,1,8,0:0:0:0:
256,192,14489,1,8,0:0:0:0:
256,192,14577,1,8,0:0:0:0:
256,192,14754,1,0,0:0:0:0:
256,192,14930,1,0,0:0:0:0:
256,192,15283,1,8,0:0:0:0:
256,192,15460,1,8,0:0:0:0:
256,192,15636,1,0,0:0:0:0:
256,192,15813,1,8,0:0:0:0:
256,192,15901,1,8,0:0:0:0:
256,192,15989,1,8,0:0:0:0:
256,192,16166,1,0,0:0:0:0:
256,192,16342,1,0,0:0:0:0:
256,192,16695,1,0,0:0:0:0:
256,192,16871,1,8,0:0:0:0:
256,192,17048,1,8,0:0:0:0:
256,192,17401,1,0,0:0:0:0:
256,192,17577,1,0,0:0:0:0:
256,192,17754,1,8,0:0:0:0:
256,192,18107,1,8,0:0:0:0:
256,192,18283,1,0,0:0:0:0:
256,192,18460,1,8,0:0:0:0:
256,192,18636,1,0,0:0:0:0:
256,192,18724,1,0,0:0:0:0:
256,192,18813,1,0,0:0:0:0:
256,192,18989,1,8,0:0:0:0:
256,192,19166,1,8,0:0:0:0:
256,192,19518,1,8,0:0:0:0:
256,192,19695,1,0,0:0:0:0:
256,192,19783,1,0,0:0:0:0:
256,192,19871,1,0,0:0:0:0:
256,192,20048,1,8,0:0:0:0:
256,192,20224,1,8,0:0:0:0:
256,192,20401,1,0,0:0:0:0:
256,192,20577,1,0,0:0:0:0:
256,192,20754,1,8,0:0:0:0:
256,192,20930,1,8,0:0:0:0:
256,192,21283,1,8,0:0:0:0:
256,192,21371,1,8,0:0:0:0:
256,192,21460,1,8,0:0:0:0:
256,192,21636,1,0,0:0:0:0:
256,192,21813,1,8,0:0:0:0:
256,192,21989,1,8,0:0:0:0:
256,192,22342,1,0,0:0:0:0:
256,192,22518,1,8,0:0:0:0:
256,192,22695,1,0,0:0:0:0:
256,192,23048,1,0,0:0:0:0:
256,192,23401,1,0,0:0:0:0:
256,192,24107,1,4,0:0:0:0:
256,192,24283,1,0,0:0:0:0:
256,192,24460,1,8,0:0:0:0:
256,192,24636,1,0,0:0:0:0:
256,192,24813,1,8,0:0:0:0:
256,192,25166,1,8,0:0:0:0:
256,192,25342,1,0,0:0:0:0:
256,192,25518,1,8,0:0:0:0:
256,192,25695,1,0,0:0:0:0:
256,192,25871,1,0,0:0:0:0:
256,192,26048,1,8,0:0:0:0:
256,192,26224,1,0,0:0:0:0:
256,192,26401,1,8,0:0:0:0:
256,192,26577,1,8,0:0:0:0:
256,192,26930,1,8,0:0:0:0:
256,192,27107,1,0,0:0:0:0:
256,192,27283,1,8,0:0:0:0:
256,192,27636,1,0,0:0:0:0:
256,192,27813,1,0,0:0:0:0:
256,192,27989,1,8,0:0:0:0:
256,192,28166,1,0,0:0:0:0:
256,192,28342,1,8,0:0:0:0:
256,192,28695,1,0,0:0:0:0:
256,192,28871,1,8,0:0:0:0:
256,192,29224,1,8,0:0:0:0:
256,192,29401,1,0,0:0:0:0:
256,192,29754,1,12,0:0:0:0:
256,192,29930,1,0,0:0:0:0:
256,192,30107,1,0,0:0:0:0:
256,192,30460,1,0,0:0:0:0:
256,192,30636,1,8,0:0:0:0:
256,192,30813,1,8,0:0:0:0:
256,192,31166,1,0,0:0:0:0:
256,192,31518,1,8,0:0:0:0:
256,192,31695,1,0,0:0:0:0:
256,192,31871,1,8,0:0:0:0:
256,192,32048,1,8,0:0:0:0:
256,192,32224,1,0,0:0:0:0:
256,192,32577,1,8,0:0:0:0:
256,192,32754,1,8,0:0:0:0:
256,192,32930,1,0,0:0:0:0:
256,192,33283,1,8,0:0:0:0:
256,192,33460,1,0,0:0:0:0:
256,192,33636,1,8,0:0:0:0:
256,192,33813,1,8,0:0:0:0:
256,192,33989,1,8,0:0:0:0:
256,192,34342,1,8,0:0:0:0:
256,192,34518,1,0,0:0:0:0:
256,192,34695,1,8,0:0:0:0:
256,192,35048,1,0,0:0:0:0:
256,192,35224,1,0,0:0:0:0:
256,192,35401,1,4,0:0:0:0:
256,192,35577,1,8,0:0:0:0:
256,192,35754,1,0,0:0:0:0:
256,192,36107,1,0,0:0:0:0:
256,192,36283,1,8,0:0:0:0:
256,192,36460,1,0,0:0:0:0:
256,192,36813,1,8,0:0:0:0:
256,192,36989,1,0,0:0:0:0:
256,192,37166,1,8,0:0:0:0:
256,192,37518,1,8,0:0:0:0:
256,192,37695,1,0,0:0:0:0:
256,192,37871,1,8,0:0:0:0:
256,192,38048,1,0,0:0:0:0:
256,192,38224,1,8,0:0:0:0:
256,192,38577,1,8,0:0:0:0:
256,192,38754,1,0,0:0:0:0:
256,192,38930,1,8,0:0:0:0:
256,192,39283,1,8,0:0:0:0:
256,192,39460,1,8,0:0:0:0:
256,192,39636,1,0,0:0:0:0:
256,192,39989,1,8,0:0:0:0:
256,192,40166,1,8,0:0:0:0:
256,192,40342,1,0,0:0:0:0:
256,192,40695,1,8,0:0:0:0:
256,192,41048,1,8,0:0:0:0:
256,192,41401,1,0,0:0:0:0:
256,192,41754,1,8,0:0:0:0:
256,192,41930,1,8,0:0:0:0:
256,192,42107,1,0,0:0:0:0:
256,192,42460,1,0,0:0:0:0:
256,192,42636,1,8,0:0:0:0:
256,192,42989,1,8,0:0:0:0:
256,192,43166,1,0,0:0:0:0:
256,192,43342,1,8,0:0:0:0:
256,192,43518,1,0,0:0:0:0:
256,192,43871,1,8,0:0:0:0:
256,192,44224,1,0,0:0:0:0:
256,192,44401,1,8,0:0:0:0:
256,192,44577,1,0,0:0:0:0:
256,192,44754,1,8,0:0:0:0:
256,192,44930,1,0,0:0:0:0:
256,192,45283,1,0,0:0:0:0:
256,192,45460,1,8,0:0:0:0:
256,192,45548,1,8,0:0:0:0:
256,192,45636,1,8,0:0:0:0:
256,192,45813,1,0,0:0:0:0:
256,192,45989,1,8,0:0:0:0:
256,192,46342,1,8,0:0:0:0:
256,192,46518,1,0,0:0:0:0:
256,192,46695,1,4,0:0:0:0:
256,192,47048,1,0,0:0:0:0:
256,192,47224,1,8,0:0:0:0:
256,192,47401,1,0,0:0:0:0:
256,192,47754,1,0,0:0:0:0:
256,192,47930,1,8,0:0:0:0:
256,192,48107,1,0,0:0:0:0:
256,192,48283,1,8,0:0:0:0:
256,192,48460,1,0,0:0:0:0:
256,192,48636,1,8,0:0:0:0:
256,192,48813,1,0,0:0:0:0:
256,192,49166,1,8,0:0:0:0:
256,192,49342,1,0,0:0:0:0:
256,192,49518,1,8,0:0:0:0:
256,192,49695,1,0,0:0:0:0:
256,192,49871,1,8,0:0:0:0:
256,192,50224,1,8,0:0:0:0:
256,192,50401,1,0,0:0:0:0:
256,192,50577,1,8,0:0:0:0:
256,192,50930,1,0,0:0:0:0:
256,192,51107,1,8,0:0:0:0:
256,192,51283,1,0,0:0:0:0:
256,192,51460,1,8,0:0:0:0:
256,192,51636,1,0,0:0:0:0:
256,192,51724,1,0,0:0:0:0:
256,192,51813,1,8,0:0:0:0:
256,192,51989,1,0,0:0:0:0:
256,192,52342,1,8,0:0:0:0:
256,192,52518,1,0,0:0:0:0:
256,192,52695,1,8,0:0:0:0:
256,192,52871,1,0,0:0:0:0:
256,192,53048,1,8,0:0:0:0:
256,192,53401,1,0,0:0:0:0:
256,192,53577,1,8,0:0:0:0:
256,192,53754,1,0,0:0:0:0:
256,192,54106,1,0,0:0:0:0:
256,192,54283,1,8,0:0:0:0:
256,192,54460,1,8,0:0:0:0:
256,192,54813,1,8,0:0:0:0:
256,192,54989,1,0,0:0:0:0:
256,192,55166,1,8,0:0:0:0:
256,192,55518,1,0,0:0:0:0:
256,192,55695,1,0,0:0:0:0:
256,192,55871,1,8,0:0:0:0:
256,192,56224,1,8,0:0:0:0:
256,192,56577,1,8,0:0:0:0:
256,192,56754,1,0,0:0:0:0:
256,192,56930,1,8,0:0:0:0:
256,192,57107,1,0,0:0:0:0:
256,192,57283,1,8,0:0:0:0:
256,192,57636,1,8,0:0:0:0:
256,192,57724,1,8,0:0:0:0:
256,192,57813,1,8,0:0:0:0:
256,192,57989,1,4,0:0:0:0:
256,192,58342,1,0,0:0:0:0:
256,192,58695,1,0,0:0:0:0:
256,192,59401,1,0,0:0:0:0:
256,192,59754,1,0,0:0:0:0:
256,192,60107,1,0,0:0:0:0:
256,192,60813,1,0,0:0:0:0:
256,192,61166,1,0,0:0:0:0:
256,192,61518,1,0,0:0:0:0:
256,192,62224,1,0,0:0:0:0:
256,192,62577,1,0,0:0:0:0:
256,192,62930,1,0,0:0:0:0:
256,192,63636,1,8,0:0:0:0:
256,192,63989,1,0,0:0:0:0:
256,192,64342,1,8,0:0:0:0:
256,192,64518,1,0,0:0:0:0:
256,192,64695,1,8,0:0:0:0:
256,192,65048,1,8,0:0:0:0:
256,192,65224,1,0,0:0:0:0:
256,192,65401,1,8,0:0:0:0:
256,192,65754,1,8,0:0:0:0:
256,192,65930,1,0,0:0:0:0:
256,192,66107,1,8,0:0:0:0:
256,192,66460,1,8,0:0:0:0:
256,192,66813,1,0,0:0:0:0:
256,192,67166,1,8,0:0:0:0:
256,192,67342,1,0,0:0:0:0:
256,192,67518,1,8,0:0:0:0:
256,192,67871,1,8,0:0:0:0:
256,192,68048,1,0,0:0:0:0:
256,192,68224,1,8,0:0:0:0:
256,192,68577,1,8,0:0:0:0:
256,192,68754,1,0,0:0:0:0:
256,192,68930,1,8,0:0:0:0:
256,192,69107,1,8,0:0:0:0:
256,192,69283,1,4,0:0:0:0:
256,192,69636,1,8,0:0:0:0:
256,192,69813,1,0,0:0:0:0:
256,192,69901,1,0,0:0:0:0:
256,192,69989,1,0,0:0:0:0:
256,192,70342,1,8,0:0:0:0:
256,192,70518,1,8,0:0:0:0:
256,192,70695,1,0,0:0:0:0:
256,192,71048,1,8,0:0:0:0:
256,192,71224,1,0,0:0:0:0:
256,192,71313,1,0,0:0:0:0:
256,192,71401,1,0,0:0:0:0:
256,192,71754,1,8,0:0:0:0:
256,192,71930,1,0,0:0:0:0:
256,192,72107,1,8,0:0:0:0:
256,192,72460,1,8,0:0:0:0:
256,192,72636,1,0,0:0:0:0:
256,192,72724,1,0,0:0:0:0:
256,192,72813,1,0,0:0:0:0:
256,192,73166,1,8,0:0:0:0:
256,192,73518,1,0,0:0:0:0:
256,192,73695,1,8,0:0:0:0:
256,192,73871,1,0,0:0:0:0:
256,192,74048,1,8,0:0:0:0:
256,192,74136,1,8,0:0:0:0:
256,192,74401,1,8,0:0:0:0:
256,192,74577,1,8,0:0:0:0:
256,192,74754,1,0,0:0:0:0:
256,192,74930,1,8,0:0:0:0:
256,192,75107,1,0,0:0:0:0:
256,192,75283,1,0,0:0:0:0:
256,192,75460,1,8,0:0:0:0:
256,192,75549,1,8,0:0:0:0:
256,192,75813,1,0,0:0:0:0:
256,192,75989,1,8,0:0:0:0:
256,192,76342,1,8,0:0:0:0:
256,192,76695,1,0,0:0:0:0:
256,192,76871,1,8,0:0:0:0:
256,192,76960,1,8,0:0:0:0:
256,192,77224,1,0,0:0:0:0:
256,192,77401,1,8,0:0:0:0:
256,192,77754,1,0,0:0:0:0:
256,192,77930,1,8,0:0:0:0:
256,192,78107,1,0,0:0:0:0:
256,192,78283,1,8,0:0:0:0:
256,192,78460,1,8,0:0:0:0:
256,192,78813,1,8,0:0:0:0:
256,192,78989,1,0,0:0:0:0:
256,192,79166,1,8,0:0:0:0:
