osu file format v14

[General]
AudioFilename: yha.mp3
AudioLeadIn: 0
PreviewTime: 45989
Countdown: 0
SampleSet: Normal
StackLeniency: 0.7
Mode: 1
LetterboxInBreaks: 0
WidescreenStoryboard: 0

[Editor]
Bookmarks: 12813,24107
DistanceSpacing: 1.2
BeatDivisor: 4
GridSize: 32
TimelineZoom: 2.5

[Metadata]
Title:Sakitnya Tuh Disini (Speed Up Ver.)
TitleUnicode:Sakitnya Tuh Disini (Speed Up Ver.)
Artist:Cita Citata
ArtistUnicode:Cita Citata
Creator:PatZar
Version:Kantan
Source:
Tags:Genocide dangdut pop indonesia cut short version top2014
BeatmapID:901861
BeatmapSetID:416329

[Difficulty]
HPDrainRate:5
CircleSize:5
OverallDifficulty:5
ApproachRate:5
SliderMultiplier:1.4
SliderTickRate:1

[Events]
//Background and Video events
0,0,"BG.jpg",0,75
//Break Periods
//Storyboard Layer 0 (Background)
//Storyboard Layer 1 (Fail)
//Storyboard Layer 2 (Pass)
//Storyboard Layer 3 (Foreground)
//Storyboard Sound Samples

[TimingPoints]
1519,352.941176470588,4,1,0,85,1,0
46695,-100,4,1,0,85,0,1
57989,-100,4,1,0,85,0,0
69283,-100,4,1,0,85,0,1
79166,-100,4,1,0,85,0,0

[HitObjects]
256,192,1519,5,0,0:0:0:0:
256,192,2930,1,0,0:0:0:0:
256,192,3636,1,0,0:0:0:0:
256,192,4342,1,8,0:0:0:0:
256,192,5754,1,8,0:0:0:0:
256,192,6460,1,8,0:0:0:0:
256,192,7166,1,0,0:0:0:0:
256,192,8577,1,8,0:0:0:0:
256,192,9283,1,0,0:0:0:0:
256,192,9989,1,8,0:0:0:0:
256,192,11401,1,8,0:0:0:0:
256,192,12107,1,8,0:0:0:0:
256,192,12813,1,12,0:0:0:0:
256,192,13871,1,0,0:0:0:0:
256,192,14224,1,0,0:0:0:0:
256,192,15283,1,0,0:0:0:0:
256,192,15636,1,0,0:0:0:0:
256,192,16342,1,0,0:0:0:0:
256,192,16695,1,0,0:0:0:0:
256,192,17048,1,8,0:0:0:0:
256,192,17754,1,8,0:0:0:0:
256,192,18460,1,8,0:0:0:0:
256,192,18813,1,0,0:0:0:0:
256,192,19166,1,8,0:0:0:0:
256,192,19871,1,0,0:0:0:0:
256,192,20577,1,0,0:0:0:0:
256,192,21283,1,8,0:0:0:0:
256,192,21989,1,0,0:0:0:0:
256,192,22342,1,0,0:0:0:0:
256,192,22695,1,0,0:0:0:0:
256,192,24107,1,4,0:0:0:0:
256,192,24813,1,0,0:0:0:0:
256,192,25518,1,8,0:0:0:0:
256,192,26224,1,0,0:0:0:0:
256,192,26577,1,0,0:0:0:0:
256,192,26930,1,8,0:0:0:0:
256,192,27636,1,0,0:0:0:0:
256,192,27989,1,0,0:0:0:0:
256,192,28342,1,0,0:0:0:0:
256,192,29048,1,0,0:0:0:0:
256,192,29754,1,12,0:0:0:0:
256,192,30107,1,0,0:0:0:0:
256,192,30813,1,8,0:0:0:0:
256,192,31166,1,0,0:0:0:0:
256,192,31871,1,0,0:0:0:0:
256,192,32224,1,0,0:0:0:0:
256,192,32577,1,8,0:0:0:0:
256,192,33283,1,8,0:0:0:0:
256,192,33989,1,0,0:0:0:0:
256,192,34342,1,0,0:0:0:0:
256,192,35048,1,0,0:0:0:0:
256,192,35401,1,4,0:0:0:0:
256,192,36107,1,0,0:0:0:0:
256,192,36460,1,8,0:0:0:0:
256,192,36813,1,0,0:0:0:0:
256,192,37518,1,8,0:0:0:0:
256,192,38224,1,8,0:0:0:0:
256,192,38930,1,8,0:0:0:0:
256,192,39283,1,0,0:0:0:0:
256,192,39636,1,0,0:0:0:0:
256,192,40342,1,0,0:0:0:0:
256,192,40695,1,0,0:0:0:0:
256,192,41048,1,8,0:0:0:0:
256,192,41754,1,8,0:0:0:0:
256,192,42107,1,0,0:0:0:0:
256,192,42460,1,0,0:0:0:0:
256,192,43166,1,0,0:0:0:0:
256,192,43518,1,0,0:0:0:0:
256,192,43871,1,8,0:0:0:0:
256,192,44577,1,0,0:0:0:0:
256,192,45283,1,0,0:0:0:0:
256,192,45989,1,8,0:0:0:0:
256,192,46695,1,4,0:0:0:0:
256,192,47048,1,8,0:0:0:0:
256,192,47754,1,8,0:0:0:0:
256,192,48107,1,0,0:0:0:0:
256,192,48460,1,0,0:0:0:0:
256,192,48813,1,0,0:0:0:0:
256,192,49518,1,8,0:0:0:0:
256,192,50224,1,8,0:0:0:0:
256,192,50930,1,0,0:0:0:0:
256,192,51283,1,0,0:0:0:0:
256,192,51636,1,0,0:0:0:0:
256,192,52342,1,8,0:0:0:0:
256,192,53048,1,0,0:0:0:0:
256,192,53754,1,0,0:0:0:0:
256,192,54107,1,8,0:0:0:0:
256,192,54460,1,0,0:0:0:0:
256,192,55166,1,8,0:0:0:0:
256,192,55871,1,0,0:0:0:0:
256,192,56577,1,0,0:0:0:0:
256,192,56930,1,8,0:0:0:0:
256,192,57283,1,0,0:0:0:0:
256,192,57989,1,12,0:0:0:0:
256,192,59401,1,0,0:0:0:0:
256,192,60107,1,0,0:0:0:0:
256,192,60813,1,0,0:0:0:0:
256,192,62224,1,0,0:0:0:0:
256,192,62930,1,0,0:0:0:0:
256,192,63636,1,8,0:0:0:0:
256,192,64695,1,0,0:0:0:0:
256,192,65048,1,8,0:0:0:0:
256,192,65754,1,8,0:0:0:0:
256,192,66460,1,0,0:0:0:0:
256,192,67518,1,0,0:0:0:0:
256,192,67871,1,8,0:0:0:0:
256,192,68577,1,8,0:0:0:0:
256,192,69283,1,4,0:0:0:0:
256,192,69636,1,8,0:0:0:0:
256,192,69989,1,0,0:0:0:0:
256,192,70695,1,0,0:0:0:0:
256,192,71048,1,8,0:0:0:0:
256,192,71401,1,0,0:0:0:0:
256,192,72107,1,8,0:0:0:0:
256,192,72813,1,0,0:0:0:0:
256,192,73166,1,8,0:0:0:0:
256,192,73518,1,0,0:0:0:0:
256,192,74577,1,0,0:0:0:0:
256,192,74930,1,8,0:0:0:0:
256,192,75989,1,0,0:0:0:0:
256,192,76342,1,8,0:0:0:0:
256,192,77401,1,0,0:0:0:0:
256,192,77754,1,0,0:0:0:0:
256,192,78107,1,8,0:0:0:0:
256,192,78460,1,0,0:0:0:0:
256,192,79166,1,8,0:0:0:0:
