osu file format v14

[General]
AudioFilename: yha.mp3
AudioLeadIn: 0
PreviewTime: 45989
Countdown: 0
SampleSet: Normal
StackLeniency: 0.7
Mode: 1
LetterboxInBreaks: 0
WidescreenStoryboard: 1

[Editor]
Bookmarks: 12813,24107,35401
DistanceSpacing: 1.2
BeatDivisor: 4
GridSize: 32
TimelineZoom: 2.6

[Metadata]
Title:Sakitnya Tuh Disini (Nightcore & Cut Ver.)
TitleUnicode:Sakitnya Tuh Disini (Nightcore & Cut Ver.)
Artist:Cita Citata
ArtistUnicode:Cita Citata
Creator:Yui Funami
Version:Volta's Sedang
Source:
Tags:electronic house dangdut pop indonesian speed short version volta ron [r] e_s_i_a [-e_s_i_a-] esia [-esia-] sani music indonesia rahayu The Pain is Right Here
BeatmapID:3749789
BeatmapSetID:1826389

[Difficulty]
HPDrainRate:8
CircleSize:2
OverallDifficulty:4
ApproachRate:10
SliderMultiplier:1.4
SliderTickRate:1

[Events]
//Background and Video events
0,0,"89.jpg",0,40
//Break Periods
//Storyboard Layer 0 (Background)
//Storyboard Layer 1 (Fail)
//Storyboard Layer 2 (Pass)
//Storyboard Layer 3 (Foreground)
//Storyboard Layer 4 (Overlay)
//Storyboard Sound Samples

[TimingPoints]
1519,352.941176470588,4,1,0,85,1,0
12813,-100,4,1,0,85,0,0
24107,-100,4,1,0,65,0,0
35401,-100,4,1,0,75,0,0
45371,-100,4,1,0,50,0,0
46695,-100,4,1,0,85,0,1
57989,-100,4,1,0,65,0,0
63636,-100,4,1,0,75,0,0
69283,-100,4,1,0,85,0,1
79166,-100,4,1,0,65,0,0

[HitObjects]
279,230,1519,5,4,0:0:0:0:
375,232,1871,1,8,0:0:0:0:
204,51,2577,1,8,0:0:0:0:
204,51,3283,1,8,0:0:0:0:
204,132,3989,1,8,0:0:0:0:
58,169,4342,1,0,0:0:0:0:
58,169,4695,1,8,0:0:0:0:
58,169,5401,1,8,0:0:0:0:
58,169,6107,1,8,0:0:0:0:
231,98,6813,1,8,0:0:0:0:
58,169,7166,1,0,0:0:0:0:
58,169,7518,1,8,0:0:0:0:
64,152,7695,1,0,0:0:0:0:
64,152,8048,1,0,0:0:0:0:
58,169,8224,1,8,0:0:0:0:
58,169,8577,1,0,0:0:0:0:
58,169,8930,1,8,0:0:0:0:
233,129,9636,1,8,0:0:0:0:
58,169,9989,1,0,0:0:0:0:
58,169,10342,1,8,0:0:0:0:
215,44,10518,1,0,0:0:0:0:
215,44,10871,1,0,0:0:0:0:
58,169,11048,1,8,0:0:0:0:
90,147,11401,1,0,0:0:0:0:
90,147,11754,1,8,0:0:0:0:
90,147,12283,1,0,0:0:0:0:
90,147,12460,1,0,0:0:0:0:
58,169,12813,1,4,0:0:0:0:
314,116,13166,1,8,0:0:0:0:
314,116,13342,1,8,0:0:0:0:
262,82,13518,1,0,0:0:0:0:
262,82,13871,1,8,0:0:0:0:
262,82,14224,1,0,0:0:0:0:
37,117,14577,1,8,0:0:0:0:
36,143,15283,1,8,0:0:0:0:
36,143,15636,1,0,0:0:0:0:
78,129,15989,1,8,0:0:0:0:
78,129,16166,1,0,0:0:0:0:
78,129,16342,1,0,0:0:0:0:
78,129,16695,1,8,0:0:0:0:
284,208,17048,1,0,0:0:0:0:
284,208,17401,1,8,0:0:0:0:
284,208,18107,1,8,0:0:0:0:
284,208,18460,1,0,0:0:0:0:
219,82,18813,1,8,0:0:0:0:
219,82,18989,1,8,0:0:0:0:
219,82,19166,1,0,0:0:0:0:
124,110,19518,1,8,0:0:0:0:
124,110,19871,1,0,0:0:0:0:
124,110,20224,1,8,0:0:0:0:
124,110,20930,1,8,0:0:0:0:
124,110,21283,1,0,0:0:0:0:
124,110,21636,1,8,0:0:0:0:
124,110,21813,1,0,0:0:0:0:
124,110,21989,1,0,0:0:0:0:
124,110,22342,1,8,0:0:0:0:
124,110,22695,1,0,0:0:0:0:
232,188,23048,1,8,0:0:0:0:
345,41,24107,1,0,0:0:0:0:
345,41,24460,1,0,0:0:0:0:
345,41,24813,1,0,0:0:0:0:
345,41,25166,1,0,0:0:0:0:
345,41,25518,1,8,0:0:0:0:
345,41,26224,1,8,0:0:0:0:
345,41,26577,1,8,0:0:0:0:
345,41,26930,1,0,0:0:0:0:
345,41,27283,1,8,0:0:0:0:
345,41,27636,1,0,0:0:0:0:
345,41,27989,1,8,0:0:0:0:
345,41,28342,1,0,0:0:0:0:
11,168,29048,1,0,0:0:0:0:
11,168,29401,1,0,0:0:0:0:
11,168,29754,1,0,0:0:0:0:
11,168,29930,1,8,0:0:0:0:
240,126,30283,1,8,0:0:0:0:
59,149,30460,1,0,0:0:0:0:
240,126,30813,1,0,0:0:0:0:
97,132,31166,1,8,0:0:0:0:
71,153,31871,1,8,0:0:0:0:
71,153,32224,1,8,0:0:0:0:
71,153,32577,1,0,0:0:0:0:
71,153,32754,1,8,0:0:0:0:
71,153,33107,1,8,0:0:0:0:
71,153,33283,1,0,0:0:0:0:
71,153,33636,1,8,0:0:0:0:
71,153,33989,1,0,0:0:0:0:
71,153,34695,1,0,0:0:0:0:
71,153,34871,1,0,0:0:0:0:
71,153,35048,1,0,0:0:0:0:
128,136,35401,5,4,0:0:0:0:
59,149,35754,1,8,0:0:0:0:
59,149,35930,1,8,0:0:0:0:
59,149,36107,1,0,0:0:0:0:
59,149,36460,1,8,0:0:0:0:
59,149,36813,1,0,0:0:0:0:
59,149,37166,1,8,0:0:0:0:
59,149,37871,1,8,0:0:0:0:
59,149,38224,1,0,0:0:0:0:
59,149,38577,1,8,0:0:0:0:
59,149,38754,1,0,0:0:0:0:
59,149,38930,1,8,0:0:0:0:
59,149,39283,1,8,0:0:0:0:
59,149,39636,1,0,0:0:0:0:
59,149,39989,1,8,0:0:0:0:
59,149,40695,1,8,0:0:0:0:
59,149,41048,1,0,0:0:0:0:
59,149,41401,1,8,0:0:0:0:
59,149,41577,1,0,0:0:0:0:
59,149,41754,1,0,0:0:0:0:
59,149,42107,1,8,0:0:0:0:
59,149,42460,1,0,0:0:0:0:
182,84,42813,1,8,0:0:0:0:
59,149,43518,1,8,0:0:0:0:
59,149,43871,1,0,0:0:0:0:
59,149,44224,1,8,0:0:0:0:
59,149,44401,1,8,0:0:0:0:
59,149,44577,1,8,0:0:0:0:
59,149,44930,1,8,0:0:0:0:
128,136,45283,5,0,0:0:0:0:
128,136,45989,1,8,0:0:0:0:
128,136,46342,1,8,0:0:0:0:
128,136,46695,1,4,0:0:0:0:
246,99,47048,1,8,0:0:0:0:
246,99,47224,1,0,0:0:0:0:
246,99,47401,1,0,0:0:0:0:
246,99,47754,1,8,0:0:0:0:
246,99,48107,1,0,0:0:0:0:
246,99,48283,1,8,0:0:0:0:
99,169,48636,1,8,0:0:0:0:
99,130,48813,1,0,0:0:0:0:
246,99,48989,1,8,0:0:0:0:
101,12,49166,1,8,0:0:0:0:
101,12,49518,1,0,0:0:0:0:
101,12,49871,1,8,0:0:0:0:
101,12,50048,1,0,0:0:0:0:
101,12,50401,1,0,0:0:0:0:
101,12,50577,1,8,0:0:0:0:
101,12,50930,1,0,0:0:0:0:
101,12,51283,1,8,0:0:0:0:
101,12,51989,1,8,0:0:0:0:
101,12,52342,1,0,0:0:0:0:
121,188,52695,1,8,0:0:0:0:
121,188,52871,1,0,0:0:0:0:
121,188,53048,1,0,0:0:0:0:
121,188,53401,1,8,0:0:0:0:
121,188,53754,1,0,0:0:0:0:
121,188,53930,1,8,0:0:0:0:
121,188,54283,1,8,0:0:0:0:
121,188,54460,1,0,0:0:0:0:
7,137,54636,1,8,0:0:0:0:
121,188,54813,1,8,0:0:0:0:
121,188,55166,1,0,0:0:0:0:
121,188,55518,1,8,0:0:0:0:
121,188,55695,1,0,0:0:0:0:
121,188,56048,1,0,0:0:0:0:
121,188,56224,1,8,0:0:0:0:
121,188,56577,1,0,0:0:0:0:
121,188,56930,1,8,0:0:0:0:
145,163,57283,5,0,0:0:0:0:
23,158,57460,1,8,0:0:0:0:
145,163,57636,1,8,0:0:0:0:
191,139,57989,5,4,0:0:0:0:
191,139,58342,1,8,0:0:0:0:
191,139,59048,1,8,0:0:0:0:
52,69,59401,1,0,0:0:0:0:
191,139,59754,1,8,0:0:0:0:
121,188,60460,1,8,0:0:0:0:
191,139,60813,1,0,0:0:0:0:
191,139,61166,1,8,0:0:0:0:
191,139,61871,1,8,0:0:0:0:
92,86,62224,1,0,0:0:0:0:
191,139,62577,1,8,0:0:0:0:
191,139,63283,1,8,0:0:0:0:
191,139,63636,1,0,0:0:0:0:
186,113,63989,1,8,0:0:0:0:
186,113,64166,1,0,0:0:0:0:
186,113,64342,1,0,0:0:0:0:
116,143,64695,1,8,0:0:0:0:
116,143,65048,1,0,0:0:0:0:
186,113,65401,1,8,0:0:0:0:
116,143,66107,1,8,0:0:0:0:
65,145,66460,1,0,0:0:0:0:
72,149,66813,1,8,0:0:0:0:
72,149,66989,1,8,0:0:0:0:
215,203,67166,1,0,0:0:0:0:
215,203,67518,1,8,0:0:0:0:
186,113,67871,5,0,0:0:0:0:
215,203,68048,1,8,0:0:0:0:
186,113,68401,1,8,0:0:0:0:
186,113,68577,1,0,0:0:0:0:
152,127,68754,5,8,0:0:0:0:
152,127,68930,1,8,0:0:0:0:
152,127,69283,1,4,0:0:0:0:
72,135,69636,1,8,0:0:0:0:
45,150,69813,1,8,0:0:0:0:
28,133,70342,1,8,0:0:0:0:
28,133,70695,1,0,0:0:0:0:
72,135,71048,1,8,0:0:0:0:
267,117,71224,1,8,0:0:0:0:
267,117,71754,1,8,0:0:0:0:
267,117,72107,1,0,0:0:0:0:
267,117,72460,1,8,0:0:0:0:
72,135,72636,1,8,0:0:0:0:
267,117,72813,1,0,0:0:0:0:
267,117,73166,1,8,0:0:0:0:
267,117,73518,1,0,0:0:0:0:
267,117,73871,1,8,0:0:0:0:
267,117,74577,1,8,0:0:0:0:
267,117,74930,1,0,0:0:0:0:
141,78,75283,1,8,0:0:0:0:
267,117,75460,1,8,0:0:0:0:
267,117,75989,1,8,0:0:0:0:
267,117,76342,1,0,0:0:0:0:
141,78,76695,1,8,0:0:0:0:
267,117,76871,1,8,0:0:0:0:
267,117,77401,1,8,0:0:0:0:
267,117,77754,1,0,0:0:0:0:
267,117,78107,1,8,0:0:0:0:
187,27,78283,1,8,0:0:0:0:
267,117,78460,1,0,0:0:0:0:
267,117,78813,1,8,0:0:0:0:
128,136,79166,5,12,0:0:0:0:
