osu file format v14

[General]
AudioFilename: yha.mp3
AudioLeadIn: 0
PreviewTime: 45989
Countdown: 0
SampleSet: Normal
StackLeniency: 0.7
Mode: 1
LetterboxInBreaks: 0
WidescreenStoryboard: 0

[Editor]
DistanceSpacing: 1.2
BeatDivisor: 4
GridSize: 32
TimelineZoom: 2.2

[Metadata]
Title:Sakitnya Tuh Disini (Nightcore & Cut Ver.)
TitleUnicode:Sakitnya Tuh Disini (Nightcore & Cut Ver.)
Artist:Cita Citata
ArtistUnicode:Cita Citata
Creator:Yui Funami
Version:Gila
Source:
Tags:electronic house dangdut pop indonesian speed short version volta ron [r] e_s_i_a [-e_s_i_a-] esia [-esia-] sani music indonesia rahayu The Pain is Right Here
BeatmapID:3748195
BeatmapSetID:1826389

[Difficulty]
HPDrainRate:6
CircleSize:2
OverallDifficulty:6
ApproachRate:10
SliderMultiplier:1.4
SliderTickRate:1

[Events]
//Background and Video events
0,0,"bg.jpg",0,40
//Break Periods
//Storyboard Layer 0 (Background)
//Storyboard Layer 1 (Fail)
//Storyboard Layer 2 (Pass)
//Storyboard Layer 3 (Foreground)
//Storyboard Layer 4 (Overlay)
//Storyboard Sound Samples

[TimingPoints]
1519,352.941176470588,4,1,0,100,1,0
12813,-100,4,1,0,85,0,0
24107,-100,4,1,0,65,0,0
35401,-100,4,1,0,75,0,0
45371,-100,4,1,0,50,0,0
46695,-100,4,1,0,85,0,1
57989,-100,4,1,0,65,0,0
63636,-100,4,1,0,75,0,0
69283,-100,4,1,0,85,0,1
79166,-100,4,1,0,65,0,0

[HitObjects]
175,131,1519,5,4,0:0:0:0:
256,192,1695,1,8,0:0:0:0:
256,192,1871,1,0,0:0:0:0:
231,165,1960,1,0,0:0:0:0:
256,192,2048,1,8,0:0:0:0:
256,192,2224,1,0,0:0:0:0:
214,247,2577,1,0,0:0:0:0:
254,265,2754,1,8,0:0:0:0:
254,265,2930,1,0,0:0:0:0:
252,217,3107,1,0,0:0:0:0:
252,217,3195,1,8,0:0:0:0:
252,217,3283,1,8,0:0:0:0:
252,217,3460,1,8,0:0:0:0:
252,217,3636,1,0,0:0:0:0:
252,217,3989,1,8,0:0:0:0:
252,217,4166,1,0,0:0:0:0:
252,217,4342,1,8,0:0:0:0:
285,221,4518,1,0,0:0:0:0:
252,217,4606,1,0,0:0:0:0:
252,217,4695,1,8,0:0:0:0:
295,213,4871,1,0,0:0:0:0:
307,186,5048,1,8,0:0:0:0:
299,187,5401,1,8,0:0:0:0:
256,192,5577,1,0,0:0:0:0:
318,182,5754,1,8,0:0:0:0:
256,192,5930,1,0,0:0:0:0:
256,192,6018,1,8,0:0:0:0:
307,185,6107,1,8,0:0:0:0:
256,192,6283,1,0,0:0:0:0:
342,179,6460,1,8,0:0:0:0:
256,192,6813,1,0,0:0:0:0:
327,204,6989,1,8,0:0:0:0:
256,192,7166,1,0,0:0:0:0:
249,235,7342,1,8,0:0:0:0:
256,192,7518,1,0,0:0:0:0:
256,192,7607,1,0,0:0:0:0:
256,192,7695,1,8,0:0:0:0:
249,235,7871,1,0,0:0:0:0:
249,250,8224,1,0,0:0:0:0:
256,192,8401,1,8,0:0:0:0:
254,251,8577,1,0,0:0:0:0:
256,192,8754,1,8,0:0:0:0:
254,251,8842,1,8,0:0:0:0:
256,192,8930,1,0,0:0:0:0:
256,192,9107,1,8,0:0:0:0:
254,251,9283,1,0,0:0:0:0:
254,251,9636,1,8,0:0:0:0:
256,192,9813,1,0,0:0:0:0:
256,192,9989,1,8,0:0:0:0:
256,192,10166,1,0,0:0:0:0:
256,192,10254,1,0,0:0:0:0:
302,218,10342,1,8,0:0:0:0:
256,192,10518,1,0,0:0:0:0:
280,224,10695,1,8,0:0:0:0:
279,231,11048,1,8,0:0:0:0:
256,192,11224,1,0,0:0:0:0:
259,239,11401,1,8,0:0:0:0:
256,192,11489,1,0,0:0:0:0:
286,230,11577,1,8,0:0:0:0:
256,234,11754,1,8,0:0:0:0:
286,230,11930,1,0,0:0:0:0:
267,230,12107,1,8,0:0:0:0:
259,239,12283,1,4,0:0:0:0:
286,230,12460,1,4,0:0:0:0:
286,230,12636,1,4,0:0:0:0:
286,230,12813,1,12,0:0:0:0:
286,230,12989,1,0,0:0:0:0:
286,230,13077,1,0,0:0:0:0:
286,230,13166,1,8,0:0:0:0:
286,230,13342,1,0,0:0:0:0:
286,230,13518,1,8,0:0:0:0:
263,243,13871,1,8,0:0:0:0:
263,243,14048,1,0,0:0:0:0:
250,229,14224,1,8,0:0:0:0:
256,192,14401,1,0,0:0:0:0:
249,235,14489,1,8,0:0:0:0:
244,235,14577,1,8,0:0:0:0:
200,226,14754,1,0,0:0:0:0:
214,209,14930,1,8,0:0:0:0:
256,192,15283,1,0,0:0:0:0:
256,192,15460,1,8,0:0:0:0:
254,239,15636,1,0,0:0:0:0:
256,192,15813,1,8,0:0:0:0:
256,192,15901,1,8,0:0:0:0:
259,227,15989,1,0,0:0:0:0:
256,192,16166,1,8,0:0:0:0:
263,243,16342,1,0,0:0:0:0:
259,237,16695,1,0,0:0:0:0:
256,192,16871,1,8,0:0:0:0:
256,241,17048,1,0,0:0:0:0:
247,223,17136,1,0,0:0:0:0:
256,192,17224,1,8,0:0:0:0:
249,230,17401,1,0,0:0:0:0:
246,246,17577,1,8,0:0:0:0:
242,207,17754,1,0,0:0:0:0:
241,239,18107,1,8,0:0:0:0:
278,193,18195,1,0,0:0:0:0:
256,192,18283,1,0,0:0:0:0:
245,236,18460,1,8,0:0:0:0:
256,192,18636,1,0,0:0:0:0:
192,209,18724,1,8,0:0:0:0:
241,249,18813,1,8,0:0:0:0:
228,212,18901,1,0,0:0:0:0:
256,192,18989,1,0,0:0:0:0:
246,230,19166,1,8,0:0:0:0:
241,249,19518,1,8,0:0:0:0:
256,192,19695,1,0,0:0:0:0:
256,192,19783,1,0,0:0:0:0:
238,236,19871,1,8,0:0:0:0:
256,192,20048,1,0,0:0:0:0:
256,192,20136,1,8,0:0:0:0:
245,222,20224,1,8,0:0:0:0:
256,192,20401,1,0,0:0:0:0:
238,236,20577,1,8,0:0:0:0:
240,228,20930,1,8,0:0:0:0:
256,192,21107,1,0,0:0:0:0:
256,192,21195,1,0,0:0:0:0:
240,228,21283,1,8,0:0:0:0:
256,192,21460,1,0,0:0:0:0:
256,192,21548,1,8,0:0:0:0:
244,225,21636,1,8,0:0:0:0:
257,218,21724,1,8,0:0:0:0:
256,192,21813,1,0,0:0:0:0:
245,218,21989,1,8,0:0:0:0:
242,231,22342,1,0,0:0:0:0:
256,192,22518,1,8,0:0:0:0:
230,247,22695,1,0,0:0:0:0:
230,247,23048,1,0,0:0:0:0:
219,231,23401,1,0,0:0:0:0:
256,192,24107,1,0,0:0:0:0:
256,192,24283,1,0,0:0:0:0:
256,192,24371,1,0,0:0:0:0:
249,214,24460,1,8,0:0:0:0:
256,192,24636,1,0,0:0:0:0:
301,181,24813,1,8,0:0:0:0:
256,192,24989,1,8,0:0:0:0:
256,192,25077,1,0,0:0:0:0:
256,192,25166,1,8,0:0:0:0:
256,192,25342,1,0,0:0:0:0:
256,192,25518,1,8,0:0:0:0:
256,192,25871,1,0,0:0:0:0:
256,192,26048,1,8,0:0:0:0:
256,192,26224,1,8,0:0:0:0:
214,184,26313,1,0,0:0:0:0:
256,192,26401,1,0,0:0:0:0:
246,188,26489,1,8,0:0:0:0:
237,179,26577,1,8,0:0:0:0:
256,192,26754,1,0,0:0:0:0:
256,192,26930,1,8,0:0:0:0:
256,192,27107,1,0,0:0:0:0:
286,161,27195,1,0,0:0:0:0:
256,192,27283,1,8,0:0:0:0:
271,161,27460,1,8,0:0:0:0:
256,192,27636,1,0,0:0:0:0:
256,192,27813,1,8,0:0:0:0:
256,192,27901,1,0,0:0:0:0:
273,155,27989,1,8,0:0:0:0:
256,192,28166,1,8,0:0:0:0:
256,192,28254,1,8,0:0:0:0:
266,164,28342,1,0,0:0:0:0:
266,156,28695,1,0,0:0:0:0:
256,192,28871,1,8,0:0:0:0:
256,192,28960,1,0,0:0:0:0:
260,155,29048,1,8,0:0:0:0:
289,184,29136,1,0,0:0:0:0:
256,192,29224,1,8,0:0:0:0:
256,192,29401,1,0,0:0:0:0:
310,165,29577,1,0,0:0:0:0:
362,148,29754,1,8,0:0:0:0:
254,171,30107,1,0,0:0:0:0:
256,192,30283,1,8,0:0:0:0:
256,192,30460,1,8,0:0:0:0:
256,192,30636,1,0,0:0:0:0:
256,192,30724,1,8,0:0:0:0:
256,192,30813,1,8,0:0:0:0:
256,192,30989,1,0,0:0:0:0:
256,192,31166,1,0,0:0:0:0:
256,192,31342,1,8,0:0:0:0:
256,192,31430,1,0,0:0:0:0:
256,192,31518,1,8,0:0:0:0:
256,192,31695,1,0,0:0:0:0:
256,192,31871,1,8,0:0:0:0:
246,188,31960,1,0,0:0:0:0:
256,192,32048,1,0,0:0:0:0:
214,184,32137,1,8,0:0:0:0:
256,192,32225,1,8,0:0:0:0:
256,192,32577,1,0,0:0:0:0:
348,162,32754,1,8,0:0:0:0:
256,192,32930,1,0,0:0:0:0:
256,192,33018,1,0,0:0:0:0:
256,192,33107,1,8,0:0:0:0:
256,192,33283,1,8,0:0:0:0:
360,174,33460,1,0,0:0:0:0:
256,192,33636,1,0,0:0:0:0:
256,192,33813,1,0,0:0:0:0:
256,192,33989,1,8,0:0:0:0:
256,192,34342,1,8,0:0:0:0:
256,192,34518,1,0,0:0:0:0:
294,274,34695,1,8,0:0:0:0:
256,192,34871,1,8,0:0:0:0:
161,203,35048,1,0,0:0:0:0:
279,200,35136,1,0,0:0:0:0:
290,279,35224,1,8,0:0:0:0:
256,192,35401,1,12,0:0:0:0:
274,271,35754,1,0,0:0:0:0:
256,192,35930,1,8,0:0:0:0:
256,192,36018,1,8,0:0:0:0:
259,280,36107,1,0,0:0:0:0:
256,192,36283,1,8,0:0:0:0:
255,238,36460,1,0,0:0:0:0:
256,192,36636,1,8,0:0:0:0:
256,192,36813,1,8,0:0:0:0:
256,192,37166,1,8,0:0:0:0:
256,192,37254,1,8,0:0:0:0:
256,192,37342,1,0,0:0:0:0:
256,192,37518,1,8,0:0:0:0:
246,270,37695,1,0,0:0:0:0:
256,192,37871,1,8,0:0:0:0:
256,192,38224,1,8,0:0:0:0:
246,252,38401,1,0,0:0:0:0:
256,192,38489,1,8,0:0:0:0:
256,192,38577,1,8,0:0:0:0:
256,192,38754,1,0,0:0:0:0:
256,192,38842,1,0,0:0:0:0:
240,265,38930,1,8,0:0:0:0:
256,192,39107,1,0,0:0:0:0:
256,192,39283,1,8,0:0:0:0:
246,252,39460,1,8,0:0:0:0:
246,252,39636,1,0,0:0:0:0:
272,227,39989,1,0,0:0:0:0:
246,238,40166,1,0,0:0:0:0:
256,192,40342,1,8,0:0:0:0:
256,192,40430,1,8,0:0:0:0:
243,234,40518,1,0,0:0:0:0:
256,192,40695,1,8,0:0:0:0:
242,242,40871,1,8,0:0:0:0:
243,193,41048,1,8,0:0:0:0:
244,236,41224,1,0,0:0:0:0:
251,226,41313,1,0,0:0:0:0:
251,226,41401,1,8,0:0:0:0:
250,221,41577,1,0,0:0:0:0:
251,226,41754,1,8,0:0:0:0:
251,226,41842,1,8,0:0:0:0:
251,226,41930,1,0,0:0:0:0:
251,226,42107,1,8,0:0:0:0:
251,226,42283,1,8,0:0:0:0:
251,226,42371,1,0,0:0:0:0:
251,226,42460,1,0,0:0:0:0:
272,211,42813,1,0,0:0:0:0:
251,226,42989,1,8,0:0:0:0:
251,226,43166,1,0,0:0:0:0:
251,226,43342,1,8,0:0:0:0:
250,226,43430,1,8,0:0:0:0:
250,226,43518,1,0,0:0:0:0:
259,246,43695,1,0,0:0:0:0:
260,234,43871,1,8,0:0:0:0:
256,192,44224,1,0,0:0:0:0:
256,224,44313,1,0,0:0:0:0:
256,192,44401,1,8,0:0:0:0:
260,234,44577,1,0,0:0:0:0:
256,192,44754,1,8,0:0:0:0:
255,233,44930,1,0,0:0:0:0:
256,192,45107,1,8,0:0:0:0:
256,192,45283,1,0,0:0:0:0:
256,192,45460,1,8,0:0:0:0:
256,192,45548,1,8,0:0:0:0:
255,233,45636,1,0,0:0:0:0:
251,220,45813,1,0,0:0:0:0:
248,219,45901,1,8,0:0:0:0:
251,220,45989,1,8,0:0:0:0:
256,192,46077,1,0,0:0:0:0:
256,192,46166,1,8,0:0:0:0:
234,198,46342,1,8,0:0:0:0:
251,250,46695,1,4,0:0:0:0:
256,192,46871,1,8,0:0:0:0:
250,246,47048,1,0,0:0:0:0:
256,192,47136,1,0,0:0:0:0:
256,192,47224,1,8,0:0:0:0:
244,240,47401,1,0,0:0:0:0:
256,192,47577,1,8,0:0:0:0:
250,246,47754,1,0,0:0:0:0:
256,192,47842,1,0,0:0:0:0:
256,192,47930,1,8,0:0:0:0:
246,227,48107,1,0,0:0:0:0:
256,192,48283,1,8,0:0:0:0:
246,227,48460,1,8,0:0:0:0:
217,207,48548,1,0,0:0:0:0:
256,192,48636,1,0,0:0:0:0:
235,198,48724,1,8,0:0:0:0:
241,198,48813,1,8,0:0:0:0:
242,248,49166,1,8,0:0:0:0:
256,192,49342,1,0,0:0:0:0:
249,222,49518,1,8,0:0:0:0:
256,192,49695,1,0,0:0:0:0:
241,243,49871,1,8,0:0:0:0:
256,192,49960,1,0,0:0:0:0:
256,192,50048,1,8,0:0:0:0:
226,202,50136,1,0,0:0:0:0:
256,192,50224,1,8,0:0:0:0:
243,234,50577,1,8,0:0:0:0:
256,192,50666,1,8,0:0:0:0:
256,192,50754,1,0,0:0:0:0:
247,214,50930,1,0,0:0:0:0:
256,192,51107,1,8,0:0:0:0:
256,192,51283,1,0,0:0:0:0:
256,192,51460,1,8,0:0:0:0:
246,221,51636,1,8,0:0:0:0:
248,215,51989,1,0,0:0:0:0:
256,192,52166,1,0,0:0:0:0:
256,192,52254,1,8,0:0:0:0:
248,215,52342,1,8,0:0:0:0:
256,192,52518,1,0,0:0:0:0:
248,215,52695,1,8,0:0:0:0:
256,192,52871,1,0,0:0:0:0:
246,226,53048,1,8,0:0:0:0:
246,226,53401,1,0,0:0:0:0:
256,192,53577,1,8,0:0:0:0:
256,192,53666,1,8,0:0:0:0:
242,230,53754,1,0,0:0:0:0:
256,192,53930,1,8,0:0:0:0:
246,226,54106,1,0,0:0:0:0:
256,192,54283,1,8,0:0:0:0:
242,230,54460,1,8,0:0:0:0:
256,192,54813,1,8,0:0:0:0:
248,215,54901,1,0,0:0:0:0:
256,192,54989,1,0,0:0:0:0:
243,227,55166,1,8,0:0:0:0:
256,192,55342,1,0,0:0:0:0:
246,227,55518,1,8,0:0:0:0:
217,207,55606,1,0,0:0:0:0:
256,192,55694,1,0,0:0:0:0:
235,198,55782,1,8,0:0:0:0:
241,198,55871,1,8,0:0:0:0:
250,222,56224,1,8,0:0:0:0:
256,192,56401,1,0,0:0:0:0:
251,217,56577,1,8,0:0:0:0:
256,192,56666,1,0,0:0:0:0:
256,192,56754,1,8,0:0:0:0:
251,217,56930,1,8,0:0:0:0:
256,192,57107,1,0,0:0:0:0:
255,209,57283,1,8,0:0:0:0:
256,192,57371,1,0,0:0:0:0:
256,192,57460,1,8,0:0:0:0:
256,192,57548,1,0,0:0:0:0:
252,220,57636,1,8,0:0:0:0:
256,192,57813,1,0,0:0:0:0:
251,217,57989,1,12,0:0:0:0:
256,192,58342,1,0,0:0:0:0:
253,227,58695,1,0,0:0:0:0:
252,222,59048,1,0,0:0:0:0:
250,252,59401,1,8,0:0:0:0:
256,192,59754,1,0,0:0:0:0:
249,238,60107,1,0,0:0:0:0:
256,192,60460,1,0,0:0:0:0:
253,226,60813,1,8,0:0:0:0:
253,219,61166,1,0,0:0:0:0:
256,213,61518,1,0,0:0:0:0:
250,240,61871,1,0,0:0:0:0:
250,240,62224,1,8,0:0:0:0:
256,192,62577,1,0,0:0:0:0:
256,192,62930,1,0,0:0:0:0:
256,192,63283,1,0,0:0:0:0:
256,192,63636,1,12,0:0:0:0:
256,192,63813,1,0,0:0:0:0:
256,192,63901,1,0,0:0:0:0:
256,192,63989,1,8,0:0:0:0:
252,211,64166,1,8,0:0:0:0:
252,211,64342,1,8,0:0:0:0:
252,211,64518,1,0,0:0:0:0:
248,223,64607,1,0,0:0:0:0:
256,192,64695,1,8,0:0:0:0:
245,222,64871,1,0,0:0:0:0:
256,192,65048,1,8,0:0:0:0:
256,192,65224,1,0,0:0:0:0:
256,192,65401,1,8,0:0:0:0:
256,192,65577,1,0,0:0:0:0:
292,165,65754,1,8,0:0:0:0:
268,192,66107,1,0,0:0:0:0:
246,223,66283,1,0,0:0:0:0:
256,192,66371,1,0,0:0:0:0:
256,192,66460,1,8,0:0:0:0:
256,192,66636,1,0,0:0:0:0:
247,217,66813,1,8,0:0:0:0:
256,192,66989,1,0,0:0:0:0:
256,192,67166,1,8,0:0:0:0:
256,192,67518,1,8,0:0:0:0:
256,192,67695,1,0,0:0:0:0:
256,192,67871,1,8,0:0:0:0:
248,186,67960,1,0,0:0:0:0:
256,192,68048,1,0,0:0:0:0:
256,192,68224,1,8,0:0:0:0:
229,244,68401,1,0,0:0:0:0:
256,192,68577,1,0,0:0:0:0:
256,192,68754,1,0,0:0:0:0:
271,190,68842,1,0,0:0:0:0:
256,192,68930,1,8,0:0:0:0:
256,192,69018,1,8,0:0:0:0:
256,192,69107,1,0,0:0:0:0:
256,192,69283,1,12,0:0:0:0:
256,192,69636,1,8,0:0:0:0:
256,192,69813,1,0,0:0:0:0:
256,192,69901,1,8,0:0:0:0:
256,192,69989,1,0,0:0:0:0:
249,216,70166,1,0,0:0:0:0:
256,192,70342,1,8,0:0:0:0:
248,226,70518,1,8,0:0:0:0:
256,192,70695,1,0,0:0:0:0:
256,192,70871,1,8,0:0:0:0:
256,192,71048,1,8,0:0:0:0:
256,192,71224,1,0,0:0:0:0:
248,226,71313,1,8,0:0:0:0:
256,192,71401,1,0,0:0:0:0:
244,246,71577,1,0,0:0:0:0:
256,192,71754,1,8,0:0:0:0:
256,192,71842,1,0,0:0:0:0:
256,192,71930,1,0,0:0:0:0:
256,192,72018,1,8,0:0:0:0:
256,192,72107,1,8,0:0:0:0:
250,217,72283,1,0,0:0:0:0:
256,192,72460,1,8,0:0:0:0:
244,238,72636,1,0,0:0:0:0:
256,192,72813,1,0,0:0:0:0:
256,192,72989,1,8,0:0:0:0:
256,192,73166,1,8,0:0:0:0:
256,192,73342,1,8,0:0:0:0:
247,222,73430,1,8,0:0:0:0:
256,192,73518,1,0,0:0:0:0:
257,218,73871,1,0,0:0:0:0:
256,192,74048,1,8,0:0:0:0:
280,225,74136,1,0,0:0:0:0:
251,224,74224,1,8,0:0:0:0:
281,200,74313,1,0,0:0:0:0:
219,203,74401,1,0,0:0:0:0:
256,192,74577,1,8,0:0:0:0:
256,192,74666,1,0,0:0:0:0:
256,192,74754,1,0,0:0:0:0:
256,192,74842,1,8,0:0:0:0:
251,224,74930,1,8,0:0:0:0:
256,192,75107,1,0,0:0:0:0:
251,224,75283,1,8,0:0:0:0:
277,242,75460,1,0,0:0:0:0:
236,251,75548,1,0,0:0:0:0:
251,224,75636,1,8,0:0:0:0:
251,224,75989,1,8,0:0:0:0:
256,192,76166,1,0,0:0:0:0:
244,232,76342,1,8,0:0:0:0:
270,215,76430,1,0,0:0:0:0:
256,192,76518,1,0,0:0:0:0:
293,195,76607,1,8,0:0:0:0:
251,210,76695,1,8,0:0:0:0:
256,192,76871,1,0,0:0:0:0:
256,192,76960,1,8,0:0:0:0:
256,192,77048,1,8,0:0:0:0:
256,192,77224,1,0,0:0:0:0:
251,224,77401,1,8,0:0:0:0:
256,192,77754,1,0,0:0:0:0:
256,192,77930,1,8,0:0:0:0:
256,192,78107,1,0,0:0:0:0:
256,192,78195,1,0,0:0:0:0:
256,192,78283,1,8,0:0:0:0:
254,219,78460,1,8,0:0:0:0:
256,192,78636,1,0,0:0:0:0:
254,219,78724,1,8,0:0:0:0:
284,208,78813,1,8,0:0:0:0:
256,192,78901,1,8,0:0:0:0:
254,219,78989,1,0,0:0:0:0:
256,192,79166,1,12,0:0:0:0:
