osu file format v14

[General]
AudioFilename: yha.mp3
AudioLeadIn: 0
PreviewTime: 45989
Countdown: 0
SampleSet: Normal
StackLeniency: 0.7
Mode: 1
LetterboxInBreaks: 0
WidescreenStoryboard: 1

[Editor]
Bookmarks: 12813,24107,35401
DistanceSpacing: 1.2
BeatDivisor: 2
GridSize: 32
TimelineZoom: 2.6

[Metadata]
Title:Sakitnya Tuh Disini (Nightcore & Cut Ver.)
TitleUnicode:Sakitnya Tuh Disini (Nightcore & Cut Ver.)
Artist:Cita Citata
ArtistUnicode:Cita Citata
Creator:Yui Funami
Version:[-E S I A-]'s Mudah
Source:
Tags:electronic house dangdut pop indonesian speed short version volta ron [r] e_s_i_a [-e_s_i_a-] esia [-esia-] sani music indonesia rahayu The Pain is Right Here
BeatmapID:3760840
BeatmapSetID:1826389

[Difficulty]
HPDrainRate:9
CircleSize:2
OverallDifficulty:3
ApproachRate:10
SliderMultiplier:1.4
SliderTickRate:1

[Events]
//Background and Video events
0,0,"kantannya_tuh_disini (1).jpg",0,40
//Break Periods
//Storyboard Layer 0 (Background)
//Storyboard Layer 1 (Fail)
//Storyboard Layer 2 (Pass)
//Storyboard Layer 3 (Foreground)
//Storyboard Layer 4 (Overlay)
//Storyboard Sound Samples

[TimingPoints]
1519,352.941176470588,4,1,0,75,1,0
12813,-100,4,1,0,85,0,0
24107,-100,4,1,0,65,0,0
35401,-100,4,1,0,75,0,0
45371,-100,4,1,0,50,0,0
46695,-100,4,1,0,85,0,1
57989,-100,4,1,0,65,0,0
63636,-100,4,1,0,75,0,0
69283,-100,4,1,0,85,0,1
79166,-100,4,1,0,65,0,0

[HitObjects]
203,268,1519,5,12,0:0:0:0:
180,228,2577,1,0,0:0:0:0:
371,220,2930,1,8,0:0:0:0:
161,230,3636,1,0,0:0:0:0:
175,249,4342,1,8,0:0:0:0:
434,35,5401,1,8,0:0:0:0:
481,153,5754,1,0,0:0:0:0:
173,258,6460,1,0,0:0:0:0:
332,199,7166,1,8,0:0:0:0:
192,277,7871,1,0,0:0:0:0:
458,176,8577,1,8,0:0:0:0:
290,163,8930,1,0,0:0:0:0:
452,206,9283,1,0,0:0:0:0:
138,85,9989,1,8,0:0:0:0:
443,202,10695,1,0,0:0:0:0:
125,92,11401,1,8,0:0:0:0:
149,149,12460,1,0,0:0:0:0:
108,167,12813,1,12,0:0:0:0:
328,193,13518,1,0,0:0:0:0:
328,193,14224,1,0,0:0:0:0:
328,193,14577,1,8,0:0:0:0:
315,222,14930,1,0,0:0:0:0:
362,218,15636,1,8,0:0:0:0:
392,52,16342,1,8,0:0:0:0:
215,324,17048,1,0,0:0:0:0:
294,228,18107,1,0,0:0:0:0:
322,62,18460,1,8,0:0:0:0:
297,173,19166,1,0,0:0:0:0:
297,173,19871,1,0,0:0:0:0:
129,161,20224,1,0,0:0:0:0:
297,173,20577,1,8,0:0:0:0:
461,209,21283,1,8,0:0:0:0:
147,88,21989,1,0,0:0:0:0:
425,259,22695,1,8,0:0:0:0:
367,154,24107,1,0,0:0:0:0:
39,228,24813,1,8,0:0:0:0:
195,192,25166,1,0,0:0:0:0:
362,188,25518,1,0,0:0:0:0:
33,150,26224,1,8,0:0:0:0:
366,193,26930,1,0,0:0:0:0:
32,152,27636,1,0,0:0:0:0:
366,193,27989,1,8,0:0:0:0:
367,165,28342,1,0,0:0:0:0:
281,237,29754,1,8,0:0:0:0:
300,157,30460,1,0,0:0:0:0:
299,174,30813,1,8,0:0:0:0:
132,157,31166,1,8,0:0:0:0:
292,216,31871,1,0,0:0:0:0:
225,205,32577,1,8,0:0:0:0:
342,155,33283,1,0,0:0:0:0:
223,273,33636,1,8,0:0:0:0:
342,155,33989,1,0,0:0:0:0:
224,205,35401,1,4,0:0:0:0:
296,350,35754,1,8,0:0:0:0:
143,41,36460,1,8,0:0:0:0:
263,169,36813,1,0,0:0:0:0:
228,320,37166,1,8,0:0:0:0:
302,169,37871,1,8,0:0:0:0:
274,204,38224,1,0,0:0:0:0:
274,204,38577,1,8,0:0:0:0:
339,221,39283,1,8,0:0:0:0:
435,156,39636,1,0,0:0:0:0:
246,186,41048,1,0,0:0:0:0:
296,153,41401,1,8,0:0:0:0:
309,164,42107,1,8,0:0:0:0:
329,177,42460,1,0,0:0:0:0:
410,190,42813,1,8,0:0:0:0:
241,198,43518,1,8,0:0:0:0:
389,161,43871,1,0,0:0:0:0:
458,157,44224,1,8,0:0:0:0:
200,216,44930,1,0,0:0:0:0:
350,140,45283,1,0,0:0:0:0:
369,127,46695,1,12,0:0:0:0:
39,193,47401,1,0,0:0:0:0:
374,173,48107,1,8,0:0:0:0:
239,181,48460,1,8,0:0:0:0:
406,185,48813,1,0,0:0:0:0:
70,166,49518,1,8,0:0:0:0:
399,216,50224,1,0,0:0:0:0:
66,167,50930,1,0,0:0:0:0:
233,181,51283,1,8,0:0:0:0:
370,257,51636,1,0,0:0:0:0:
104,68,52342,1,8,0:0:0:0:
384,252,53048,1,0,0:0:0:0:
110,72,53754,1,8,0:0:0:0:
237,155,54107,1,0,0:0:0:0:
347,281,54460,1,0,0:0:0:0:
69,113,55166,1,8,0:0:0:0:
386,222,55871,1,0,0:0:0:0:
55,154,56577,1,0,0:0:0:0:
408,226,56930,1,8,0:0:0:0:
222,171,57283,1,0,0:0:0:0:
89,159,57989,1,12,0:0:0:0:
335,180,59048,1,0,0:0:0:0:
222,243,59401,1,8,0:0:0:0:
328,196,60107,1,0,0:0:0:0:
328,196,60813,1,8,0:0:0:0:
328,196,61871,1,8,0:0:0:0:
349,219,62224,1,0,0:0:0:0:
349,219,62930,1,0,0:0:0:0:
19,150,63636,1,12,0:0:0:0:
325,249,64342,1,0,0:0:0:0:
382,194,65048,1,8,0:0:0:0:
361,169,65401,1,0,0:0:0:0:
382,194,65754,1,0,0:0:0:0:
308,177,66460,1,8,0:0:0:0:
273,134,67166,1,0,0:0:0:0:
399,149,67871,1,8,0:0:0:0:
399,149,68930,1,8,0:0:0:0:
419,178,69283,1,4,0:0:0:0:
419,178,69813,1,8,0:0:0:0:
321,195,70342,1,8,0:0:0:0:
489,197,70695,1,0,0:0:0:0:
321,195,71224,1,0,0:0:0:0:
153,177,71754,1,8,0:0:0:0:
393,196,72107,1,0,0:0:0:0:
54,186,72813,1,0,0:0:0:0:
222,183,73166,1,8,0:0:0:0:
372,195,73518,1,0,0:0:0:0:
405,191,74577,1,8,0:0:0:0:
505,325,74930,1,0,0:0:0:0:
288,204,75460,1,8,0:0:0:0:
110,10,75989,1,8,0:0:0:0:
374,206,76342,1,0,0:0:0:0:
374,206,76871,1,0,0:0:0:0:
436,180,77401,1,8,0:0:0:0:
287,194,77754,1,0,0:0:0:0:
404,189,78460,1,8,0:0:0:0:
404,189,78813,1,0,0:0:0:0:
236,178,79166,1,12,0:0:0:0:
