osu file format v14

[General]
AudioFilename: Meriang.mp3
AudioLeadIn: 0
PreviewTime: 49591
Countdown: 0
SampleSet: Normal
StackLeniency: 0.7
Mode: 1
LetterboxInBreaks: 0
WidescreenStoryboard: 0

[Editor]
Bookmarks: 3099,8915,14730,26361,37993
DistanceSpacing: 2.5
BeatDivisor: 4
GridSize: 32
TimelineZoom: 2.2

[Metadata]
Title:Meriang (Speed Up Ver.)
TitleUnicode:Meriang (Speed Up Ver.)
Artist:Cita Citata
ArtistUnicode:Cita Citata
Creator:Nishizumi
Version:Sur's Oni
Source:
Tags:indonesia indonesian dangdut koplo cut short version Surono Genocide PatZar
BeatmapID:902521
BeatmapSetID:415751

[Difficulty]
HPDrainRate:6
CircleSize:2
OverallDifficulty:5.5
ApproachRate:0
SliderMultiplier:1.4
SliderTickRate:1

[Events]
//Background and Video events
0,0,"bg.jpg",0,75
//Break Periods
//Storyboard Layer 0 (Background)
//Storyboard Layer 1 (Fail)
//Storyboard Layer 2 (Pass)
//Storyboard Layer 3 (Foreground)
//Storyboard Sound Samples

[TimingPoints]
3003,352.941176470588,4,1,0,70,1,0
3003,-133.333333333333,4,1,0,70,0,0
8826,-111.111111111111,4,1,0,70,0,0
14120,-105.263157894737,4,1,0,70,0,0
14297,-100,4,1,0,70,0,0
25767,-133.333333333333,4,1,0,70,0,0
35826,-125,4,1,0,70,0,0
36179,-117.647058823529,4,1,0,70,0,0
36355,-111.111111111111,4,1,0,70,0,0
36708,-105.263157894737,4,1,0,70,0,0
36885,-100,4,1,0,70,0,0
49591,-100,4,1,0,75,0,1
60885,-90.9090909090909,4,1,0,75,0,1
72179,-90.9090909090909,4,1,0,70,0,0
72355,-100,4,1,0,75,0,0

[HitObjects]
256,192,3003,5,4,0:0:0:0:
256,192,3179,1,0,0:0:0:0:
256,192,3267,1,8,0:0:0:0:
256,192,3355,1,0,0:0:0:0:
256,192,3532,1,8,0:0:0:0:
256,192,3708,1,0,0:0:0:0:
256,192,3885,1,8,0:0:0:0:
256,192,4061,1,8,0:0:0:0:
256,192,4238,1,0,0:0:0:0:
256,192,4414,1,0,0:0:0:0:
256,192,4679,1,8,0:0:0:0:
256,192,4767,1,0,0:0:0:0:
256,192,4944,1,8,0:0:0:0:
256,192,5120,1,0,0:0:0:0:
256,192,5297,1,8,0:0:0:0:
256,192,5473,1,8,0:0:0:0:
256,192,5826,1,0,0:0:0:0:
256,192,6002,1,0,0:0:0:0:
256,192,6091,1,8,0:0:0:0:
256,192,6179,1,0,0:0:0:0:
256,192,6355,1,8,0:0:0:0:
256,192,6532,1,0,0:0:0:0:
256,192,6708,1,8,0:0:0:0:
256,192,6885,1,8,0:0:0:0:
256,192,7061,1,0,0:0:0:0:
256,192,7238,1,0,0:0:0:0:
256,192,7414,1,8,0:0:0:0:
256,192,7591,1,0,0:0:0:0:
256,192,7767,1,0,0:0:0:0:
256,192,7944,1,0,0:0:0:0:
256,192,8120,1,8,0:0:0:0:
256,192,8297,1,0,0:0:0:0:
256,192,8414,1,8,0:0:0:0:
256,192,8532,1,8,0:0:0:0:
256,192,8650,1,4,0:0:0:0:
256,192,8914,1,8,0:0:0:0:
256,192,9002,1,0,0:0:0:0:
256,192,9179,1,8,0:0:0:0:
256,192,9355,1,0,0:0:0:0:
256,192,9532,1,8,0:0:0:0:
256,192,9708,1,8,0:0:0:0:
256,192,9885,1,8,0:0:0:0:
256,192,9973,1,8,0:0:0:0:
256,192,10061,1,0,0:0:0:0:
256,192,10326,1,8,0:0:0:0:
256,192,10414,1,0,0:0:0:0:
256,192,10591,1,8,0:0:0:0:
256,192,10767,1,0,0:0:0:0:
256,192,10944,1,8,0:0:0:0:
256,192,11120,1,8,0:0:0:0:
256,192,11297,1,0,0:0:0:0:
256,192,11385,1,0,0:0:0:0:
256,192,11473,1,8,0:0:0:0:
256,192,11738,1,8,0:0:0:0:
256,192,11826,1,0,0:0:0:0:
256,192,12002,1,8,0:0:0:0:
256,192,12179,1,0,0:0:0:0:
256,192,12355,1,8,0:0:0:0:
256,192,12532,1,8,0:0:0:0:
256,192,12708,1,8,0:0:0:0:
256,192,12797,1,8,0:0:0:0:
256,192,12885,1,0,0:0:0:0:
256,192,13150,1,0,0:0:0:0:
256,192,13238,1,8,0:0:0:0:
256,192,13414,1,0,0:0:0:0:
256,192,13591,1,8,0:0:0:0:
256,192,13767,1,8,0:0:0:0:
256,192,13855,1,8,0:0:0:0:
256,192,13944,1,8,0:0:0:0:
256,192,14120,1,8,0:0:0:0:
256,192,14297,1,4,0:0:0:0:
256,192,14650,1,8,0:0:0:0:
256,192,14826,1,8,0:0:0:0:
256,192,14914,1,8,0:0:0:0:
256,192,15002,1,0,0:0:0:0:
256,192,15179,1,0,0:0:0:0:
256,192,15355,1,8,0:0:0:0:
256,192,15532,1,8,0:0:0:0:
256,192,15708,1,0,0:0:0:0:
256,192,16061,1,8,0:0:0:0:
256,192,16238,1,8,0:0:0:0:
256,192,16326,1,0,0:0:0:0:
256,192,16414,1,0,0:0:0:0:
256,192,16591,1,0,0:0:0:0:
256,192,16767,1,8,0:0:0:0:
256,192,16944,1,0,0:0:0:0:
256,192,17120,1,0,0:0:0:0:
256,192,17473,1,8,0:0:0:0:
256,192,17650,1,0,0:0:0:0:
256,192,17738,1,0,0:0:0:0:
256,192,17826,1,0,0:0:0:0:
256,192,18002,1,0,0:0:0:0:
256,192,18179,1,8,0:0:0:0:
256,192,18355,1,0,0:0:0:0:
256,192,18532,1,8,0:0:0:0:
256,192,18797,1,0,0:0:0:0:
256,192,18885,1,8,0:0:0:0:
256,192,19061,1,8,0:0:0:0:
256,192,19238,1,0,0:0:0:0:
256,192,19414,1,0,0:0:0:0:
256,192,19591,1,8,0:0:0:0:
256,192,19767,1,8,0:0:0:0:
256,192,19944,1,0,0:0:0:0:
256,192,20297,1,8,0:0:0:0:
256,192,20473,1,8,0:0:0:0:
256,192,20561,1,8,0:0:0:0:
256,192,20650,1,0,0:0:0:0:
256,192,20826,1,0,0:0:0:0:
256,192,21002,1,8,0:0:0:0:
256,192,21179,1,8,0:0:0:0:
256,192,21355,1,0,0:0:0:0:
256,192,21708,1,8,0:0:0:0:
256,192,21885,1,8,0:0:0:0:
256,192,21973,1,0,0:0:0:0:
256,192,22061,1,0,0:0:0:0:
256,192,22238,1,0,0:0:0:0:
256,192,22414,1,8,0:0:0:0:
256,192,22591,1,0,0:0:0:0:
256,192,22767,1,0,0:0:0:0:
256,192,23120,1,8,0:0:0:0:
256,192,23297,1,0,0:0:0:0:
256,192,23385,1,0,0:0:0:0:
256,192,23473,1,0,0:0:0:0:
256,192,23650,1,0,0:0:0:0:
256,192,23826,1,8,0:0:0:0:
256,192,24003,1,0,0:0:0:0:
256,192,24179,1,12,0:0:0:0:
256,192,24444,1,8,0:0:0:0:
256,192,24532,1,8,0:0:0:0:
256,192,24708,1,12,0:0:0:0:
256,192,24885,1,0,0:0:0:0:
256,192,25061,1,0,0:0:0:0:
256,192,25238,1,12,0:0:0:0:
256,192,25414,1,8,0:0:0:0:
256,192,25502,1,8,0:0:0:0:
256,192,25591,1,0,0:0:0:0:
256,192,25944,1,0,0:0:0:0:
256,192,26297,1,8,0:0:0:0:
256,192,26650,1,8,0:0:0:0:
256,192,26826,1,0,0:0:0:0:
256,192,27002,1,0,0:0:0:0:
256,192,27355,1,0,0:0:0:0:
256,192,27708,1,8,0:0:0:0:
256,192,28061,1,8,0:0:0:0:
256,192,28238,1,8,0:0:0:0:
256,192,28414,1,0,0:0:0:0:
256,192,28767,1,0,0:0:0:0:
256,192,29120,1,8,0:0:0:0:
256,192,29473,1,8,0:0:0:0:
256,192,29650,1,0,0:0:0:0:
256,192,29826,1,8,0:0:0:0:
256,192,30179,1,0,0:0:0:0:
256,192,30532,1,8,0:0:0:0:
256,192,30885,1,0,0:0:0:0:
256,192,31061,1,8,0:0:0:0:
256,192,31238,1,0,0:0:0:0:
256,192,31591,1,0,0:0:0:0:
256,192,31944,1,8,0:0:0:0:
256,192,32297,1,8,0:0:0:0:
256,192,32473,1,0,0:0:0:0:
256,192,32650,1,0,0:0:0:0:
256,192,33002,1,0,0:0:0:0:
256,192,33355,1,8,0:0:0:0:
256,192,33708,1,8,0:0:0:0:
256,192,33885,1,8,0:0:0:0:
256,192,34061,1,0,0:0:0:0:
256,192,34414,1,0,0:0:0:0:
256,192,34767,1,8,0:0:0:0:
256,192,35120,1,8,0:0:0:0:
256,192,35297,1,0,0:0:0:0:
256,192,35473,1,8,0:0:0:0:
256,192,35826,1,8,0:0:0:0:
256,192,36179,1,8,0:0:0:0:
256,192,36444,1,8,0:0:0:0:
256,192,36532,1,8,0:0:0:0:
256,192,36708,1,8,0:0:0:0:
256,192,36885,1,4,0:0:0:0:
256,192,37150,1,0,0:0:0:0:
256,192,37238,1,8,0:0:0:0:
256,192,37414,1,8,0:0:0:0:
256,192,37591,1,0,0:0:0:0:
256,192,37767,1,0,0:0:0:0:
256,192,37855,1,0,0:0:0:0:
256,192,37944,1,8,0:0:0:0:
256,192,38120,1,8,0:0:0:0:
256,192,38297,1,0,0:0:0:0:
256,192,38561,1,8,0:0:0:0:
256,192,38650,1,8,0:0:0:0:
256,192,38826,1,8,0:0:0:0:
256,192,39002,1,0,0:0:0:0:
256,192,39179,1,0,0:0:0:0:
256,192,39355,1,8,0:0:0:0:
256,192,39444,1,8,0:0:0:0:
256,192,39532,1,0,0:0:0:0:
256,192,39708,1,0,0:0:0:0:
256,192,39973,1,0,0:0:0:0:
256,192,40061,1,8,0:0:0:0:
256,192,40238,1,8,0:0:0:0:
256,192,40414,1,0,0:0:0:0:
256,192,40591,1,8,0:0:0:0:
256,192,40767,1,8,0:0:0:0:
256,192,40855,1,0,0:0:0:0:
256,192,40944,1,0,0:0:0:0:
256,192,41120,1,8,0:0:0:0:
256,192,41385,1,0,0:0:0:0:
256,192,41473,1,8,0:0:0:0:
256,192,41650,1,0,0:0:0:0:
256,192,41826,1,8,0:0:0:0:
256,192,42002,1,0,0:0:0:0:
256,192,42091,1,0,0:0:0:0:
256,192,42179,1,8,0:0:0:0:
256,192,42267,1,0,0:0:0:0:
256,192,42356,1,8,0:0:0:0:
256,192,42532,1,0,0:0:0:0:
256,192,42797,1,0,0:0:0:0:
256,192,42885,1,8,0:0:0:0:
256,192,43061,1,8,0:0:0:0:
256,192,43238,1,0,0:0:0:0:
256,192,43326,1,8,0:0:0:0:
256,192,43414,1,0,0:0:0:0:
256,192,43591,1,8,0:0:0:0:
256,192,43767,1,8,0:0:0:0:
256,192,43944,1,0,0:0:0:0:
256,192,44208,1,8,0:0:0:0:
256,192,44297,1,8,0:0:0:0:
256,192,44473,1,8,0:0:0:0:
256,192,44650,1,0,0:0:0:0:
256,192,44738,1,0,0:0:0:0:
256,192,44826,1,0,0:0:0:0:
256,192,45002,1,8,0:0:0:0:
256,192,45179,1,0,0:0:0:0:
256,192,45355,1,0,0:0:0:0:
256,192,45620,1,0,0:0:0:0:
256,192,45708,1,8,0:0:0:0:
256,192,45885,1,8,0:0:0:0:
256,192,46061,1,0,0:0:0:0:
256,192,46238,1,8,0:0:0:0:
256,192,46414,1,8,0:0:0:0:
256,192,46502,1,8,0:0:0:0:
256,192,46591,1,0,0:0:0:0:
256,192,46767,1,8,0:0:0:0:
256,192,47032,1,0,0:0:0:0:
256,192,47120,1,8,0:0:0:0:
256,192,47297,1,8,0:0:0:0:
256,192,47473,1,0,0:0:0:0:
256,192,47650,1,8,0:0:0:0:
256,192,47738,1,0,0:0:0:0:
256,192,47826,1,8,0:0:0:0:
256,192,47914,1,8,0:0:0:0:
256,192,48002,1,0,0:0:0:0:
256,192,48179,1,12,0:0:0:0:
256,192,48444,1,8,0:0:0:0:
256,192,48532,1,8,0:0:0:0:
256,192,48708,1,12,0:0:0:0:
256,192,49061,1,8,0:0:0:0:
256,192,49238,1,12,0:0:0:0:
256,192,49414,1,8,0:0:0:0:
256,192,49502,1,8,0:0:0:0:
256,192,49591,1,0,0:0:0:0:
256,192,49855,1,0,0:0:0:0:
256,192,49944,1,8,0:0:0:0:
256,192,50120,1,0,0:0:0:0:
256,192,50297,1,8,0:0:0:0:
256,192,50473,1,0,0:0:0:0:
256,192,50561,1,0,0:0:0:0:
256,192,50650,1,8,0:0:0:0:
256,192,50826,1,8,0:0:0:0:
256,192,51002,1,0,0:0:0:0:
256,192,51267,1,0,0:0:0:0:
256,192,51355,1,8,0:0:0:0:
256,192,51532,1,0,0:0:0:0:
256,192,51708,1,8,0:0:0:0:
256,192,51885,1,0,0:0:0:0:
256,192,51973,1,0,0:0:0:0:
256,192,52061,1,8,0:0:0:0:
256,192,52238,1,0,0:0:0:0:
256,192,52414,1,0,0:0:0:0:
256,192,52679,1,0,0:0:0:0:
256,192,52767,1,8,0:0:0:0:
256,192,52944,1,0,0:0:0:0:
256,192,53120,1,8,0:0:0:0:
256,192,53297,1,0,0:0:0:0:
256,192,53385,1,0,0:0:0:0:
256,192,53473,1,8,0:0:0:0:
256,192,53650,1,0,0:0:0:0:
256,192,53826,1,8,0:0:0:0:
256,192,54002,1,0,0:0:0:0:
256,192,54091,1,8,0:0:0:0:
256,192,54179,1,8,0:0:0:0:
256,192,54355,1,0,0:0:0:0:
256,192,54532,1,8,0:0:0:0:
256,192,54708,1,8,0:0:0:0:
256,192,54797,1,0,0:0:0:0:
256,192,54885,1,8,0:0:0:0:
256,192,55061,1,8,0:0:0:0:
256,192,55238,1,0,0:0:0:0:
256,192,55502,1,0,0:0:0:0:
256,192,55591,1,8,0:0:0:0:
256,192,55767,1,0,0:0:0:0:
256,192,55944,1,8,0:0:0:0:
256,192,56120,1,0,0:0:0:0:
256,192,56208,1,0,0:0:0:0:
256,192,56297,1,8,0:0:0:0:
256,192,56473,1,8,0:0:0:0:
256,192,56650,1,0,0:0:0:0:
256,192,56914,1,0,0:0:0:0:
256,192,57002,1,8,0:0:0:0:
256,192,57179,1,0,0:0:0:0:
256,192,57355,1,8,0:0:0:0:
256,192,57532,1,0,0:0:0:0:
256,192,57620,1,0,0:0:0:0:
256,192,57708,1,8,0:0:0:0:
256,192,57885,1,0,0:0:0:0:
256,192,58062,1,0,0:0:0:0:
256,192,58326,1,0,0:0:0:0:
256,192,58415,1,8,0:0:0:0:
256,192,58591,1,0,0:0:0:0:
256,192,58767,1,8,0:0:0:0:
256,192,58944,1,0,0:0:0:0:
256,192,59032,1,0,0:0:0:0:
256,192,59120,1,8,0:0:0:0:
256,192,59297,1,0,0:0:0:0:
256,192,59473,1,12,0:0:0:0:
256,192,59650,1,8,0:0:0:0:
256,192,59738,1,0,0:0:0:0:
256,192,59826,1,8,0:0:0:0:
256,192,60002,1,0,0:0:0:0:
256,192,60179,1,12,0:0:0:0:
256,192,60532,1,12,0:0:0:0:
256,192,60885,1,4,0:0:0:0:
256,192,61150,1,0,0:0:0:0:
256,192,61238,1,8,0:0:0:0:
256,192,61414,1,8,0:0:0:0:
256,192,61591,1,0,0:0:0:0:
256,192,61767,1,0,0:0:0:0:
256,192,61855,1,0,0:0:0:0:
256,192,61944,1,8,0:0:0:0:
256,192,62120,1,8,0:0:0:0:
256,192,62297,1,0,0:0:0:0:
256,192,62561,1,0,0:0:0:0:
256,192,62650,1,8,0:0:0:0:
256,192,62826,1,8,0:0:0:0:
256,192,63002,1,0,0:0:0:0:
256,192,63179,1,0,0:0:0:0:
256,192,63267,1,0,0:0:0:0:
256,192,63355,1,8,0:0:0:0:
256,192,63532,1,0,0:0:0:0:
256,192,63708,1,0,0:0:0:0:
256,192,63973,1,0,0:0:0:0:
256,192,64061,1,8,0:0:0:0:
256,192,64238,1,8,0:0:0:0:
256,192,64414,1,0,0:0:0:0:
256,192,64591,1,0,0:0:0:0:
256,192,64679,1,0,0:0:0:0:
256,192,64767,1,8,0:0:0:0:
256,192,64944,1,0,0:0:0:0:
256,192,65120,1,8,0:0:0:0:
256,192,65297,1,0,0:0:0:0:
256,192,65385,1,8,0:0:0:0:
256,192,65473,1,8,0:0:0:0:
256,192,65650,1,8,0:0:0:0:
256,192,65826,1,0,0:0:0:0:
256,192,66002,1,8,0:0:0:0:
256,192,66091,1,0,0:0:0:0:
256,192,66179,1,8,0:0:0:0:
256,192,66355,1,0,0:0:0:0:
256,192,66532,1,8,0:0:0:0:
256,192,66797,1,0,0:0:0:0:
256,192,66885,1,8,0:0:0:0:
256,192,67061,1,8,0:0:0:0:
256,192,67238,1,0,0:0:0:0:
256,192,67414,1,0,0:0:0:0:
256,192,67502,1,0,0:0:0:0:
256,192,67591,1,8,0:0:0:0:
256,192,67767,1,8,0:0:0:0:
256,192,67944,1,0,0:0:0:0:
256,192,68208,1,0,0:0:0:0:
256,192,68297,1,8,0:0:0:0:
256,192,68473,1,8,0:0:0:0:
256,192,68650,1,0,0:0:0:0:
256,192,68826,1,0,0:0:0:0:
256,192,68914,1,0,0:0:0:0:
256,192,69002,1,8,0:0:0:0:
256,192,69179,1,0,0:0:0:0:
256,192,69355,1,0,0:0:0:0:
256,192,69620,1,0,0:0:0:0:
256,192,69708,1,8,0:0:0:0:
256,192,69885,1,8,0:0:0:0:
256,192,70061,1,0,0:0:0:0:
256,192,70238,1,0,0:0:0:0:
256,192,70326,1,0,0:0:0:0:
256,192,70414,1,8,0:0:0:0:
256,192,70591,1,0,0:0:0:0:
256,192,70767,1,12,0:0:0:0:
256,192,71032,1,8,0:0:0:0:
256,192,71120,1,8,0:0:0:0:
256,192,71297,1,12,0:0:0:0:
256,192,71650,1,8,0:0:0:0:
256,192,71826,1,12,0:0:0:0:
256,192,72002,1,8,0:0:0:0:
256,192,72091,1,8,0:0:0:0:
256,192,72179,1,0,0:0:0:0:
256,192,72532,1,8,0:0:0:0:
256,192,72708,1,0,0:0:0:0:
256,192,72885,1,0,0:0:0:0:
256,192,72973,1,0,0:0:0:0:
256,192,73061,1,8,0:0:0:0:
256,192,73238,1,8,0:0:0:0:
256,192,73414,1,8,0:0:0:0:
256,192,73591,1,0,0:0:0:0:
256,192,73944,1,8,0:0:0:0:
256,192,74120,1,0,0:0:0:0:
256,192,74297,1,8,0:0:0:0:
256,192,74385,1,8,0:0:0:0:
256,192,74473,1,0,0:0:0:0:
256,192,74650,1,8,0:0:0:0:
256,192,74826,1,0,0:0:0:0:
256,192,75002,1,0,0:0:0:0:
256,192,75355,1,8,0:0:0:0:
256,192,75532,1,0,0:0:0:0:
256,192,75708,1,0,0:0:0:0:
256,192,75797,1,0,0:0:0:0:
256,192,75885,1,8,0:0:0:0:
256,192,76061,1,8,0:0:0:0:
256,192,76238,1,0,0:0:0:0:
256,192,76414,1,8,0:0:0:0:
256,192,76679,1,0,0:0:0:0:
256,192,76767,1,8,0:0:0:0:
256,192,76944,1,8,0:0:0:0:
256,192,77120,1,0,0:0:0:0:
256,192,77208,1,0,0:0:0:0:
256,192,77297,1,0,0:0:0:0:
256,192,77473,1,8,0:0:0:0:
256,192,77650,1,8,0:0:0:0:
256,192,77826,1,0,0:0:0:0:
256,192,78179,1,8,0:0:0:0:
256,192,78355,1,0,0:0:0:0:
256,192,78532,1,8,0:0:0:0:
256,192,78620,1,8,0:0:0:0:
256,192,78708,1,0,0:0:0:0:
256,192,78885,1,8,0:0:0:0:
256,192,79061,1,8,0:0:0:0:
256,192,79238,1,0,0:0:0:0:
256,192,79591,1,8,0:0:0:0:
256,192,79767,1,0,0:0:0:0:
256,192,79944,1,0,0:0:0:0:
256,192,80032,1,0,0:0:0:0:
256,192,80120,1,8,0:0:0:0:
256,192,80297,1,8,0:0:0:0:
256,192,80473,1,0,0:0:0:0:
256,192,80650,1,0,0:0:0:0:
256,192,81002,1,8,0:0:0:0:
256,192,81179,1,0,0:0:0:0:
256,192,81355,1,8,0:0:0:0:
256,192,81444,1,8,0:0:0:0:
256,192,81532,1,0,0:0:0:0:
256,192,81708,1,8,0:0:0:0:
256,192,81885,1,0,0:0:0:0:
256,192,82061,1,12,0:0:0:0:
256,192,82326,1,8,0:0:0:0:
256,192,82414,1,8,0:0:0:0:
256,192,82591,1,12,0:0:0:0:
256,192,82767,1,0,0:0:0:0:
256,192,82855,1,0,0:0:0:0:
256,192,82944,1,8,0:0:0:0:
256,192,83120,1,12,0:0:0:0:
256,192,83297,1,8,0:0:0:0:
256,192,83385,1,8,0:0:0:0:
256,192,83473,1,0,0:0:0:0:
