osu file format v14

[General]
AudioFilename: Meriang.mp3
AudioLeadIn: 0
PreviewTime: 49591
Countdown: 0
SampleSet: Normal
StackLeniency: 0.7
Mode: 1
LetterboxInBreaks: 0
WidescreenStoryboard: 1

[Editor]
DistanceSpacing: 2.5
BeatDivisor: 4
GridSize: 32
TimelineZoom: 2.2

[Metadata]
Title:Meriang (Speed Up Ver.)
TitleUnicode:Meriang (Speed Up Ver.)
Artist:Cita Citata
ArtistUnicode:Cita Citata
Creator:Nishizumi
Version:Oni
Source:
Tags:indonesia indonesian dangdut koplo cut short version Surono Genocide PatZar
BeatmapID:1064402
BeatmapSetID:415751

[Difficulty]
HPDrainRate:5
CircleSize:3
OverallDifficulty:5
ApproachRate:6
SliderMultiplier:1.4
SliderTickRate:1

[Events]
//Background and Video events
0,0,"bg.jpg",0,75
//Break Periods
//Storyboard Layer 0 (Background)
//Storyboard Layer 1 (Fail)
//Storyboard Layer 2 (Pass)
//Storyboard Layer 3 (Foreground)
//Storyboard Sound Samples

[TimingPoints]
3003,352.941176470588,4,1,0,70,1,0
8650,-100,4,1,0,75,0,0
25944,-100,4,1,0,70,0,0
35473,-100,4,1,0,75,0,0
49591,-100,4,1,0,75,0,1
72179,-100,4,1,0,75,0,0

[HitObjects]
256,192,3003,5,0,0:0:0:0:
256,192,3179,1,0,0:0:0:0:
256,192,3532,1,8,0:0:0:0:
256,192,3708,1,0,0:0:0:0:
256,192,3885,1,8,0:0:0:0:
256,192,4061,1,8,0:0:0:0:
256,192,4238,1,8,0:0:0:0:
256,192,4414,1,0,0:0:0:0:
256,192,4767,1,0,0:0:0:0:
256,192,4944,1,8,0:0:0:0:
256,192,5120,1,0,0:0:0:0:
256,192,5297,1,8,0:0:0:0:
256,192,5473,1,8,0:0:0:0:
256,192,5826,5,0,0:0:0:0:
256,192,6002,1,0,0:0:0:0:
256,192,6355,1,8,0:0:0:0:
256,192,6532,1,0,0:0:0:0:
256,192,6708,1,8,0:0:0:0:
256,192,6885,1,8,0:0:0:0:
256,192,7061,1,8,0:0:0:0:
256,192,7238,1,0,0:0:0:0:
256,192,7591,1,0,0:0:0:0:
256,192,7767,1,0,0:0:0:0:
256,192,7944,1,0,0:0:0:0:
256,192,8297,1,8,0:0:0:0:
256,192,8650,1,0,0:0:0:0:
256,192,8826,1,0,0:0:0:0:
256,192,9179,1,8,0:0:0:0:
256,192,9355,1,0,0:0:0:0:
256,192,9532,1,8,0:0:0:0:
256,192,9708,1,8,0:0:0:0:
256,192,9885,1,8,0:0:0:0:
256,192,10061,1,0,0:0:0:0:
256,192,10326,1,8,0:0:0:0:
256,192,10414,1,0,0:0:0:0:
256,192,10591,1,8,0:0:0:0:
256,192,10767,1,0,0:0:0:0:
256,192,10944,1,8,0:0:0:0:
256,192,11120,1,8,0:0:0:0:
256,192,11473,1,0,0:0:0:0:
256,192,11650,1,0,0:0:0:0:
256,192,12002,1,8,0:0:0:0:
256,192,12179,1,0,0:0:0:0:
256,192,12355,1,8,0:0:0:0:
256,192,12532,1,8,0:0:0:0:
256,192,12708,1,8,0:0:0:0:
256,192,12885,1,0,0:0:0:0:
256,192,13150,1,0,0:0:0:0:
256,192,13238,1,8,0:0:0:0:
256,192,13414,1,0,0:0:0:0:
256,192,13591,1,8,0:0:0:0:
256,192,13855,1,0,0:0:0:0:
256,192,13944,1,8,0:0:0:0:
256,192,14120,1,8,0:0:0:0:
256,192,14297,1,4,0:0:0:0:
256,192,14473,1,0,0:0:0:0:
256,192,14826,1,8,0:0:0:0:
256,192,15002,1,0,0:0:0:0:
256,192,15179,1,8,0:0:0:0:
256,192,15355,1,8,0:0:0:0:
256,192,15532,1,8,0:0:0:0:
256,192,15708,1,0,0:0:0:0:
256,192,15885,1,0,0:0:0:0:
256,192,16238,1,8,0:0:0:0:
256,192,16414,1,0,0:0:0:0:
256,192,16591,1,8,0:0:0:0:
256,192,16679,1,8,0:0:0:0:
256,192,16767,1,8,0:0:0:0:
256,192,16944,1,8,0:0:0:0:
256,192,17120,1,0,0:0:0:0:
256,192,17297,1,0,0:0:0:0:
256,192,17650,1,8,0:0:0:0:
256,192,17826,1,0,0:0:0:0:
256,192,18002,1,8,0:0:0:0:
256,192,18179,1,8,0:0:0:0:
256,192,18355,1,0,0:0:0:0:
256,192,18532,1,8,0:0:0:0:
256,192,18797,1,0,0:0:0:0:
256,192,18885,1,8,0:0:0:0:
256,192,19061,1,0,0:0:0:0:
256,192,19238,1,8,0:0:0:0:
256,192,19414,1,0,0:0:0:0:
256,192,19502,1,0,0:0:0:0:
256,192,19591,1,8,0:0:0:0:
256,192,19767,1,8,0:0:0:0:
256,192,19944,1,0,0:0:0:0:
256,192,20120,1,0,0:0:0:0:
256,192,20473,1,8,0:0:0:0:
256,192,20650,1,0,0:0:0:0:
256,192,20826,1,8,0:0:0:0:
256,192,21002,1,8,0:0:0:0:
256,192,21179,1,8,0:0:0:0:
256,192,21355,1,0,0:0:0:0:
256,192,21532,1,0,0:0:0:0:
256,192,21885,1,8,0:0:0:0:
256,192,22061,1,0,0:0:0:0:
256,192,22238,1,8,0:0:0:0:
256,192,22326,1,8,0:0:0:0:
256,192,22414,1,8,0:0:0:0:
256,192,22591,1,8,0:0:0:0:
256,192,22767,1,0,0:0:0:0:
256,192,22944,1,0,0:0:0:0:
256,192,23297,1,8,0:0:0:0:
256,192,23473,1,0,0:0:0:0:
256,192,23650,1,8,0:0:0:0:
256,192,23826,1,8,0:0:0:0:
256,192,24002,1,0,0:0:0:0:
256,192,24179,1,12,0:0:0:0:
256,192,24444,1,0,0:0:0:0:
256,192,24532,1,8,0:0:0:0:
256,192,24708,1,0,0:0:0:0:
256,192,24885,1,8,0:0:0:0:
256,192,25061,1,0,0:0:0:0:
256,192,25238,1,8,0:0:0:0:
256,192,25414,1,8,0:0:0:0:
256,192,25502,1,8,0:0:0:0:
256,192,25591,1,0,0:0:0:0:
256,192,25944,1,0,0:0:0:0:
256,192,26297,1,8,0:0:0:0:
256,192,26650,1,8,0:0:0:0:
256,192,26826,1,0,0:0:0:0:
256,192,27002,1,0,0:0:0:0:
256,192,27355,1,0,0:0:0:0:
256,192,27708,1,8,0:0:0:0:
256,192,28061,1,8,0:0:0:0:
256,192,28238,1,8,0:0:0:0:
256,192,28414,1,0,0:0:0:0:
256,192,28767,1,0,0:0:0:0:
256,192,29120,1,8,0:0:0:0:
256,192,29473,1,8,0:0:0:0:
256,192,29650,1,0,0:0:0:0:
256,192,29826,1,0,0:0:0:0:
256,192,30179,1,0,0:0:0:0:
256,192,30532,1,8,0:0:0:0:
256,192,30885,1,8,0:0:0:0:
256,192,31061,1,8,0:0:0:0:
256,192,31238,1,0,0:0:0:0:
256,192,31591,1,0,0:0:0:0:
256,192,31944,1,8,0:0:0:0:
256,192,32297,1,8,0:0:0:0:
256,192,32473,1,0,0:0:0:0:
256,192,32650,1,0,0:0:0:0:
256,192,33002,1,0,0:0:0:0:
256,192,33355,1,8,0:0:0:0:
256,192,33708,1,8,0:0:0:0:
256,192,33885,1,8,0:0:0:0:
256,192,34061,1,0,0:0:0:0:
256,192,34414,1,0,0:0:0:0:
256,192,34767,1,8,0:0:0:0:
256,192,35120,1,0,0:0:0:0:
256,192,35473,1,8,0:0:0:0:
256,192,35826,1,8,0:0:0:0:
256,192,36179,1,8,0:0:0:0:
256,192,36444,1,0,0:0:0:0:
256,192,36532,1,8,0:0:0:0:
256,192,36708,1,8,0:0:0:0:
256,192,36885,1,4,0:0:0:0:
256,192,37061,1,0,0:0:0:0:
256,192,37238,1,8,0:0:0:0:
256,192,37414,1,0,0:0:0:0:
256,192,37767,1,0,0:0:0:0:
256,192,37944,1,8,0:0:0:0:
256,192,38120,1,8,0:0:0:0:
256,192,38297,1,0,0:0:0:0:
256,192,38473,1,0,0:0:0:0:
256,192,38561,1,0,0:0:0:0:
256,192,38650,1,8,0:0:0:0:
256,192,38826,1,0,0:0:0:0:
256,192,39179,1,0,0:0:0:0:
256,192,39355,1,8,0:0:0:0:
256,192,39532,1,0,0:0:0:0:
256,192,39708,1,0,0:0:0:0:
256,192,39885,1,0,0:0:0:0:
256,192,40061,1,8,0:0:0:0:
256,192,40238,1,0,0:0:0:0:
256,192,40591,1,0,0:0:0:0:
256,192,40767,1,8,0:0:0:0:
256,192,40944,1,8,0:0:0:0:
256,192,41120,1,0,0:0:0:0:
256,192,41297,1,0,0:0:0:0:
256,192,41385,1,0,0:0:0:0:
256,192,41473,1,8,0:0:0:0:
256,192,41650,1,0,0:0:0:0:
256,192,42002,1,0,0:0:0:0:
256,192,42179,1,8,0:0:0:0:
256,192,42355,1,0,0:0:0:0:
256,192,42532,1,0,0:0:0:0:
256,192,42708,1,0,0:0:0:0:
256,192,42885,1,8,0:0:0:0:
256,192,43061,1,0,0:0:0:0:
256,192,43414,1,0,0:0:0:0:
256,192,43591,1,8,0:0:0:0:
256,192,43767,1,8,0:0:0:0:
256,192,43855,1,8,0:0:0:0:
256,192,43944,1,0,0:0:0:0:
256,192,44120,1,0,0:0:0:0:
256,192,44297,1,8,0:0:0:0:
256,192,44473,1,0,0:0:0:0:
256,192,44826,1,0,0:0:0:0:
256,192,44914,1,0,0:0:0:0:
256,192,45002,1,8,0:0:0:0:
256,192,45179,1,0,0:0:0:0:
256,192,45355,1,0,0:0:0:0:
256,192,45532,1,0,0:0:0:0:
256,192,45708,1,8,0:0:0:0:
256,192,45885,1,0,0:0:0:0:
256,192,46238,1,0,0:0:0:0:
256,192,46414,1,8,0:0:0:0:
256,192,46591,1,8,0:0:0:0:
256,192,46679,1,8,0:0:0:0:
256,192,46767,1,0,0:0:0:0:
256,192,46944,1,0,0:0:0:0:
256,192,47120,1,8,0:0:0:0:
256,192,47297,1,0,0:0:0:0:
256,192,47650,1,0,0:0:0:0:
256,192,47738,1,0,0:0:0:0:
256,192,47826,1,8,0:0:0:0:
256,192,48002,1,0,0:0:0:0:
256,192,48179,1,12,0:0:0:0:
256,192,48444,1,8,0:0:0:0:
256,192,48532,1,8,0:0:0:0:
256,192,48708,1,8,0:0:0:0:
256,192,49061,1,8,0:0:0:0:
256,192,49238,1,8,0:0:0:0:
256,192,49414,1,8,0:0:0:0:
256,192,49591,1,4,0:0:0:0:
256,192,49767,1,0,0:0:0:0:
256,192,49944,1,8,0:0:0:0:
256,192,50120,1,0,0:0:0:0:
256,192,50473,1,0,0:0:0:0:
256,192,50650,1,8,0:0:0:0:
256,192,50826,1,0,0:0:0:0:
256,192,51002,1,0,0:0:0:0:
256,192,51179,1,0,0:0:0:0:
256,192,51267,1,0,0:0:0:0:
256,192,51355,1,8,0:0:0:0:
256,192,51532,1,0,0:0:0:0:
256,192,51885,1,0,0:0:0:0:
256,192,52061,1,8,0:0:0:0:
256,192,52238,1,0,0:0:0:0:
256,192,52414,1,0,0:0:0:0:
256,192,52591,1,8,0:0:0:0:
256,192,52679,1,0,0:0:0:0:
256,192,52767,1,8,0:0:0:0:
256,192,52944,1,0,0:0:0:0:
256,192,53297,1,0,0:0:0:0:
256,192,53473,1,8,0:0:0:0:
256,192,53650,1,8,0:0:0:0:
256,192,53826,1,0,0:0:0:0:
256,192,54002,1,0,0:0:0:0:
256,192,54091,1,0,0:0:0:0:
256,192,54179,1,8,0:0:0:0:
256,192,54355,1,0,0:0:0:0:
256,192,54708,1,0,0:0:0:0:
256,192,54885,1,8,0:0:0:0:
256,192,55061,1,8,0:0:0:0:
256,192,55238,1,0,0:0:0:0:
256,192,55414,1,8,0:0:0:0:
256,192,55502,1,0,0:0:0:0:
256,192,55591,1,8,0:0:0:0:
256,192,55767,1,0,0:0:0:0:
256,192,56120,1,0,0:0:0:0:
256,192,56297,1,8,0:0:0:0:
256,192,56473,1,0,0:0:0:0:
256,192,56650,1,0,0:0:0:0:
256,192,56826,1,0,0:0:0:0:
256,192,56914,1,0,0:0:0:0:
256,192,57002,1,8,0:0:0:0:
256,192,57179,1,0,0:0:0:0:
256,192,57532,1,0,0:0:0:0:
256,192,57708,1,8,0:0:0:0:
256,192,57885,1,0,0:0:0:0:
256,192,58061,1,0,0:0:0:0:
256,192,58238,1,8,0:0:0:0:
256,192,58326,1,0,0:0:0:0:
256,192,58414,1,8,0:0:0:0:
256,192,58591,1,0,0:0:0:0:
256,192,58944,1,0,0:0:0:0:
256,192,59120,1,8,0:0:0:0:
256,192,59297,1,8,0:0:0:0:
256,192,59473,1,4,0:0:0:0:
256,192,59650,1,8,0:0:0:0:
256,192,59738,1,0,0:0:0:0:
256,192,59826,1,8,0:0:0:0:
256,192,60002,1,0,0:0:0:0:
256,192,60179,1,8,0:0:0:0:
256,192,60532,1,8,0:0:0:0:
256,192,60708,1,8,0:0:0:0:
256,192,60885,1,4,0:0:0:0:
256,192,61061,1,0,0:0:0:0:
256,192,61150,1,0,0:0:0:0:
256,192,61238,1,8,0:0:0:0:
256,192,61414,1,0,0:0:0:0:
256,192,61767,1,0,0:0:0:0:
256,192,61944,1,8,0:0:0:0:
256,192,62120,1,0,0:0:0:0:
256,192,62296,1,0,0:0:0:0:
256,192,62473,1,8,0:0:0:0:
256,192,62561,1,0,0:0:0:0:
256,192,62649,1,8,0:0:0:0:
256,192,62826,1,0,0:0:0:0:
256,192,63179,1,0,0:0:0:0:
256,192,63355,1,8,0:0:0:0:
256,192,63532,1,0,0:0:0:0:
256,192,63708,1,0,0:0:0:0:
256,192,63885,1,8,0:0:0:0:
256,192,63973,1,8,0:0:0:0:
256,192,64061,1,8,0:0:0:0:
256,192,64238,1,0,0:0:0:0:
256,192,64591,1,0,0:0:0:0:
256,192,64767,1,8,0:0:0:0:
256,192,64944,1,8,0:0:0:0:
256,192,65120,1,0,0:0:0:0:
256,192,65296,1,8,0:0:0:0:
256,192,65385,1,0,0:0:0:0:
256,192,65473,1,8,0:0:0:0:
256,192,65649,1,0,0:0:0:0:
256,192,66002,1,0,0:0:0:0:
256,192,66179,1,8,0:0:0:0:
256,192,66355,1,8,0:0:0:0:
256,192,66532,1,0,0:0:0:0:
256,192,66708,1,8,0:0:0:0:
256,192,66797,1,8,0:0:0:0:
256,192,66885,1,8,0:0:0:0:
256,192,67061,1,0,0:0:0:0:
256,192,67414,1,0,0:0:0:0:
256,192,67502,1,0,0:0:0:0:
256,192,67591,1,8,0:0:0:0:
256,192,67767,1,0,0:0:0:0:
256,192,67944,1,0,0:0:0:0:
256,192,68120,1,8,0:0:0:0:
256,192,68208,1,0,0:0:0:0:
256,192,68296,1,8,0:0:0:0:
256,192,68473,1,0,0:0:0:0:
256,192,68826,1,0,0:0:0:0:
256,192,68914,1,0,0:0:0:0:
256,192,69002,1,8,0:0:0:0:
256,192,69179,1,0,0:0:0:0:
256,192,69355,1,0,0:0:0:0:
256,192,69532,1,8,0:0:0:0:
256,192,69620,1,8,0:0:0:0:
256,192,69708,1,8,0:0:0:0:
256,192,69885,1,0,0:0:0:0:
256,192,70238,1,0,0:0:0:0:
256,192,70326,1,0,0:0:0:0:
256,192,70414,1,8,0:0:0:0:
256,192,70591,1,0,0:0:0:0:
256,192,70767,1,12,0:0:0:0:
256,192,71032,1,8,0:0:0:0:
256,192,71120,1,8,0:0:0:0:
256,192,71296,1,0,0:0:0:0:
256,192,71650,1,8,0:0:0:0:
256,192,71826,1,0,0:0:0:0:
256,192,72002,1,8,0:0:0:0:
256,192,72179,1,4,0:0:0:0:
256,192,72355,1,0,0:0:0:0:
256,192,72708,1,8,0:0:0:0:
256,192,72884,1,0,0:0:0:0:
256,192,73061,1,8,0:0:0:0:
256,192,73150,1,8,0:0:0:0:
256,192,73237,1,8,0:0:0:0:
256,192,73414,1,8,0:0:0:0:
256,192,73590,1,0,0:0:0:0:
256,192,73767,1,0,0:0:0:0:
256,192,74120,1,8,0:0:0:0:
256,192,74296,1,0,0:0:0:0:
256,192,74473,1,8,0:0:0:0:
256,192,74561,1,0,0:0:0:0:
256,192,74649,1,8,0:0:0:0:
256,192,74826,1,8,0:0:0:0:
256,192,75002,1,0,0:0:0:0:
256,192,75179,1,0,0:0:0:0:
256,192,75532,1,8,0:0:0:0:
256,192,75708,1,0,0:0:0:0:
256,192,75884,1,8,0:0:0:0:
256,192,75973,1,8,0:0:0:0:
256,192,76061,1,8,0:0:0:0:
256,192,76237,1,0,0:0:0:0:
256,192,76414,1,8,0:0:0:0:
256,192,76679,1,0,0:0:0:0:
256,192,76767,1,8,0:0:0:0:
256,192,76943,1,0,0:0:0:0:
256,192,77120,1,8,0:0:0:0:
256,192,77296,1,0,0:0:0:0:
256,192,77384,1,0,0:0:0:0:
256,192,77473,1,8,0:0:0:0:
256,192,77649,1,8,0:0:0:0:
256,192,77826,1,0,0:0:0:0:
256,192,78002,1,0,0:0:0:0:
256,192,78355,1,8,0:0:0:0:
256,192,78532,1,0,0:0:0:0:
256,192,78708,1,8,0:0:0:0:
256,192,78797,1,8,0:0:0:0:
256,192,78884,1,8,0:0:0:0:
256,192,79061,1,8,0:0:0:0:
256,192,79237,1,0,0:0:0:0:
256,192,79414,1,0,0:0:0:0:
256,192,79767,1,8,0:0:0:0:
256,192,79943,1,0,0:0:0:0:
256,192,80120,1,8,0:0:0:0:
256,192,80208,1,0,0:0:0:0:
256,192,80296,1,8,0:0:0:0:
256,192,80473,1,8,0:0:0:0:
256,192,80649,1,0,0:0:0:0:
256,192,80826,1,0,0:0:0:0:
256,192,81179,1,8,0:0:0:0:
256,192,81355,1,0,0:0:0:0:
256,192,81532,1,8,0:0:0:0:
256,192,81620,1,8,0:0:0:0:
256,192,81708,1,8,0:0:0:0:
256,192,81884,1,0,0:0:0:0:
256,192,82061,1,12,0:0:0:0:
256,192,82326,1,0,0:0:0:0:
256,192,82414,1,8,0:0:0:0:
256,192,82590,1,0,0:0:0:0:
256,192,82767,1,8,0:0:0:0:
256,192,82943,1,0,0:0:0:0:
256,192,83120,1,8,0:0:0:0:
256,192,83296,1,8,0:0:0:0:
256,192,83385,1,8,0:0:0:0:
256,192,83473,1,0,0:0:0:0:
