osu file format v14

[General]
AudioFilename: Meriang.mp3
AudioLeadIn: 0
PreviewTime: 49591
Countdown: 0
SampleSet: Normal
StackLeniency: 0.7
Mode: 1
LetterboxInBreaks: 0
WidescreenStoryboard: 0

[Editor]
DistanceSpacing: 2.5
BeatDivisor: 2
GridSize: 32
TimelineZoom: 1.9

[Metadata]
Title:Meriang (Speed Up Ver.)
TitleUnicode:Meriang (Speed Up Ver.)
Artist:Cita Citata
ArtistUnicode:Cita Citata
Creator:Nishizumi
Version:Kantan
Source:
Tags:indonesia indonesian dangdut koplo cut short version Surono Genocide PatZar
BeatmapID:902520
BeatmapSetID:415751

[Difficulty]
HPDrainRate:8
CircleSize:5
OverallDifficulty:3
ApproachRate:5
SliderMultiplier:1.4
SliderTickRate:1

[Events]
//Background and Video events
0,0,"bg.jpg",0,75
//Break Periods
//Storyboard Layer 0 (Background)
//Storyboard Layer 1 (Fail)
//Storyboard Layer 2 (Pass)
//Storyboard Layer 3 (Foreground)
//Storyboard Sound Samples

[TimingPoints]
3003,352.941176470588,4,1,0,70,1,0
8650,-100,4,1,0,75,0,0
25591,-100,4,1,0,70,0,0
35473,-100,4,1,0,75,0,0
49591,-100,4,1,0,75,0,1
72179,-100,4,1,0,75,0,0

[HitObjects]
256,192,3003,5,0,0:0:0:0:
256,192,3708,1,0,0:0:0:0:
256,192,4061,1,0,0:0:0:0:
256,192,4414,1,0,0:0:0:0:
256,192,5826,1,0,0:0:0:0:
256,192,6532,1,0,0:0:0:0:
256,192,6885,1,0,0:0:0:0:
256,192,7238,1,0,0:0:0:0:
256,192,8650,1,8,0:0:0:0:
256,192,9355,1,8,0:0:0:0:
256,192,9708,1,8,0:0:0:0:
256,192,10061,1,8,0:0:0:0:
256,192,11473,1,8,0:0:0:0:
256,192,12179,1,8,0:0:0:0:
256,192,12532,1,8,0:0:0:0:
256,192,12885,1,8,0:0:0:0:
256,192,14297,1,4,0:0:0:0:
256,192,15002,1,8,0:0:0:0:
256,192,15355,1,8,0:0:0:0:
256,192,15708,1,0,0:0:0:0:
256,192,16414,1,8,0:0:0:0:
256,192,17120,1,0,0:0:0:0:
256,192,17826,1,8,0:0:0:0:
256,192,18179,1,8,0:0:0:0:
256,192,18532,1,0,0:0:0:0:
256,192,19944,1,8,0:0:0:0:
256,192,20650,1,0,0:0:0:0:
256,192,21002,1,0,0:0:0:0:
256,192,21355,1,8,0:0:0:0:
256,192,22061,1,0,0:0:0:0:
256,192,22767,1,8,0:0:0:0:
256,192,23473,1,0,0:0:0:0:
256,192,23826,1,0,0:0:0:0:
256,192,24179,1,8,0:0:0:0:
256,192,25591,1,0,0:0:0:0:
256,192,27002,1,0,0:0:0:0:
256,192,27708,1,8,0:0:0:0:
256,192,28414,1,0,0:0:0:0:
256,192,29826,1,0,0:0:0:0:
256,192,30532,1,8,0:0:0:0:
256,192,31238,1,0,0:0:0:0:
256,192,32650,1,0,0:0:0:0:
256,192,33355,1,8,0:0:0:0:
256,192,34061,1,0,0:0:0:0:
256,192,35473,1,8,0:0:0:0:
256,192,36179,1,8,0:0:0:0:
256,192,36885,1,4,0:0:0:0:
256,192,37591,1,0,0:0:0:0:
256,192,37944,1,0,0:0:0:0:
256,192,38297,1,8,0:0:0:0:
256,192,39355,1,8,0:0:0:0:
256,192,39708,1,0,0:0:0:0:
256,192,41120,1,0,0:0:0:0:
256,192,41826,1,8,0:0:0:0:
256,192,42532,1,0,0:0:0:0:
256,192,43238,1,0,0:0:0:0:
256,192,43591,1,0,0:0:0:0:
256,192,43944,1,8,0:0:0:0:
256,192,45002,1,8,0:0:0:0:
256,192,45355,1,0,0:0:0:0:
256,192,46767,5,0,0:0:0:0:
256,192,47473,1,0,0:0:0:0:
256,192,47826,1,0,0:0:0:0:
256,192,48179,1,8,0:0:0:0:
256,192,49591,1,4,0:0:0:0:
256,192,50297,1,8,0:0:0:0:
256,192,50650,1,8,0:0:0:0:
256,192,51002,1,0,0:0:0:0:
256,192,52061,1,8,0:0:0:0:
256,192,52414,1,0,0:0:0:0:
256,192,53120,1,8,0:0:0:0:
256,192,53473,1,8,0:0:0:0:
256,192,53826,1,0,0:0:0:0:
256,192,54532,1,8,0:0:0:0:
256,192,55238,1,0,0:0:0:0:
256,192,55944,1,8,0:0:0:0:
256,192,56297,1,8,0:0:0:0:
256,192,56650,1,0,0:0:0:0:
256,192,57708,1,8,0:0:0:0:
256,192,58061,1,0,0:0:0:0:
256,192,58767,1,8,0:0:0:0:
256,192,59120,1,8,0:0:0:0:
256,192,59473,1,0,0:0:0:0:
256,192,60885,1,4,0:0:0:0:
256,192,61591,5,0,0:0:0:0:
256,192,61944,1,0,0:0:0:0:
256,192,62297,1,8,0:0:0:0:
256,192,63355,1,0,0:0:0:0:
256,192,63708,1,8,0:0:0:0:
256,192,64414,1,0,0:0:0:0:
256,192,64767,1,0,0:0:0:0:
256,192,65120,1,8,0:0:0:0:
256,192,65826,1,0,0:0:0:0:
256,192,66532,1,8,0:0:0:0:
256,192,67238,1,0,0:0:0:0:
256,192,67591,1,0,0:0:0:0:
256,192,67944,1,8,0:0:0:0:
256,192,69002,1,0,0:0:0:0:
256,192,69355,1,8,0:0:0:0:
256,192,70061,1,0,0:0:0:0:
256,192,70414,1,0,0:0:0:0:
256,192,70767,1,8,0:0:0:0:
256,192,72179,1,0,0:0:0:0:
256,192,72885,1,8,0:0:0:0:
256,192,73238,1,8,0:0:0:0:
256,192,73591,1,0,0:0:0:0:
256,192,74297,1,8,0:0:0:0:
256,192,75002,1,0,0:0:0:0:
256,192,75708,1,8,0:0:0:0:
256,192,76061,1,8,0:0:0:0:
256,192,76414,1,0,0:0:0:0:
256,192,77826,1,8,0:0:0:0:
256,192,78532,1,0,0:0:0:0:
256,192,78885,1,0,0:0:0:0:
256,192,79238,1,8,0:0:0:0:
256,192,79944,1,0,0:0:0:0:
256,192,80650,1,8,0:0:0:0:
256,192,81355,1,0,0:0:0:0:
256,192,81708,1,0,0:0:0:0:
256,192,82061,1,8,0:0:0:0:
256,192,82767,1,8,0:0:0:0:
256,192,83473,1,0,0:0:0:0:
