osu file format v14

[General]
AudioFilename: iNSaNiTY.mp3
AudioLeadIn: 0
PreviewTime: 61301
Countdown: 0
SampleSet: Soft
StackLeniency: 0.4
Mode: 0
LetterboxInBreaks: 0
EpilepsyWarning: 1
WidescreenStoryboard: 1

[Editor]
Bookmarks: 9581,95981,99821,213101,220781,295181
DistanceSpacing: 1.6
BeatDivisor: 8
GridSize: 4
TimelineZoom: 2

[Metadata]
Title:iNSaNiTY
TitleUnicode:iNSaNiTY
Artist:CircusP
ArtistUnicode:CircusP
Creator:Gero
Version:-iNSaNiTY-
Source:osu!
Tags:Lucid -EP DLX codename 開発コード SF-A2 miki & KAITO Yamaha Corporation Crypton Future Media Circus-P さん Doofus-P DoofusP デュファスP Azuralunar VOCALOID ボーカロイド FA Featured Artist Mappers Mappers' Guild MPG MG Japanese Dance Electronic Pachiru Cosmolade xNymphia Nymphi-a
BeatmapID:2410057
BeatmapSetID:1154421

[Difficulty]
HPDrainRate:7
CircleSize:4
OverallDifficulty:7
ApproachRate:8.5
SliderMultiplier:2
SliderTickRate:1

[Events]
//Background and Video events
0,0,"iNSaNiTY.jpg",0,0
//Break Periods
2,96181,99146
2,213301,220106
//Storyboard Layer 0 (Background)
//Storyboard Layer 1 (Fail)
//Storyboard Layer 2 (Pass)
//Storyboard Layer 3 (Foreground)
//Storyboard Layer 4 (Overlay)
//Storyboard Sound Samples

[TimingPoints]
-19,480,4,2,1,80,1,0
18701,-62.5,4,2,1,80,0,0
19181,-100,4,2,1,80,0,0
22541,-66.6666666666667,4,2,1,80,0,0
23021,-100,4,2,1,80,0,0
26381,-62.5,4,2,1,80,0,0
26861,-100,4,2,1,80,0,0
30221,-62.5,4,2,1,80,0,0
30701,-83.3333333333333,4,2,1,80,0,0
61421,-166.666666666667,4,2,1,60,0,0
76781,-83.3333333333333,4,2,1,80,0,1
92141,-100,4,2,1,60,0,0
94061,-100,4,2,1,40,0,0
99821,-100,4,2,1,50,0,0
105581,-400,4,2,1,30,0,0
107021,-100,4,2,1,60,0,0
107501,-83.3333333333333,4,2,1,80,0,0
130541,-125,4,2,1,70,0,0
145901,-83.3333333333333,4,2,1,80,0,1
161261,-100,4,2,1,80,0,0
176621,-111.111111111111,4,2,1,60,0,0
207341,-111.111111111111,4,2,1,55,0,0
207821,-111.111111111111,4,2,1,50,0,0
208301,-111.111111111111,4,2,1,40,0,0
208781,-111.111111111111,4,2,1,30,0,0
209261,-111.111111111111,4,2,1,20,0,0
209741,-111.111111111111,4,2,1,10,0,0
210221,-111.111111111111,4,2,1,5,0,0
211661,-111.111111111111,4,2,1,5,0,0
211901,-111.111111111111,4,2,1,10,0,0
212141,-111.111111111111,4,2,1,15,0,0
212381,-111.111111111111,4,2,1,20,0,0
212621,-111.111111111111,4,2,1,30,0,0
212861,-111.111111111111,4,2,1,40,0,0
213101,-111.111111111111,4,2,1,50,0,0
220781,-200,4,2,1,20,0,0
222701,-166.666666666666,4,2,1,25,0,0
224621,-142.857142857143,4,2,1,30,0,0
226541,-125,4,2,1,40,0,0
228461,-1000,4,2,1,35,0,0
230381,-333.333333333333,4,2,1,40,0,0
243821,-1000,4,2,1,60,0,0
245741,-83.3333333333333,4,2,1,80,0,1
260981,-83.3333333333333,4,2,1,80,0,0
261101,-83.3333333333333,4,2,1,80,0,1
276461,-83.3333333333333,4,2,1,80,0,0
291821,-83.3333333333333,4,2,1,70,0,0
292301,-83.3333333333333,4,2,1,60,0,0
292781,-83.3333333333333,4,2,1,50,0,0
293261,-83.3333333333333,4,2,1,40,0,0
293741,-83.3333333333333,4,2,1,30,0,0
294221,-83.3333333333333,4,2,1,20,0,0
294701,-83.3333333333333,4,2,1,10,0,0
295181,-83.3333333333333,4,2,1,5,0,0

[Colours]
Combo1 : 100,140,234
Combo2 : 255,121,121

[HitObjects]
256,192,9581,12,4,14861,1:0:0:0:
196,192,15341,6,0,P|216:236|196:280,1,100,2|0,3:2|3:0,0:0:0:0:
127,324,15701,1,0,3:0:0:0:
127,324,15821,2,0,B|175:324|175:324|211:361,1,100,8|0,0:0|3:0,0:0:0:0:
316,192,16301,6,0,P|296:236|316:280,1,100,2|0,0:0|0:0,0:0:0:0:
385,324,16661,1,0,3:0:0:0:
385,324,16781,2,0,B|337:324|337:324|300:361,1,100,10|0,0:0|3:0,0:0:0:0:
127,236,17261,6,0,B|112:220|112:220|112:164|112:164|127:148,1,100,2|0,3:2|3:0,0:0:0:0:
196,192,17621,1,0,3:0:0:0:
196,192,17741,2,0,B|181:176|181:176|181:120|181:120|196:104,1,100,8|0,0:0|3:0,0:0:0:0:
385,236,18221,6,0,B|400:220|400:220|400:164|400:164|385:148,1,100,2|0,0:0|0:0,0:0:0:0:
316,192,18581,1,0,3:0:0:0:
316,192,18701,2,0,B|276:192|276:192|256:157|256:157|236:192|236:192|196:192,1,160,14|0,1:2|0:0,0:0:0:0:
316,104,19181,6,0,B|330:56|330:56|316:8,1,100,2|0,3:2|3:0,0:0:0:0:
256,56,19541,1,0,3:0:0:0:
196,8,19661,2,0,B|182:56|182:56|196:104,1,100,8|0,0:0|3:0,0:0:0:0:
316,280,20141,6,0,B|330:328|330:328|316:376,1,100,2|0,0:0|0:0,0:0:0:0:
256,328,20501,1,0,3:0:0:0:
196,376,20621,2,0,B|182:328|182:328|196:280,1,100,10|0,0:0|3:0,0:0:0:0:
316,192,21101,5,2,3:2:0:0:
366,82,21341,1,0,3:0:0:0:
366,82,21461,1,0,3:0:0:0:
366,82,21581,1,8,0:0:0:0:
416,192,21821,1,0,3:0:0:0:
196,192,22061,5,2,0:0:0:0:
146,82,22301,1,0,0:0:0:0:
146,82,22421,1,0,3:0:0:0:
146,82,22541,1,14,1:2:0:0:
96,192,22781,1,0,0:0:0:0:
316,192,23021,6,0,P|296:236|316:280,1,100,2|0,3:2|3:0,0:0:0:0:
385,324,23381,1,0,3:0:0:0:
385,324,23501,2,0,B|337:324|337:324|301:361,1,100,8|0,0:0|3:0,0:0:0:0:
196,192,23981,6,0,P|216:236|196:280,1,100,2|0,0:0|0:0,0:0:0:0:
127,324,24341,1,0,3:0:0:0:
127,324,24461,2,0,B|175:324|175:324|212:361,1,100,10|0,0:0|3:0,0:0:0:0:
385,236,24941,6,0,B|400:220|400:220|400:164|400:164|385:148,1,100,2|0,3:2|3:0,0:0:0:0:
316,192,25301,1,0,3:0:0:0:
316,192,25421,2,0,B|331:176|331:176|331:120|331:120|316:104,1,100,8|0,0:0|3:0,0:0:0:0:
127,236,25901,6,0,B|112:220|112:220|112:164|112:164|127:148,1,100,2|0,0:0|0:0,0:0:0:0:
196,192,26261,1,0,3:0:0:0:
196,192,26381,2,0,B|236:192|236:192|256:157|256:157|276:192|276:192|316:192,1,160,14|0,1:2|0:0,0:0:0:0:
196,104,26861,6,0,B|182:56|182:56|196:8,1,100,2|0,3:2|3:0,0:0:0:0:
256,56,27221,1,0,3:0:0:0:
316,8,27341,2,0,B|330:56|330:56|316:104,1,100,8|0,0:0|3:0,0:0:0:0:
196,280,27821,6,0,B|182:328|182:328|196:376,1,100,2|0,0:0|0:0,0:0:0:0:
256,328,28181,1,0,3:0:0:0:
316,376,28301,2,0,B|330:328|330:328|316:280,1,100,10|0,0:0|3:0,0:0:0:0:
196,192,28781,5,2,3:2:0:0:
146,82,29021,1,0,3:0:0:0:
146,82,29141,1,0,3:0:0:0:
146,82,29261,1,8,0:0:0:0:
96,192,29501,1,0,3:0:0:0:
316,192,29741,5,2,0:0:0:0:
366,82,29981,1,0,0:0:0:0:
366,82,30101,1,0,3:0:0:0:
366,82,30221,1,14,1:2:0:0:
416,192,30461,1,0,0:0:0:0:
196,192,30701,6,0,L|316:192,1,119.999996337891,0|0,3:0|3:0,0:0:0:0:
285,282,31061,1,2,0:0:0:0:
285,282,31181,2,0,B|256:275|256:275|227:282,1,59.9999981689454
316,372,31421,2,0,B|345:365|345:365|374:372,1,59.9999981689454,2|0,3:2|0:0,0:0:0:0:
463,282,31661,6,0,B|434:230|434:230|405:282,1,119.999996337891
504,192,32021,1,2,0:0:0:0:
504,192,32141,2,0,B|475:140,1,59.9999981689454
364,192,32381,2,0,B|393:140,1,59.9999981689454,2|0,3:2|0:0,0:0:0:0:
434,52,32621,6,0,B|400:52|400:52|356:52|332:8,1,119.999996337891,0|0,3:0|3:0,0:0:0:0:
256,68,32981,1,2,0:0:0:0:
256,68,33101,2,0,L|196:68,1,59.9999981689454
60,128,33341,2,0,L|120:128,1,59.9999981689454,2|0,3:2|0:0,0:0:0:0:
256,188,33581,6,0,B|226:172|226:140|226:140|226:172|196:188,1,119.999996337891
120,248,33941,1,2,0:0:0:0:
120,248,34061,2,0,P|114:277|120:306,1,59.9999981689454,4|0,1:2|0:0,0:0:0:0:
196,366,34301,2,0,L|256:366,1,59.9999981689454,2|0,0:0|0:0,0:0:0:0:
332,306,34541,6,0,B|380:306|380:306|388:302|388:302|396:298|396:298|450:298,1,119.999996337891,0|0,3:0|3:0,0:0:0:0:
480,204,34901,1,2,0:0:0:0:
480,204,35021,2,0,L|420:204,1,59.9999981689454
360,108,35261,2,0,L|420:108,1,59.9999981689454,2|0,3:2|0:0,0:0:0:0:
300,12,35501,6,0,P|256:46|212:12,1,119.999996337891
152,108,35861,1,2,0:0:0:0:
152,108,35981,2,0,P|180:117|202:137,1,59.9999981689454
360,108,36221,2,0,P|332:117|310:137,1,59.9999981689454,2|0,3:2|0:0,0:0:0:0:
203,233,36461,6,0,B|203:280|203:280|207:288|207:288|199:288|199:288|203:296|203:296|203:343,1,119.999996337891,0|0,3:0|3:0,0:0:0:0:
106,343,36821,1,2,0:0:0:0:
106,343,36941,2,0,L|46:343,1,59.9999981689454
46,233,37181,2,0,L|106:233,1,59.9999981689454,2|0,3:2|0:0,0:0:0:0:
309,233,37421,6,0,B|309:280|309:280|305:288|305:288|313:288|313:288|309:296|309:296|309:343,1,119.999996337891
406,343,37781,1,2,0:0:0:0:
406,343,37901,2,0,L|466:343,1,59.9999981689454,4|0,1:2|0:0,0:0:0:0:
466,233,38141,2,0,L|406:233,1,59.9999981689454,2|0,0:0|0:0,0:0:0:0:
203,233,38381,6,0,P|185:177|203:121,1,119.999996337891,0|0,3:0|3:0,0:0:0:0:
256,40,38741,1,2,0:0:0:0:
256,40,38861,2,0,B|288:40|288:40|307:21,1,59.9999981689454
456,40,39101,2,0,B|424:40|424:40|405:21,1,59.9999981689454,2|0,3:2|0:0,0:0:0:0:
356,102,39341,6,0,L|356:222,1,119.999996337891
404,304,39701,1,2,0:0:0:0:
404,304,39821,2,0,P|430:317|456:304,1,59.9999981689454
308,304,40061,2,0,P|282:317|256:304,1,59.9999981689454,2|0,3:2|0:0,0:0:0:0:
164,248,40301,6,0,P|183:304|164:360,1,119.999996337891,0|0,3:0|3:0,0:0:0:0:
84,304,40661,1,2,0:0:0:0:
84,304,40781,2,0,L|41:261,1,59.9999981689454
164,248,41021,2,0,L|121:205,1,59.9999981689454,2|0,3:2|0:0,0:0:0:0:
244,192,41261,6,0,L|159:107,1,119.999996337891
227,39,41621,1,2,0:0:0:0:
227,39,41741,2,0,B|256:32|256:32|285:39,1,59.9999981689454,4|0,1:2|0:0,0:0:0:0:
412,107,41981,2,0,B|383:114|383:114|354:107,1,59.9999981689454,2|0,0:0|0:0,0:0:0:0:
503,107,42221,6,0,L|503:227,1,119.999996337891,0|0,3:0|3:0,0:0:0:0:
503,323,42581,1,2,0:0:0:0:
503,323,42701,2,0,L|443:323,1,59.9999981689454
308,384,42941,2,0,L|368:384,1,59.9999981689454,2|0,3:2|0:0,0:0:0:0:
233,323,43181,6,0,B|186:323|186:323|178:319|178:319|178:327|178:327|170:323|170:323|123:323,1,119.999996337891
68,244,43541,1,2,0:0:0:0:
68,244,43661,2,0,B|36:244|36:244|16:263,1,59.9999981689454
68,140,43901,2,0,B|36:140|36:140|16:120,1,59.9999981689454,2|0,3:2|0:0,0:0:0:0:
123,61,44141,6,0,B|170:61|170:61|178:57|178:57|178:65|178:65|186:61|186:61|233:61,1,119.999996337891,0|0,3:0|3:0,0:0:0:0:
308,0,44501,1,2,0:0:0:0:
308,0,44621,2,0,B|308:56|308:56|316:64|316:64|316:116,1,119.999996337891,0|2,0:0|3:2,0:0:0:0:
123,323,45101,6,0,B|170:323|170:323|178:327|178:327|178:319|178:319|186:323|186:323|233:323,1,119.999996337891
308,384,45461,1,2,3:2:0:0:
308,384,45581,2,0,B|308:328|308:328|316:320|316:320|316:268,1,119.999996337891,4|2,1:0|0:0,0:0:0:0:
316,116,46061,6,0,B|256:112|256:112|196:116,1,119.999996337891,0|0,3:0|3:0,0:0:0:0:
136,192,46421,1,0,1:0:0:0:
196,268,46541,2,0,B|256:272|256:272|316:268,1,119.999996337891,8|0,0:0|1:0,0:0:0:0:
136,344,47021,5,2,0:0:0:0:
256,192,47261,1,0,0:0:0:0:
256,192,47381,1,0,1:0:0:0:
256,192,47501,1,8,0:0:0:0:
376,344,47741,1,0,1:0:0:0:
196,268,47981,6,0,B|256:272|256:272|316:268,1,119.999996337891,0|0,3:0|3:0,0:0:0:0:
376,192,48341,1,0,1:0:0:0:
316,116,48461,2,0,B|256:112|256:112|196:116,1,119.999996337891,8|0,0:0|1:0,0:0:0:0:
376,40,48941,5,2,0:0:0:0:
256,192,49181,1,0,0:0:0:0:
256,192,49301,1,0,1:0:0:0:
256,192,49421,1,12,0:0:0:0:
136,40,49661,1,0,1:0:0:0:
316,116,49901,6,0,B|367:116|367:116|375:120|375:120|383:124|383:124|434:124,1,119.999996337891,0|0,3:0|3:0,0:0:0:0:
504,192,50261,1,0,1:0:0:0:
434,260,50381,2,0,B|383:260|383:260|375:264|375:264|367:268|367:268|316:268,1,119.999996337891,8|0,0:0|1:0,0:0:0:0:
196,116,50861,5,2,0:0:0:0:
372,192,51101,1,0,0:0:0:0:
372,192,51221,1,0,1:0:0:0:
372,192,51341,1,8,0:0:0:0:
196,268,51581,1,0,1:0:0:0:
84,116,51821,6,0,B|132:116|132:116|140:107|140:107|148:116|148:116|196:116,1,119.999996337891,0|0,3:0|3:0,0:0:0:0:
256,192,52181,1,0,1:0:0:0:
196,268,52301,2,0,B|148:268|148:268|140:277|140:277|132:268|132:268|84:268,1,119.999996337891,8|0,0:0|1:0,0:0:0:0:
256,344,52781,5,2,0:0:0:0:
140,192,53021,1,0,0:0:0:0:
140,192,53141,1,0,1:0:0:0:
140,192,53261,1,12,0:0:0:0:
256,40,53501,1,0,1:0:0:0:
372,192,53741,6,0,B|392:216|376:248|372:248|368:248|352:280|372:304,1,119.999996337891,0|0,3:0|3:0,0:0:0:0:
432,380,54101,1,0,1:0:0:0:
492,304,54221,2,0,B|512:280|496:248|492:248|488:248|472:216|492:192,1,119.999996337891,8|0,0:0|1:0,0:0:0:0:
372,80,54701,5,2,0:0:0:0:
140,80,54941,1,0,0:0:0:0:
140,80,55061,1,0,1:0:0:0:
140,80,55181,1,8,0:0:0:0:
372,80,55421,1,0,1:0:0:0:
140,192,55661,6,0,B|120:216|136:248|140:248|144:248|160:280|140:304,1,119.999996337891,0|0,3:0|3:0,0:0:0:0:
80,380,56021,1,0,1:0:0:0:
20,304,56141,2,0,B|0:280|16:248|20:248|24:248|40:216|20:192,1,119.999996337891,8|0,0:0|1:0,0:0:0:0:
140,80,56621,5,2,0:0:0:0:
372,80,56861,1,0,0:0:0:0:
372,80,56981,1,0,1:0:0:0:
372,80,57101,1,12,0:0:0:0:
140,80,57341,1,0,1:0:0:0:
372,192,57581,6,0,B|352:252|292:280,1,119.999996337891,0|0,3:0|3:0,0:0:0:0:
256,192,57941,1,0,1:0:0:0:
217,278,58061,2,0,B|160:252|140:192,1,119.999996337891,8|0,0:0|1:0,0:0:0:0:
256,365,58541,5,2,0:0:0:0:
256,192,58781,1,0,0:0:0:0:
256,192,58901,1,0,1:0:0:0:
256,192,59021,1,8,0:0:0:0:
256,19,59261,1,0,1:0:0:0:
428,105,59501,6,0,L|308:105,1,119.999996337891,0|0,3:0|3:0,0:0:0:0:
256,192,59861,1,0,1:0:0:0:
204,105,59981,2,0,L|84:105,1,119.999996337891,8|0,0:0|1:0,0:0:0:0:
84,279,60461,6,0,L|204:279,1,119.999996337891,2|0,0:0|0:0,0:0:0:0:
256,192,60821,1,0,1:0:0:0:
308,279,60941,2,0,L|428:279,1,119.999996337891,12|0,0:0|1:0,0:0:0:0:
308,105,61421,5,2,0:0:0:0:
308,105,61901,1,2,0:0:0:0:
308,105,62381,1,2,0:0:0:0:
308,105,62861,1,2,0:0:0:0:
308,105,63341,5,0,0:0:0:0:
256,18,63581,1,2,0:0:0:0:
204,105,63821,1,0,0:0:0:0:
256,192,64061,1,2,0:0:0:0:
308,105,64301,5,0,0:0:0:0:
152,192,64781,1,2,0:0:0:0:
308,279,65261,5,2,0:0:0:0:
308,279,65741,1,2,0:0:0:0:
308,279,66221,1,2,0:0:0:0:
308,279,66701,1,2,0:0:0:0:
308,279,67181,5,0,0:0:0:0:
256,366,67421,1,2,0:0:0:0:
204,279,67661,1,0,0:0:0:0:
256,192,67901,1,2,0:0:0:0:
308,279,68141,5,0,0:0:0:0:
152,192,68621,1,2,0:0:0:0:
308,105,69101,5,2,0:0:0:0:
308,279,69581,1,2,0:0:0:0:
204,105,70061,1,2,0:0:0:0:
204,279,70541,1,2,0:0:0:0:
308,105,71021,5,0,0:0:0:0:
404,105,71261,1,2,0:0:0:0:
500,105,71501,1,0,0:0:0:0:
452,192,71741,1,2,0:0:0:0:
500,279,71981,1,0,0:0:0:0:
404,279,72221,1,2,0:0:0:0:
308,279,72461,1,0,0:0:0:0:
356,192,72701,1,2,0:0:0:0:
308,279,72941,5,2,0:0:0:0:
308,105,73421,1,2,0:0:0:0:
204,279,73901,1,2,0:0:0:0:
204,105,74381,1,2,0:0:0:0:
308,279,74861,6,0,P|256:305|204:279,1,119.999996337891,2|2,0:0|0:0,0:0:0:0:
256,192,75581,1,2,0:0:0:0:
204,105,75821,1,0,0:0:0:0:
204,105,75941,1,2,0:0:0:0:
204,105,76061,1,0,0:0:0:0:
308,105,76301,2,0,L|334:105,4,14.9999995422363,2|0|0|0|0,0:0|0:0|0:0|0:0|0:0,0:0:0:0:
204,105,76781,6,0,B|172:105|152:79|152:79|132:105|100:105,1,119.999996337891,4|0,1:0|3:0,0:0:0:0:
8,76,77141,1,0,0:0:0:0:
8,76,77261,2,0,B|1:105|1:105|8:134,1,59.9999981689454,10|0,0:0|0:0,0:0:0:0:
100,163,77501,2,0,B|107:134|107:134|100:105,1,59.9999981689454,0|0,1:0|0:0,0:0:0:0:
8,231,77741,6,0,P|-10:287|8:343,1,119.999996337891,2|0,0:0|3:0,0:0:0:0:
100,343,78101,1,0,1:0:0:0:
100,343,78221,2,0,L|160:343,1,59.9999981689454,10|0,0:0|0:0,0:0:0:0:
288,276,78461,2,0,L|228:276,1,59.9999981689454,0|0,1:0|0:0,0:0:0:0:
352,343,78701,6,0,P|380:353|408:343,1,59.9999981689454,0|0,3:0|0:0,0:0:0:0:
472,276,78941,1,0,3:0:0:0:
472,276,79061,1,0,3:0:0:0:
472,276,79181,2,0,L|422:241,1,59.9999981689454,10|0,0:0|0:0,0:0:0:0:
422,142,79421,2,0,L|472:108,1,59.9999981689454,0|0,1:0|0:0,0:0:0:0:
407,41,79661,6,0,B|364:41|364:41|326:41|298:6,1,119.999996337891,2|0,0:0|3:0,0:0:0:0:
256,92,80021,1,0,1:0:0:0:
213,6,80141,2,0,B|186:41|148:41|148:41|105:41,1,119.999996337891,14|0,0:0|0:0,0:0:0:0:
308,279,80621,6,0,B|340:279|360:305|360:305|380:279|412:279,1,119.999996337891,0|0,1:0|3:0,0:0:0:0:
504,308,80981,1,0,3:0:0:0:
504,308,81101,2,0,B|511:279|511:279|504:250,1,59.9999981689454,10|0,0:0|0:0,0:0:0:0:
412,221,81341,2,0,B|405:250|405:250|412:279,1,59.9999981689454,0|0,1:0|0:0,0:0:0:0:
504,153,81581,6,0,P|522:97|504:41,1,119.999996337891,2|0,0:0|3:0,0:0:0:0:
412,41,81941,1,0,1:0:0:0:
412,41,82061,2,0,L|352:41,1,59.9999981689454,10|0,0:0|0:0,0:0:0:0:
224,108,82301,2,0,L|284:108,1,59.9999981689454,0|0,1:0|0:0,0:0:0:0:
160,41,82541,6,0,P|132:31|104:41,1,59.9999981689454,0|0,3:0|0:0,0:0:0:0:
40,108,82781,1,0,3:0:0:0:
40,108,82901,1,0,3:0:0:0:
40,108,83021,2,0,L|90:143,1,59.9999981689454,10|0,0:0|0:0,0:0:0:0:
90,242,83261,2,0,L|40:276,1,59.9999981689454,0|0,1:0|0:0,0:0:0:0:
105,343,83501,6,0,B|148:343|148:343|186:343|214:378,1,119.999996337891,2|0,0:0|3:0,0:0:0:0:
256,292,83861,1,0,1:0:0:0:
299,378,83981,2,0,B|326:343|364:343|364:343|407:343,1,119.999996337891,14|0,0:0|0:0,0:0:0:0:
308,59,84461,6,0,P|256:33|204:58,1,119.999996337891,4|0,1:0|3:0,0:0:0:0:
160,147,84821,1,0,3:0:0:0:
160,147,84941,2,0,B|192:147|192:147|211:166,1,59.9999981689454,10|0,0:0|0:0,0:0:0:0:
352,147,85181,2,0,B|320:147|320:147|300:166,1,59.9999981689454,0|0,1:0|0:0,0:0:0:0:
256,256,85421,6,0,B|256:303|256:303|252:311|252:311|260:311|260:311|256:319|256:319|256:366,1,119.999996337891,2|0,0:0|3:0,0:0:0:0:
175,311,85781,1,0,1:0:0:0:
175,311,85901,2,0,B|160:288|160:288|160:256,1,59.9999981689454,10|0,0:0|0:0,0:0:0:0:
337,311,86141,2,0,B|352:288|352:288|352:256,1,59.9999981689454,0|0,1:0|0:0,0:0:0:0:
352,147,86381,6,0,L|352:87,1,59.9999981689454,0|0,3:0|0:0,0:0:0:0:
256,147,86621,1,0,3:0:0:0:
256,147,86741,1,0,3:0:0:0:
256,147,86861,2,0,L|256:87,1,59.9999981689454,10|0,0:0|0:0,0:0:0:0:
160,147,87101,2,0,L|160:87,1,59.9999981689454,0|0,1:0|0:0,0:0:0:0:
64,147,87341,6,0,B|24:192|24:192|64:237,1,119.999996337891,2|0,0:0|3:0,0:0:0:0:
112,319,87701,1,0,0:0:0:0:
160,237,87821,2,0,P|188:227|216:237,1,59.9999981689454,14|0,0:0|0:0,0:0:0:0:
264,319,88061,5,0,3:0:0:0:
264,319,88181,1,0,3:0:0:0:
264,319,88301,2,0,P|316:344|368:319,1,119.999996337891,4|0,1:0|3:0,0:0:0:0:
416,237,88661,1,0,1:0:0:0:
416,237,88781,2,0,L|476:237,1,59.9999981689454,10|0,0:0|0:0,0:0:0:0:
416,147,89021,2,0,L|476:147,1,59.9999981689454,0|0,1:0|0:0,0:0:0:0:
368,65,89261,6,0,L|248:65,1,119.999996337891,2|0,0:0|0:0,0:0:0:0:
168,16,89621,1,0,1:0:0:0:
88,65,89741,2,0,P|79:93|88:121,1,59.9999981689454,10|0,0:0|0:0,0:0:0:0:
168,226,89981,2,0,P|177:198|168:170,1,59.9999981689454,0|0,1:0|0:0,0:0:0:0:
88,275,90221,6,0,L|201:312,1,119.999996337891,0|0,3:0|3:0,0:0:0:0:
256,236,90581,1,0,1:0:0:0:
256,236,90701,2,0,B|285:229|285:229|314:236,1,59.9999981689454,10|0,0:0|0:0,0:0:0:0:
426,159,90941,2,0,B|397:166|397:166|368:159,1,59.9999981689454,0|0,1:0|0:0,0:0:0:0:
256,82,91181,6,0,B|285:75|285:75|314:82,1,59.9999981689454,2|0,0:0|0:0,0:0:0:0:
426,5,91421,1,0,0:0:0:0:
426,5,91541,1,0,1:0:0:0:
426,5,91661,2,0,B|397:57|397:57|368:5,1,119.999996337891,14|0,0:0|3:0,0:0:0:0:
256,192,92141,5,2,0:0:0:0:
256,192,92261,12,2,95981,0:0:0:0:
256,192,99821,5,0,3:0:0:0:
336,56,100061,1,0,3:0:0:0:
176,56,100301,1,2,0:0:0:0:
336,144,100541,1,0,0:0:0:0:
256,8,100781,1,0,0:0:0:0:
176,144,101021,1,2,0:3:0:0:
256,280,101261,5,2,0:3:0:0:
256,280,101501,1,0,3:0:0:0:
256,280,101741,5,0,3:0:0:0:
336,144,101981,1,0,3:0:0:0:
176,144,102221,1,2,0:0:0:0:
336,232,102461,1,0,3:0:0:0:
256,96,102701,1,0,0:0:0:0:
176,232,102941,1,2,0:3:0:0:
256,368,103181,6,0,L|256:343,6,25,0|0|0|0|0|0|0,3:0|0:0|0:0|0:0|0:0|0:0|0:0,0:0:0:0:
256,368,103661,5,0,3:0:0:0:
416,368,103901,1,0,3:0:0:0:
336,228,104141,1,0,0:0:0:0:
176,228,104381,1,0,3:0:0:0:
96,368,104621,5,0,0:0:0:0:
176,228,104861,1,2,0:3:0:0:
336,228,105101,1,2,0:3:0:0:
416,368,105341,1,0,3:0:0:0:
256,368,105581,6,0,B|256:356|256:356|252:348|252:348|260:348|260:348|256:340|256:340|256:328,2,50,2|2|2,0:0|0:0|0:0,0:0:0:0:
256,70,107021,6,0,L|256:45,6,25,2|0|0|0|0|0|0,0:0|0:0|0:0|0:0|0:0|0:0|0:0,0:0:0:0:
309,151,107501,6,0,P|327:207|309:263,1,119.999996337891,0|0,3:0|3:0,0:0:0:0:
256,344,107861,1,2,0:0:0:0:
256,344,107981,2,0,B|224:344|224:344|205:363,1,59.9999981689454
56,344,108221,2,0,B|88:344|88:344|107:363,1,59.9999981689454,2|0,3:2|0:0,0:0:0:0:
156,282,108461,6,0,L|156:162,1,119.999996337891
108,80,108821,1,2,0:0:0:0:
108,80,108941,2,0,P|82:67|56:80,1,59.9999981689454
204,80,109181,2,0,P|230:67|256:80,1,59.9999981689454,2|0,3:2|0:0,0:0:0:0:
348,136,109421,6,0,P|329:80|348:24,1,119.999996337891,0|0,3:0|3:0,0:0:0:0:
428,80,109781,1,2,0:0:0:0:
428,80,109901,2,0,L|471:123,1,59.9999981689454
348,136,110141,2,0,L|391:179,1,59.9999981689454,2|0,3:2|0:0,0:0:0:0:
268,192,110381,6,0,L|353:277,1,119.999996337891
285,345,110741,1,2,0:0:0:0:
285,345,110861,2,0,B|256:352|256:352|227:345,1,59.9999981689454,4|0,1:2|0:0,0:0:0:0:
100,277,111101,2,0,B|129:270|129:270|158:277,1,59.9999981689454,2|0,0:0|0:0,0:0:0:0:
9,277,111341,6,0,L|9:157,1,119.999996337891,0|0,3:0|3:0,0:0:0:0:
9,61,111701,1,2,0:0:0:0:
9,61,111821,2,0,L|69:61,1,59.9999981689454
204,0,112061,2,0,L|144:0,1,59.9999981689454,2|0,3:2|0:0,0:0:0:0:
279,61,112301,6,0,B|326:61|326:61|334:65|334:65|334:57|334:57|342:61|342:61|389:61,1,119.999996337891
444,140,112661,1,2,0:0:0:0:
444,140,112781,2,0,B|476:140|476:140|496:121,1,59.9999981689454
444,244,113021,2,0,B|476:244|476:244|496:264,1,59.9999981689454,2|0,3:2|0:0,0:0:0:0:
389,323,113261,6,0,B|342:323|342:323|334:327|334:327|334:319|334:319|326:323|326:323|279:323,1,119.999996337891,0|0,3:0|3:0,0:0:0:0:
204,384,113621,1,2,0:0:0:0:
204,384,113741,2,0,B|204:328|204:328|196:320|196:320|196:268,1,119.999996337891,0|2,0:0|3:2,0:0:0:0:
389,61,114221,6,0,B|342:61|342:61|334:57|334:57|334:65|334:65|326:61|326:61|279:61,1,119.999996337891
204,0,114581,1,2,3:2:0:0:
204,0,114701,2,0,B|204:56|204:56|196:64|196:64|196:116,1,119.999996337891,4|2,1:0|0:0,0:0:0:0:
196,268,115181,6,0,B|256:272|256:272|316:268,1,119.999996337891,0|0,3:0|3:0,0:0:0:0:
376,192,115541,1,0,1:0:0:0:
316,116,115661,2,0,B|256:112|256:112|196:116,1,119.999996337891,8|0,0:0|1:0,0:0:0:0:
376,40,116141,5,2,0:0:0:0:
256,192,116381,1,0,0:0:0:0:
256,192,116501,1,0,1:0:0:0:
256,192,116621,1,8,0:0:0:0:
136,40,116861,1,0,1:0:0:0:
316,116,117101,6,0,B|256:112|256:112|196:116,1,119.999996337891,0|0,3:0|3:0,0:0:0:0:
136,192,117461,1,0,1:0:0:0:
196,268,117581,2,0,B|256:272|256:272|316:268,1,119.999996337891,8|0,0:0|1:0,0:0:0:0:
136,344,118061,5,2,0:0:0:0:
256,192,118301,1,0,0:0:0:0:
256,192,118421,1,0,1:0:0:0:
256,192,118541,1,12,0:0:0:0:
376,344,118781,1,0,1:0:0:0:
196,268,119021,6,0,B|145:268|145:268|137:264|137:264|129:260|129:260|78:260,1,119.999996337891,0|0,3:0|3:0,0:0:0:0:
8,192,119381,1,0,1:0:0:0:
78,124,119501,2,0,B|129:124|129:124|137:120|137:120|145:116|145:116|196:116,1,119.999996337891,8|0,0:0|1:0,0:0:0:0:
316,268,119981,5,2,0:0:0:0:
140,192,120221,1,0,0:0:0:0:
140,192,120341,1,0,1:0:0:0:
140,192,120461,1,8,0:0:0:0:
316,116,120701,1,0,1:0:0:0:
428,268,120941,6,0,B|380:268|380:268|372:277|372:277|364:268|364:268|316:268,1,119.999996337891,0|0,3:0|3:0,0:0:0:0:
256,192,121301,1,0,1:0:0:0:
316,116,121421,2,0,B|364:116|364:116|372:107|372:107|380:116|380:116|428:116,1,119.999996337891,8|0,0:0|1:0,0:0:0:0:
256,40,121901,5,2,0:0:0:0:
372,192,122141,1,0,0:0:0:0:
372,192,122261,1,0,1:0:0:0:
372,192,122381,1,12,0:0:0:0:
256,344,122621,1,0,1:0:0:0:
140,192,122861,6,0,B|120:168|136:136|140:136|144:136|160:104|140:80,1,119.999996337891,0|0,3:0|3:0,0:0:0:0:
80,4,123221,1,0,1:0:0:0:
20,80,123341,2,0,B|0:104|16:136|20:136|24:136|40:168|20:192,1,119.999996337891,8|0,0:0|1:0,0:0:0:0:
140,304,123821,5,2,0:0:0:0:
372,304,124061,1,0,0:0:0:0:
372,304,124181,1,0,1:0:0:0:
372,304,124301,1,8,0:0:0:0:
140,304,124541,1,0,1:0:0:0:
372,192,124781,6,0,B|392:168|376:136|372:136|368:136|352:104|372:80,1,119.999996337891,0|0,3:0|3:0,0:0:0:0:
432,4,125141,1,0,1:0:0:0:
492,80,125261,2,0,B|512:104|496:136|492:136|488:136|472:168|492:192,1,119.999996337891,8|0,0:0|1:0,0:0:0:0:
372,304,125741,5,2,0:0:0:0:
140,304,125981,1,0,0:0:0:0:
140,304,126101,1,0,1:0:0:0:
140,304,126221,1,12,0:0:0:0:
372,304,126461,1,0,1:0:0:0:
140,192,126701,6,0,B|160:132|220:104,1,119.999996337891,0|0,3:0|3:0,0:0:0:0:
256,192,127061,1,0,1:0:0:0:
295,106,127181,2,0,B|352:132|372:192,1,119.999996337891,8|0,0:0|1:0,0:0:0:0:
256,19,127661,5,2,0:0:0:0:
256,192,127901,1,0,0:0:0:0:
256,192,128021,1,0,1:0:0:0:
256,192,128141,1,8,0:0:0:0:
256,365,128381,1,0,1:0:0:0:
84,279,128621,6,0,L|204:279,1,119.999996337891,0|0,3:0|3:0,0:0:0:0:
256,192,128981,1,0,1:0:0:0:
308,279,129101,2,0,L|428:279,1,119.999996337891,8|0,0:0|1:0,0:0:0:0:
428,105,129581,6,0,L|308:105,1,119.999996337891,2|0,0:0|0:0,0:0:0:0:
256,192,129941,1,0,1:0:0:0:
204,105,130061,2,0,L|84:105,1,119.999996337891,12|0,0:0|1:0,0:0:0:0:
204,279,130541,5,0,3:0:0:0:
204,279,130781,2,0,B|213:318|213:318|204:357,1,80,0|2,3:0|0:0,0:0:0:0:
308,279,131261,2,0,B|317:318|317:318|308:357,1,80,0|2,3:0|0:0,0:0:0:0:
412,279,131741,2,0,B|421:318|421:318|412:357,1,80,2|2,0:3|0:0,0:0:0:0:
308,192,132221,1,0,3:0:0:0:
412,27,132461,5,0,3:0:0:0:
412,27,132701,2,0,B|421:66|421:66|412:105,1,80,0|2,3:0|0:0,0:0:0:0:
308,27,133181,2,0,B|317:66|317:66|308:105,1,80,0|2,3:0|0:0,0:0:0:0:
204,27,133661,1,2,0:0:0:0:
204,27,133781,1,2,0:0:0:0:
204,27,133901,2,0,B|213:66|213:66|204:105,1,80,6|0,3:2|0:0,0:0:0:0:
308,279,134381,5,0,3:0:0:0:
308,279,134621,2,0,B|299:318|299:318|308:357,1,80,0|2,3:0|0:0,0:0:0:0:
204,279,135101,2,0,B|195:318|195:318|204:357,1,80,0|2,3:0|0:0,0:0:0:0:
100,279,135581,2,0,B|91:318|91:318|100:357,1,80,2|2,0:3|0:0,0:0:0:0:
204,192,136061,1,0,3:0:0:0:
100,27,136301,5,0,3:0:0:0:
100,27,136541,2,0,B|91:66|91:66|100:105,1,80,0|2,3:0|0:0,0:0:0:0:
204,27,137021,2,0,B|195:66|195:66|204:105,1,80,0|2,3:0|0:0,0:0:0:0:
308,27,137501,1,2,0:0:0:0:
308,27,137621,1,2,0:0:0:0:
308,27,137741,2,0,B|299:66|299:66|308:105,1,80,6|0,3:2|0:0,0:0:0:0:
204,279,138221,5,0,3:0:0:0:
204,279,138461,2,0,B|165:293|126:279,1,80,0|2,3:0|0:0,0:0:0:0:
217,192,138941,2,0,B|256:178|295:192,1,80,0|2,3:0|0:0,0:0:0:0:
386,279,139421,2,0,B|347:293|308:279,1,80,2|2,0:3|0:0,0:0:0:0:
475,192,139901,1,0,3:0:0:0:
308,105,140141,5,0,3:0:0:0:
308,105,140381,2,0,B|347:91|386:105,1,80,0|2,3:0|0:0,0:0:0:0:
295,192,140861,2,0,B|256:206|217:192,1,80,0|2,3:0|0:0,0:0:0:0:
126,105,141341,1,2,0:0:0:0:
126,105,141461,1,2,0:0:0:0:
126,105,141581,2,0,B|165:91|204:105,1,80,6|0,3:2|0:0,0:0:0:0:
37,192,142061,5,0,3:0:0:0:
37,192,142301,2,0,B|36:232|36:232|55:266,1,80,0|2,3:0|0:0,0:0:0:0:
256,192,142781,2,0,B|257:232|257:232|237:266,1,80,0|2,3:0|0:0,0:0:0:0:
146,192,143261,2,0,B|146:272,1,80,2|2,0:3|0:0,0:0:0:0:
256,105,143741,1,0,3:0:0:0:
366,272,143981,5,0,3:0:0:0:
366,272,144221,2,0,B|366:192,1,80,0|2,3:0|0:0,0:0:0:0:
256,359,144701,1,0,3:0:0:0:
146,192,144941,1,0,0:0:0:0:
146,192,145061,1,2,0:0:0:0:
146,192,145181,2,0,B|146:272,1,80,2|6,0:0|0:0,0:0:0:0:
256,105,145661,1,0,3:0:0:0:
366,272,145901,6,0,P|410:306|454:272,1,119.999996337891,4|0,1:0|3:0,0:0:0:0:
410,192,146261,1,0,3:0:0:0:
410,192,146381,2,0,B|403:163|403:163|410:134,1,59.9999981689454,10|0,0:0|0:0,0:0:0:0:
506,76,146621,2,0,B|513:105|513:105|506:134,1,59.9999981689454,0|0,1:0|0:0,0:0:0:0:
410,18,146861,6,0,B|361:18|361:18|353:26|353:26|345:34|345:34|297:34,1,119.999996337891,2|0,0:0|3:0,0:0:0:0:
232,105,147221,1,0,1:0:0:0:
232,105,147341,2,0,L|172:105,1,59.9999981689454,10|0,0:0|0:0,0:0:0:0:
48,34,147581,2,0,L|108:34,1,59.9999981689454,0|0,1:0|0:0,0:0:0:0:
172,105,147821,6,0,P|182:133|172:161,1,59.9999981689454,0|0,3:0|0:0,0:0:0:0:
80,192,148061,1,0,3:0:0:0:
80,192,148181,1,0,3:0:0:0:
80,192,148301,2,0,L|27:221,1,59.9999981689454,10|0,0:0|0:0,0:0:0:0:
80,300,148541,2,0,L|27:329,1,59.9999981689454,0|0,1:0|0:0,0:0:0:0:
176,300,148781,6,0,B|219:300|219:300|257:300|285:335,1,119.999996337891,2|0,0:0|3:0,0:0:0:0:
372,380,149141,1,0,1:0:0:0:
464,340,149261,2,0,B|427:309|427:309|419:307|419:307|424:301|424:301|415:299|415:299|379:269,1,119.999996337891,14|0,0:0|0:0,0:0:0:0:
146,112,149741,6,0,P|102:78|58:112,1,119.999996337891,0|0,1:0|3:0,0:0:0:0:
102,192,150101,1,0,3:0:0:0:
102,192,150221,2,0,B|109:221|109:221|102:250,1,59.9999981689454,10|0,0:0|0:0,0:0:0:0:
6,308,150461,2,0,B|-1:279|-1:279|6:250,1,59.9999981689454,0|0,1:0|0:0,0:0:0:0:
102,366,150701,6,0,B|151:366|151:366|159:358|159:358|167:350|167:350|215:350,1,119.999996337891,2|0,0:0|3:0,0:0:0:0:
280,279,151061,1,0,1:0:0:0:
280,279,151181,2,0,L|340:279,1,59.9999981689454,10|0,0:0|0:0,0:0:0:0:
464,350,151421,2,0,L|404:350,1,59.9999981689454,0|0,1:0|0:0,0:0:0:0:
340,279,151661,6,0,P|330:251|340:223,1,59.9999981689454,0|0,3:0|0:0,0:0:0:0:
432,192,151901,1,0,3:0:0:0:
432,192,152021,1,0,3:0:0:0:
432,192,152141,2,0,L|484:162,1,59.9999981689454,10|0,0:0|0:0,0:0:0:0:
432,84,152381,2,0,L|484:54,1,59.9999981689454,0|0,1:0|0:0,0:0:0:0:
336,84,152621,6,0,B|293:84|293:84|255:84|227:49,1,119.999996337891,2|0,0:0|3:0,0:0:0:0:
140,4,152981,1,0,1:0:0:0:
48,44,153101,2,0,B|84:74|84:74|92:76|92:76|87:82|87:82|96:84|96:84|132:114,1,119.999996337891,14|0,0:0|0:0,0:0:0:0:
204,372,153581,6,0,B|216:356|216:356|296:356|296:356|308:372,1,119.999996337891,4|0,1:0|3:0,0:0:0:0:
360,296,153941,1,0,3:0:0:0:
360,296,154061,2,0,B|328:296|304:275,1,59.9999981689454,10|0,0:0|0:0,0:0:0:0:
152,296,154301,2,0,B|184:296|207:275,1,59.9999981689454,0|0,1:0|0:0,0:0:0:0:
256,192,154541,6,0,B|256:145|256:145|260:137|260:137|252:137|252:137|256:129|256:129|256:82,1,119.999996337891,2|0,0:0|3:0,0:0:0:0:
340,32,154901,1,0,1:0:0:0:
340,32,155021,2,0,B|340:64|340:64|349:91,1,59.9999981689454,10|0,0:0|0:0,0:0:0:0:
172,32,155261,2,0,B|172:64|172:64|163:91,1,59.9999981689454,0|0,1:0|0:0,0:0:0:0:
349,192,155501,6,0,L|409:192,1,59.9999981689454,0|0,3:0|0:0,0:0:0:0:
256,192,155741,1,0,3:0:0:0:
256,192,155861,1,0,3:0:0:0:
256,192,155981,2,0,L|256:132,1,59.9999981689454,10|0,0:0|0:0,0:0:0:0:
163,192,156221,2,0,L|103:192,1,59.9999981689454,0|0,1:0|0:0,0:0:0:0:
210,276,156461,6,0,B|224:300|256:312|256:312|288:300|302:276,1,119.999996337891,2|0,0:0|3:0,0:0:0:0:
349,192,156821,1,0,0:0:0:0:
396,276,156941,2,0,P|406:304|396:332,1,59.9999981689454,14|0,0:0|0:0,0:0:0:0:
443,192,157181,5,0,3:0:0:0:
443,192,157301,1,0,3:0:0:0:
443,192,157421,2,0,B|412:180|396:156|396:156|380:180|349:192,1,119.999996337891,4|0,1:0|3:0,0:0:0:0:
304,108,157781,1,0,1:0:0:0:
304,108,157901,2,0,L|304:48,1,59.9999981689454,10|0,0:0|0:0,0:0:0:0:
208,108,158141,2,0,L|208:48,1,59.9999981689454,0|0,1:0|0:0,0:0:0:0:
112,108,158381,6,0,B|56:87|56:87|0:108,1,119.999996337891,2|0,0:0|0:0,0:0:0:0:
56,192,158741,1,0,1:0:0:0:
0,276,158861,2,0,P|-9:304|0:332,1,59.9999981689454,10|0,0:0|0:0,0:0:0:0:
112,276,159101,2,0,P|121:304|112:332,1,59.9999981689454,0|0,1:0|0:0,0:0:0:0:
224,276,159341,6,0,B|264:276|264:276|280:264|280:264|296:276|296:276|336:276,1,119.999996337891,0|0,3:0|3:0,0:0:0:0:
432,276,159701,1,0,1:0:0:0:
432,276,159821,2,0,B|461:269|461:269|490:276,1,59.9999981689454,10|0,0:0|0:0,0:0:0:0:
432,180,160061,2,0,B|425:151|425:151|432:122,1,59.9999981689454,0|0,1:0|0:0,0:0:0:0:
336,180,160301,6,0,B|307:187|307:187|278:180,1,59.9999981689454,2|0,0:0|0:0,0:0:0:0:
336,276,160541,1,0,0:0:0:0:
336,276,160661,1,0,1:0:0:0:
336,276,160781,2,0,B|354:252|354:252|414:252|414:252|432:276,1,119.999996337891,14|0,0:0|3:0,0:0:0:0:
111,333,161261,6,0,P|96:286|111:239,1,100,0|2,3:0|3:2,0:0:0:0:
176,286,161621,1,0,3:0:0:0:
176,286,161741,2,0,P|161:239|176:192,1,100,8|2,0:0|3:2,0:0:0:0:
176,192,162461,5,2,0:0:0:0:
256,192,162581,1,0,3:0:0:0:
336,192,162701,1,8,0:0:0:0:
256,333,162941,1,2,3:2:0:0:
401,333,163181,6,0,P|416:286|401:239,1,100,0|2,3:0|3:2,0:0:0:0:
336,286,163541,1,0,3:0:0:0:
336,286,163661,2,0,P|351:239|336:192,1,100,8|2,0:0|3:2,0:0:0:0:
336,192,164381,5,2,0:0:0:0:
256,192,164501,1,0,3:0:0:0:
176,192,164621,1,12,0:0:0:0:
256,333,164861,1,2,3:2:0:0:
336,192,165101,6,0,L|298:99,1,100,0|2,3:0|3:2,0:0:0:0:
256,30,165461,1,0,3:0:0:0:
213,99,165581,2,0,L|176:192,1,100,8|2,0:0|3:2,0:0:0:0:
176,192,166301,5,2,0:0:0:0:
256,192,166421,1,0,3:0:0:0:
336,192,166541,1,8,0:0:0:0:
256,30,166781,1,2,3:2:0:0:
176,192,167021,6,0,L|213:284,1,100,0|2,3:0|3:2,0:0:0:0:
256,354,167381,1,0,3:0:0:0:
298,284,167501,2,0,L|336:192,1,100,8|2,0:0|3:2,0:0:0:0:
336,192,168221,5,2,0:0:0:0:
256,192,168341,1,0,3:0:0:0:
176,192,168461,1,12,0:0:0:0:
256,354,168701,1,2,3:2:0:0:
336,192,168941,6,0,P|383:207|430:192,1,100,0|2,3:0|3:2,0:0:0:0:
383,127,169301,1,0,3:0:0:0:
383,127,169421,2,0,B|352:88|352:88|303:76,1,100,8|2,0:0|3:2,0:0:0:0:
256,228,169901,1,2,0:3:0:0:
303,76,170141,5,2,0:0:0:0:
256,12,170261,1,0,3:0:0:0:
208,76,170381,1,8,0:0:0:0:
256,228,170621,1,2,3:2:0:0:
208,76,170861,6,0,B|160:88|160:88|129:127,1,100,0|2,3:0|3:2,0:0:0:0:
82,192,171221,1,0,3:0:0:0:
82,192,171341,2,0,P|129:207|176:192,1,100,8|2,0:0|3:2,0:0:0:0:
256,354,171821,1,2,0:3:0:0:
176,192,172061,5,2,0:0:0:0:
256,192,172181,1,0,3:0:0:0:
336,192,172301,1,12,0:0:0:0:
256,354,172541,1,2,3:2:0:0:
336,192,172781,6,0,L|436:192,1,100,0|2,3:0|3:2,0:0:0:0:
483,127,173141,1,0,3:0:0:0:
436,62,173261,2,0,L|336:62,1,100,8|2,0:0|3:2,0:0:0:0:
483,127,173741,1,2,0:3:0:0:
336,192,173981,5,2,0:0:0:0:
256,192,174101,1,0,3:0:0:0:
176,192,174221,1,8,0:0:0:0:
29,127,174461,1,2,0:3:0:0:
176,192,174701,6,0,L|76:192,1,100,0|2,3:0|3:2,0:0:0:0:
29,257,175061,1,0,3:0:0:0:
76,322,175181,2,0,L|176:322,1,100,8|2,0:0|3:2,0:0:0:0:
29,257,175661,1,2,0:3:0:0:
176,192,175901,5,2,0:0:0:0:
256,192,176021,1,0,3:0:0:0:
336,192,176141,1,12,0:0:0:0:
483,257,176381,1,2,0:3:0:0:
336,322,176621,5,0,3:0:0:0:
304,360,176741,1,8,0:0:0:0:
256,376,176861,1,0,3:0:0:0:
208,360,176981,1,2,1:3:0:0:
176,322,177101,1,8,0:0:0:0:
256,257,177341,1,0,3:0:0:0:
176,192,177581,5,8,3:2:0:0:
208,154,177701,1,8,0:0:0:0:
256,138,177821,1,0,3:0:0:0:
304,154,177941,1,2,1:3:0:0:
336,192,178061,1,8,0:0:0:0:
416,127,178301,1,0,3:0:0:0:
336,62,178541,6,0,B|311:62|311:62|296:47,1,44.999998626709,8|8,3:2|0:0,0:0:0:0:
215,47,178781,2,0,B|201:62|201:62|176:62,1,44.999998626709,0|2,3:0|1:3,0:0:0:0:
98,84,179021,1,8,0:0:0:0:
98,192,179261,1,0,3:0:0:0:
98,300,179501,5,8,0:0:0:0:
98,300,179621,1,8,0:0:0:0:
98,300,179741,2,0,L|143:300,1,44.999998626709,2|2,1:3|1:3,0:0:0:0:
213,341,179981,2,0,P|197:300|213:259,1,89.9999972534181,4|0,1:0|0:0,0:0:0:0:
336,62,180461,5,0,3:0:0:0:
304,24,180581,1,8,0:0:0:0:
256,8,180701,1,0,3:0:0:0:
208,24,180821,1,2,1:3:0:0:
176,62,180941,1,8,0:0:0:0:
256,127,181181,1,0,3:0:0:0:
176,192,181421,5,8,3:2:0:0:
208,230,181541,1,8,0:0:0:0:
256,246,181661,1,0,3:0:0:0:
304,230,181781,1,2,1:3:0:0:
336,192,181901,1,8,0:0:0:0:
416,257,182141,1,0,3:0:0:0:
336,322,182381,6,0,B|311:322|311:322|296:336,1,44.999998626709,8|8,3:2|0:0,0:0:0:0:
215,336,182621,2,0,B|201:322|201:322|176:322,1,44.999998626709,0|2,3:0|1:3,0:0:0:0:
98,300,182861,1,8,0:0:0:0:
98,192,183101,1,0,3:0:0:0:
98,84,183341,5,8,0:0:0:0:
98,84,183461,1,8,0:0:0:0:
98,84,183581,2,0,L|143:84,1,44.999998626709,2|2,1:3|1:3,0:0:0:0:
213,43,183821,2,0,P|197:84|213:125,1,89.9999972534181,4|0,1:0|0:0,0:0:0:0:
336,322,184301,5,0,3:0:0:0:
385,322,184421,1,8,0:0:0:0:
420,286,184541,1,0,3:0:0:0:
385,250,184661,1,2,1:3:0:0:
336,250,184781,1,8,0:0:0:0:
256,322,185021,1,0,3:0:0:0:
176,250,185261,5,8,3:2:0:0:
127,250,185381,1,8,0:0:0:0:
92,286,185501,1,0,3:0:0:0:
127,322,185621,1,2,1:3:0:0:
176,322,185741,1,8,0:0:0:0:
256,250,185981,1,0,3:0:0:0:
336,322,186221,6,0,B|336:367,1,44.999998626709,8|8,3:2|0:0,0:0:0:0:
416,322,186461,2,0,B|416:367,1,44.999998626709,0|2,3:0|1:3,0:0:0:0:
496,322,186701,1,8,0:0:0:0:
416,244,186941,1,0,3:0:0:0:
416,140,187181,5,8,0:0:0:0:
416,140,187301,1,8,0:0:0:0:
416,140,187421,2,0,L|416:95,1,44.999998626709,2|2,1:3|1:3,0:0:0:0:
375,25,187661,2,0,P|416:41|457:25,1,89.9999972534181,4|0,1:0|0:0,0:0:0:0:
176,62,188141,5,0,3:0:0:0:
127,62,188261,1,8,0:0:0:0:
92,98,188381,1,0,3:0:0:0:
127,134,188501,1,2,1:3:0:0:
176,134,188621,1,8,0:0:0:0:
256,62,188861,1,0,3:0:0:0:
336,134,189101,5,8,3:2:0:0:
385,134,189221,1,8,0:0:0:0:
420,98,189341,1,0,3:0:0:0:
385,62,189461,1,2,1:3:0:0:
336,62,189581,1,8,0:0:0:0:
256,134,189821,1,0,3:0:0:0:
176,62,190061,6,0,B|176:17,1,44.999998626709,8|8,3:2|0:0,0:0:0:0:
96,62,190301,2,0,B|96:17,1,44.999998626709,0|2,3:0|1:3,0:0:0:0:
16,62,190541,1,8,0:0:0:0:
96,140,190781,1,0,3:0:0:0:
96,244,191021,5,8,0:0:0:0:
96,244,191141,1,8,0:0:0:0:
96,244,191261,2,0,L|96:289,1,44.999998626709,2|2,1:3|1:3,0:0:0:0:
137,359,191501,2,0,P|96:343|55:359,1,89.9999972534181,4|0,1:0|0:0,0:0:0:0:
336,292,191981,5,0,3:0:0:0:
336,242,192101,1,8,0:0:0:0:
336,192,192221,1,0,3:0:0:0:
336,142,192341,1,2,1:3:0:0:
336,92,192461,1,8,0:0:0:0:
256,242,192701,1,0,3:0:0:0:
176,92,192941,5,8,3:2:0:0:
176,142,193061,1,8,0:0:0:0:
176,192,193181,1,0,3:0:0:0:
176,242,193301,1,2,1:3:0:0:
176,292,193421,1,8,0:0:0:0:
256,142,193661,1,0,3:0:0:0:
336,292,193901,6,0,B|297:315,1,44.999998626709,8|8,3:2|0:0,0:0:0:0:
214,315,194141,2,0,B|176:292,1,44.999998626709,0|2,3:0|1:3,0:0:0:0:
93,292,194381,1,8,0:0:0:0:
8,242,194621,1,0,3:0:0:0:
93,192,194861,5,8,0:0:0:0:
93,192,194981,1,8,0:0:0:0:
93,192,195101,2,0,B|93:182|93:182|89:174|89:174|97:174|97:174|93:166|93:166|93:156,1,44.999998626709,2|2,1:3|1:3,0:0:0:0:
48,92,195341,2,0,L|138:92,1,89.9999972534181,4|0,1:0|0:0,0:0:0:0:
336,92,195821,5,0,3:0:0:0:
336,142,195941,1,8,0:0:0:0:
336,192,196061,1,0,3:0:0:0:
336,242,196181,1,2,1:3:0:0:
336,292,196301,1,8,0:0:0:0:
256,142,196541,1,0,3:0:0:0:
176,292,196781,5,8,3:2:0:0:
176,242,196901,1,8,0:0:0:0:
176,192,197021,1,0,3:0:0:0:
176,142,197141,1,2,1:3:0:0:
176,92,197261,1,8,0:0:0:0:
256,242,197501,1,0,3:0:0:0:
336,92,197741,6,0,B|297:69,1,44.999998626709,8|8,3:2|0:0,0:0:0:0:
214,69,197981,2,0,B|176:92,1,44.999998626709,0|2,3:0|1:3,0:0:0:0:
93,92,198221,1,8,0:0:0:0:
8,142,198461,1,0,3:0:0:0:
93,192,198701,5,8,0:0:0:0:
93,192,198821,1,8,0:0:0:0:
93,192,198941,2,0,B|93:202|93:202|89:210|89:210|97:210|97:210|93:218|93:218|93:228,1,44.999998626709,2|2,1:3|1:3,0:0:0:0:
48,292,199181,2,0,L|138:291,1,89.9999972534181,4|0,1:0|0:0,0:0:0:0:
336,292,199661,5,0,3:0:0:0:
336,341,199781,1,8,0:0:0:0:
385,341,199901,1,0,3:0:0:0:
434,341,200021,1,2,1:3:0:0:
434,292,200141,1,8,0:0:0:0:
336,192,200381,1,0,3:0:0:0:
434,92,200621,5,8,3:2:0:0:
434,43,200741,1,8,0:0:0:0:
385,43,200861,1,0,3:0:0:0:
336,43,200981,1,2,1:3:0:0:
336,92,201101,1,8,0:0:0:0:
434,192,201341,1,0,3:0:0:0:
336,292,201581,6,0,L|336:337,1,44.999998626709,8|8,3:2|0:0,0:0:0:0:
256,292,201821,2,0,L|256:337,1,44.999998626709,0|2,3:0|1:3,0:0:0:0:
176,292,202061,1,8,0:0:0:0:
176,192,202301,1,0,3:0:0:0:
176,92,202541,5,8,0:0:0:0:
176,92,202661,1,8,0:0:0:0:
176,92,202781,2,0,B|176:82|176:82|180:74|180:74|172:74|172:74|176:66|176:66|176:56,1,44.999998626709,2|2,1:3|1:3,0:0:0:0:
256,57,203021,2,0,P|296:39|336:57,1,89.9999972534181,4|0,1:0|0:0,0:0:0:0:
176,292,203501,5,0,3:0:0:0:
176,341,203621,1,8,0:0:0:0:
127,341,203741,1,0,3:0:0:0:
78,341,203861,1,2,1:3:0:0:
78,292,203981,1,8,0:0:0:0:
176,192,204221,1,0,3:0:0:0:
78,92,204461,5,8,3:2:0:0:
78,43,204581,1,8,0:0:0:0:
127,43,204701,1,0,3:0:0:0:
176,43,204821,1,2,1:3:0:0:
176,92,204941,1,8,0:0:0:0:
78,192,205181,1,0,3:0:0:0:
176,292,205421,6,0,L|176:337,1,44.999998626709,8|8,3:2|0:0,0:0:0:0:
256,292,205661,2,0,L|256:337,1,44.999998626709,0|2,3:0|1:3,0:0:0:0:
336,292,205901,1,8,0:0:0:0:
336,192,206141,1,0,3:0:0:0:
336,92,206381,5,8,0:0:0:0:
336,92,206501,1,8,0:0:0:0:
336,92,206621,2,0,B|336:47,1,44.999998626709,2|2,1:3|1:3,0:0:0:0:
176,92,206861,5,12,0:0:0:0:
176,92,206981,1,8,0:0:0:0:
176,92,207101,2,0,B|176:47,1,44.999998626709,2|2,1:3|1:3,0:0:0:0:
256,92,207341,5,2,0:0:0:0:
256,192,207461,12,0,210221,0:0:0:0:
256,192,211661,12,2,213101,0:0:0:0:
256,92,220781,5,0,3:0:0:0:
256,92,221021,2,0,L|256:42,1,50,2|0,3:2|0:0,0:0:0:0:
340,92,221501,2,0,L|340:42,1,50,2|0,3:2|0:0,0:0:0:0:
424,92,221981,2,0,L|424:42,1,50,2|0,0:0|0:0,0:0:0:0:
508,92,222461,1,2,3:2:0:0:
256,92,222701,5,0,3:0:0:0:
256,92,222941,2,0,L|256:32,1,59.9999981689454,2|0,3:2|0:0,0:0:0:0:
340,92,223421,2,0,L|340:32,1,59.9999981689454,2|0,3:2|0:0,0:0:0:0:
424,92,223901,2,0,L|424:32,1,59.9999981689454,2|4,0:0|3:2,0:0:0:0:
508,92,224381,1,2,0:0:0:0:
256,92,224621,5,0,3:0:0:0:
256,92,224861,2,0,L|256:21,1,69.9999978637696,2|0,3:2|0:0,0:0:0:0:
340,92,225341,2,0,L|340:21,1,69.9999978637696,2|0,3:2|0:0,0:0:0:0:
424,92,225821,2,0,L|424:21,1,69.9999978637696,2|0,0:0|0:0,0:0:0:0:
508,92,226301,1,2,3:2:0:0:
256,92,226541,5,0,3:0:0:0:
256,92,226781,2,0,L|256:12,1,80,2|0,3:2|0:0,0:0:0:0:
340,92,227261,2,0,L|340:12,1,80,2|0,3:2|0:0,0:0:0:0:
424,92,227741,2,0,L|424:12,1,80,2|4,0:3|3:2,0:0:0:0:
508,92,228221,1,2,0:0:0:0:
256,92,228461,5,0,0:0:0:0:
256,92,230381,5,2,0:0:0:0:
132,92,230861,1,0,0:0:0:0:
8,92,231341,1,0,0:0:0:0:
132,192,231821,1,0,0:0:0:0:
8,292,232301,6,0,L|38:292,1,29.9999990844727,2|0,0:0|0:0,0:0:0:0:
162,292,232781,2,0,L|132:292,1,29.9999990844727
3,292,233261,6,0,L|33:292,1,29.9999990844727
157,292,233741,2,0,L|127:292,1,29.9999990844727
256,288,234221,5,2,0:0:0:0:
380,288,234701,1,0,0:0:0:0:
504,288,235181,1,0,0:0:0:0:
380,192,235661,1,0,0:0:0:0:
504,96,236141,6,0,L|474:96,1,29.9999990844727,2|0,0:0|0:0,0:0:0:0:
350,96,236621,2,0,L|380:96,1,29.9999990844727
509,96,237101,6,0,L|479:96,1,29.9999990844727
355,96,237581,2,0,L|385:96,1,29.9999990844727
256,92,238061,5,2,0:0:0:0:
306,192,238541,1,0,0:0:0:0:
256,292,239021,1,0,0:0:0:0:
206,192,239501,1,0,0:0:0:0:
306,92,239981,6,0,L|306:62,1,29.9999990844727,2|0,0:0|0:0,0:0:0:0:
206,92,240461,2,0,L|206:62,1,29.9999990844727
313,92,240941,6,0,L|313:62,1,29.9999990844727
199,92,241421,2,0,L|199:62,1,29.9999990844727
256,192,241901,5,2,0:0:0:0:
142,192,242381,1,0,0:0:0:0:
256,192,242861,1,0,0:0:0:0:
370,192,243341,1,0,0:0:0:0:
256,192,243821,6,0,B|256:175|256:175|252:167|252:167|260:167|260:167|256:159|256:159|256:142,1,60,2|2,0:0|0:0,0:0:0:0:
208,352,245741,6,0,B|224:376|256:386|256:386|288:376|304:352,1,119.999996337891,4|0,1:0|3:0,0:0:0:0:
303,255,246101,1,0,3:0:0:0:
303,255,246221,2,0,B|335:255|335:255|354:235,1,59.9999981689454,10|0,0:0|0:0,0:0:0:0:
209,255,246461,2,0,B|177:255|177:255|157:235,1,59.9999981689454,0|0,1:0|0:0,0:0:0:0:
256,172,246701,6,0,B|276:148|260:116|256:116|252:116|236:84|256:60,1,119.999996337891,2|0,0:0|3:0,0:0:0:0:
353,59,247061,1,0,1:0:0:0:
353,59,247181,2,0,L|323:6,1,59.9999981689454,10|0,0:0|0:0,0:0:0:0:
159,59,247421,2,0,L|188:6,1,59.9999981689454,0|0,1:0|0:0,0:0:0:0:
256,59,247661,6,0,L|256:119,1,59.9999981689454,0|0,3:0|0:0,0:0:0:0:
316,192,247901,1,0,3:0:0:0:
316,192,248021,1,0,3:0:0:0:
316,192,248141,2,0,L|376:192,1,59.9999981689454,10|0,0:0|0:0,0:0:0:0:
196,192,248381,2,0,L|136:192,1,59.9999981689454,0|0,1:0|0:0,0:0:0:0:
256,265,248621,6,0,B|256:312|256:312|252:320|252:320|260:320|260:320|256:328|256:328|256:375,1,119.999996337891,2|0,0:0|3:0,0:0:0:0:
176,320,248981,1,0,1:0:0:0:
176,320,249101,2,0,B|176:292|152:268|124:268|124:268|85:268,1,119.999996337891,14|0,0:0|0:0,0:0:0:0:
208,32,249581,6,0,B|224:8|256:-2|256:-2|288:8|304:32,1,119.999996337891,0|0,1:0|3:0,0:0:0:0:
303,129,249941,1,0,3:0:0:0:
303,129,250061,2,0,B|335:129|335:129|354:149,1,59.9999981689454,10|0,0:0|0:0,0:0:0:0:
209,129,250301,2,0,B|177:129|177:129|157:149,1,59.9999981689454,0|0,1:0|0:0,0:0:0:0:
256,212,250541,6,0,B|276:236|260:268|256:268|252:268|236:300|256:324,1,119.999996337891,2|0,0:0|3:0,0:0:0:0:
353,325,250901,1,0,1:0:0:0:
353,325,251021,2,0,L|323:377,1,59.9999981689454,10|0,0:0|0:0,0:0:0:0:
159,325,251261,2,0,L|188:377,1,59.9999981689454,0|0,1:0|0:0,0:0:0:0:
256,325,251501,6,0,L|256:265,1,59.9999981689454,0|0,3:0|0:0,0:0:0:0:
316,192,251741,1,0,3:0:0:0:
316,192,251861,1,0,3:0:0:0:
316,192,251981,2,0,L|376:192,1,59.9999981689454,10|0,0:0|0:0,0:0:0:0:
196,192,252221,2,0,L|136:192,1,59.9999981689454,0|0,1:0|0:0,0:0:0:0:
256,119,252461,6,0,B|256:72|256:72|252:64|252:64|260:64|260:64|256:56|256:56|256:9,1,119.999996337891,2|0,0:0|3:0,0:0:0:0:
176,64,252821,1,0,1:0:0:0:
176,64,252941,2,0,B|176:92|152:116|124:116|124:116|85:116,1,119.999996337891,14|0,0:0|0:0,0:0:0:0:
208,352,253421,6,0,P|256:321|304:352,1,119.999996337891,4|0,1:0|3:0,0:0:0:0:
348,264,253781,1,0,3:0:0:0:
348,264,253901,2,0,B|368:244|368:244|399:244,1,59.9999981689454,10|0,0:0|0:0,0:0:0:0:
348,120,254141,2,0,B|368:140|368:140|399:140,1,59.9999981689454,0|0,1:0|0:0,0:0:0:0:
304,32,254381,6,0,P|256:63|208:32,1,119.999996337891,2|0,0:0|3:0,0:0:0:0:
164,120,254741,1,0,1:0:0:0:
164,120,254861,2,0,B|144:140|144:140|112:140,1,59.9999981689454,10|0,0:0|0:0,0:0:0:0:
164,264,255101,2,0,B|144:244|144:244|112:244,1,59.9999981689454,0|0,1:0|0:0,0:0:0:0:
226,192,255341,6,0,L|286:192,1,59.9999981689454,0|0,3:0|0:0,0:0:0:0:
348,120,255581,1,0,3:0:0:0:
348,120,255701,1,0,3:0:0:0:
348,120,255821,2,0,L|305:77,1,59.9999981689454,10|0,0:0|0:0,0:0:0:0:
164,120,256061,2,0,L|206:77,1,59.9999981689454,0|0,1:0|0:0,0:0:0:0:
348,120,256301,6,0,B|396:120|396:120|404:111|404:111|412:120|412:120|460:120,1,119.999996337891,2|0,0:0|3:0,0:0:0:0:
404,192,256661,1,0,1:0:0:0:
460,264,256781,2,0,B|412:264|412:264|404:273|404:273|396:264|396:264|348:264,1,119.999996337891,14|0,0:0|0:0,0:0:0:0:
164,120,257261,6,0,B|108:99|108:99|52:120,1,119.999996337891,4|0,1:0|3:0,0:0:0:0:
108,192,257621,1,0,1:0:0:0:
108,192,257741,2,0,B|115:221|115:221|108:250,1,59.9999981689454,10|0,0:0|0:0,0:0:0:0:
164,120,257981,2,0,B|157:91|157:91|164:62,1,59.9999981689454,0|0,1:0|0:0,0:0:0:0:
220,192,258221,6,0,B|340:192,1,119.999996337891,2|0,0:0|3:0,0:0:0:0:
432,164,258581,1,0,1:0:0:0:
432,164,258701,2,0,P|441:192|432:220,1,59.9999981689454,10|0,0:0|0:0,0:0:0:0:
460,311,258941,2,0,P|432:320|404:311,1,59.9999981689454,0|0,1:0|0:0,0:0:0:0:
313,339,259181,6,0,P|304:311|313:283,1,59.9999981689454,0|0,3:0|0:0,0:0:0:0:
199,339,259421,1,0,3:0:0:0:
199,339,259541,1,0,3:0:0:0:
199,339,259661,2,0,P|208:311|199:283,1,59.9999981689454,10|0,0:0|0:0,0:0:0:0:
256,162,259901,2,0,L|256:222,1,59.9999981689454,0|0,1:0|0:0,0:0:0:0:
313,101,260141,5,2,0:0:0:0:
300,60,260261,1,0,0:0:0:0:
260,44,260381,1,0,3:0:0:0:
212,60,260501,1,0,3:0:0:0:
199,101,260621,2,0,B|256:120|256:120|313:101,1,119.999996337891,14|0,0:0|3:0,0:0:0:0:
304,352,261101,6,0,B|288:376|256:386|256:386|224:376|208:352,1,119.999996337891,4|0,1:0|3:0,0:0:0:0:
209,255,261461,1,0,3:0:0:0:
209,255,261581,2,0,B|177:255|177:255|158:235,1,59.9999981689454,10|0,0:0|0:0,0:0:0:0:
303,255,261821,2,0,B|335:255|335:255|355:235,1,59.9999981689454,0|0,1:0|0:0,0:0:0:0:
256,172,262061,6,0,B|236:148|252:116|256:116|260:116|276:84|256:60,1,119.999996337891,2|0,0:0|3:0,0:0:0:0:
159,59,262421,1,0,1:0:0:0:
159,59,262541,2,0,L|189:6,1,59.9999981689454,10|0,0:0|0:0,0:0:0:0:
353,59,262781,2,0,L|324:6,1,59.9999981689454,0|0,1:0|0:0,0:0:0:0:
256,59,263021,6,0,L|256:119,1,59.9999981689454,0|0,3:0|0:0,0:0:0:0:
196,192,263261,1,0,3:0:0:0:
196,192,263381,1,0,3:0:0:0:
196,192,263501,2,0,L|136:192,1,59.9999981689454,10|0,0:0|0:0,0:0:0:0:
316,192,263741,2,0,L|376:192,1,59.9999981689454,0|0,1:0|0:0,0:0:0:0:
256,265,263981,6,0,B|256:312|256:312|260:320|260:320|252:320|252:320|256:328|256:328|256:375,1,119.999996337891,2|0,0:0|3:0,0:0:0:0:
336,320,264341,1,0,1:0:0:0:
336,320,264461,2,0,B|336:292|360:268|388:268|388:268|427:268,1,119.999996337891,14|0,0:0|0:0,0:0:0:0:
304,32,264941,6,0,B|288:8|256:-2|256:-2|224:8|208:32,1,119.999996337891,0|0,1:0|3:0,0:0:0:0:
209,129,265301,1,0,3:0:0:0:
209,129,265421,2,0,B|177:129|177:129|158:149,1,59.9999981689454,10|0,0:0|0:0,0:0:0:0:
303,129,265661,2,0,B|335:129|335:129|355:149,1,59.9999981689454,0|0,1:0|0:0,0:0:0:0:
256,212,265901,6,0,B|236:236|252:268|256:268|260:268|276:300|256:324,1,119.999996337891,2|0,0:0|3:0,0:0:0:0:
159,325,266261,1,0,1:0:0:0:
159,325,266381,2,0,L|189:377,1,59.9999981689454,10|0,0:0|0:0,0:0:0:0:
353,325,266621,2,0,L|324:377,1,59.9999981689454,0|0,1:0|0:0,0:0:0:0:
256,325,266861,6,0,L|256:265,1,59.9999981689454,0|0,3:0|0:0,0:0:0:0:
196,192,267101,1,0,3:0:0:0:
196,192,267221,1,0,3:0:0:0:
196,192,267341,2,0,L|136:192,1,59.9999981689454,10|0,0:0|0:0,0:0:0:0:
316,192,267581,2,0,L|376:192,1,59.9999981689454,0|0,1:0|0:0,0:0:0:0:
256,119,267821,6,0,B|256:72|256:72|260:64|260:64|252:64|252:64|256:56|256:56|256:9,1,119.999996337891,2|0,0:0|3:0,0:0:0:0:
336,64,268181,1,0,1:0:0:0:
336,64,268301,2,0,B|336:92|360:116|388:116|388:116|427:116,1,119.999996337891,14|0,0:0|0:0,0:0:0:0:
304,352,268781,6,0,P|256:321|208:352,1,119.999996337891,4|0,1:0|3:0,0:0:0:0:
164,264,269141,1,0,3:0:0:0:
164,264,269261,2,0,B|144:244|144:244|113:244,1,59.9999981689454,10|0,0:0|0:0,0:0:0:0:
164,120,269501,2,0,B|144:140|144:140|113:140,1,59.9999981689454,0|0,1:0|0:0,0:0:0:0:
208,32,269741,6,0,P|256:63|304:32,1,119.999996337891,2|0,0:0|3:0,0:0:0:0:
348,120,270101,1,0,1:0:0:0:
348,120,270221,2,0,B|368:140|368:140|400:140,1,59.9999981689454,10|0,0:0|0:0,0:0:0:0:
348,264,270461,2,0,B|368:244|368:244|400:244,1,59.9999981689454,0|0,1:0|0:0,0:0:0:0:
286,192,270701,6,0,L|226:192,1,59.9999981689454,0|0,3:0|0:0,0:0:0:0:
164,120,270941,1,0,3:0:0:0:
164,120,271061,1,0,3:0:0:0:
164,120,271181,2,0,L|207:77,1,59.9999981689454,10|0,0:0|0:0,0:0:0:0:
348,120,271421,2,0,L|306:77,1,59.9999981689454,0|0,1:0|0:0,0:0:0:0:
164,120,271661,6,0,B|116:120|116:120|108:111|108:111|100:120|100:120|52:120,1,119.999996337891,2|0,0:0|3:0,0:0:0:0:
108,192,272021,1,0,1:0:0:0:
52,264,272141,2,0,B|100:264|100:264|108:273|108:273|116:264|116:264|164:264,1,119.999996337891,14|0,0:0|0:0,0:0:0:0:
348,120,272621,6,0,B|404:99|404:99|460:120,1,119.999996337891,4|0,1:0|3:0,0:0:0:0:
404,192,272981,1,0,1:0:0:0:
404,192,273101,2,0,B|397:221|397:221|404:250,1,59.9999981689454,10|0,0:0|0:0,0:0:0:0:
348,120,273341,2,0,B|355:91|355:91|348:62,1,59.9999981689454,0|0,1:0|0:0,0:0:0:0:
292,192,273581,6,0,B|172:192,1,119.999996337891,2|0,0:0|3:0,0:0:0:0:
80,164,273941,1,0,1:0:0:0:
80,164,274061,2,0,P|71:192|80:220,1,59.9999981689454,10|0,0:0|0:0,0:0:0:0:
52,311,274301,2,0,P|80:320|108:311,1,59.9999981689454,0|0,1:0|0:0,0:0:0:0:
199,339,274541,6,0,P|208:311|199:283,1,59.9999981689454,0|0,3:0|0:0,0:0:0:0:
313,339,274781,1,0,3:0:0:0:
313,339,274901,1,0,3:0:0:0:
313,339,275021,2,0,P|304:311|313:283,1,59.9999981689454,10|0,0:0|0:0,0:0:0:0:
256,162,275261,2,0,L|256:222,1,59.9999981689454,0|0,1:0|0:0,0:0:0:0:
199,101,275501,6,0,L|156:58,1,59.9999981689454,2|0,0:0|0:0,0:0:0:0:
313,101,275741,2,0,L|355:58,1,59.9999981689454,0|0,3:0|3:0,0:0:0:0:
199,101,275981,2,0,B|256:120|256:120|313:101,1,119.999996337891,14|0,0:0|3:0,0:0:0:0:
199,256,276461,6,0,B|256:275|256:275|313:256,1,119.999996337891,4|2,1:0|3:2,0:0:0:0:
427,256,276821,1,0,3:0:0:0:
427,256,276941,2,0,B|370:237|370:237|313:256,1,119.999996337891,8|2,0:0|3:2,0:0:0:0:
313,256,277661,5,2,0:0:0:0:
256,192,277781,1,0,3:0:0:0:
199,256,277901,1,8,0:0:0:0:
20,192,278141,1,2,3:2:0:0:
199,128,278381,6,0,B|256:109|256:109|313:128,1,119.999996337891,0|2,1:0|3:2,0:0:0:0:
427,128,278741,1,0,3:0:0:0:
427,128,278861,2,0,B|370:147|370:147|313:128,1,119.999996337891,8|2,0:0|3:2,0:0:0:0:
313,128,279581,5,2,0:0:0:0:
256,192,279701,1,0,3:0:0:0:
199,128,279821,1,12,1:2:0:0:
20,192,280061,1,2,3:2:0:0:
199,256,280301,6,0,P|179:311|199:366,1,119.999996337891,4|2,1:0|3:2,0:0:0:0:
313,256,280661,1,0,3:0:0:0:
313,256,280781,2,0,P|333:311|313:366,1,119.999996337891,8|2,0:0|3:2,0:0:0:0:
313,366,281501,5,2,0:0:0:0:
404,340,281621,1,0,3:0:0:0:
495,366,281741,1,8,0:0:0:0:
404,256,281981,1,2,3:2:0:0:
313,128,282221,6,0,P|333:73|313:18,1,119.999996337891,0|2,1:0|3:2,0:0:0:0:
199,128,282581,1,0,3:0:0:0:
199,128,282701,2,0,P|179:73|199:18,1,119.999996337891,8|2,0:0|3:2,0:0:0:0:
199,18,283421,5,2,0:0:0:0:
108,44,283541,1,0,3:0:0:0:
17,18,283661,1,12,1:2:0:0:
108,128,283901,1,2,3:2:0:0:
199,256,284141,6,0,B|240:256|240:256|256:266|256:266|272:256|272:256|313:256,1,119.999996337891,4|2,1:0|3:2,0:0:0:0:
404,298,284501,1,0,3:0:0:0:
495,256,284621,2,0,L|404:177,1,119.999996337891,8|2,0:0|3:2,0:0:0:0:
404,177,285341,5,2,0:0:0:0:
313,128,285461,1,0,3:0:0:0:
404,79,285581,1,8,0:0:0:0:
108,86,285821,1,2,3:2:0:0:
313,128,286061,6,0,B|272:128|272:128|256:118|256:118|240:128|240:128|199:128,1,119.999996337891,0|2,1:0|3:2,0:0:0:0:
108,86,286421,1,0,3:0:0:0:
17,128,286541,2,0,L|108:207,1,119.999996337891,8|2,0:0|3:2,0:0:0:0:
108,207,287261,5,2,0:0:0:0:
199,256,287381,1,0,3:0:0:0:
108,305,287501,1,12,1:2:0:0:
404,298,287741,1,2,3:2:0:0:
199,256,287981,6,0,B|188:192|214:138,1,119.999996337891,4|2,1:0|3:2,0:0:0:0:
256,52,288341,1,0,3:0:0:0:
297,139,288461,2,0,B|324:193|313:255,1,119.999996337891,8|2,0:0|3:2,0:0:0:0:
313,256,289181,5,2,0:0:0:0:
256,332,289301,1,0,3:0:0:0:
199,256,289421,1,8,0:0:0:0:
256,52,289661,1,2,3:2:0:0:
313,256,289901,6,0,B|324:192|298:138,1,119.999996337891,0|2,1:0|3:2,0:0:0:0:
256,52,290261,1,0,3:0:0:0:
215,139,290381,2,0,B|188:193|198:255,1,119.999996337891,8|2,0:0|3:2,0:0:0:0:
199,256,291101,5,2,0:0:0:0:
256,332,291221,1,0,3:0:0:0:
313,256,291341,1,12,1:2:0:0:
256,52,291581,1,2,0:0:0:0:
199,256,291821,5,2,0:0:0:0:
256,192,291941,12,0,295181,0:0:0:0:
